VERSION	0.00.00	1.04.00
FES_MODE	0
BPM_DEF	125.000	125.000	190.000	 65.000
MET_DEF	4	4
RESOLUTION	384
CLK_DEF	384
COMPATIBLE_CODE	MA2

BPM	0	0	125.000
BPM	41	0	130.000
BPM	42	0	135.000
BPM	43	0	140.000
BPM	44	0	145.000
BPM	45	0	150.000
BPM	46	0	155.000
BPM	47	0	160.000
BPM	48	0	165.000
BPM	49	0	170.000
BPM	50	0	175.000
BPM	51	0	180.000
BPM	52	0	185.000
BPM	53	0	190.000
BPM	55	0	 95.000
BPM	76	0	 65.000
BPM	76	48	 95.000
MET	0	0	4	4
MET	63	0	4	4

NMSTR	3	0	6
NMSI_	3	0	6	96	288	3
NMSTR	5	0	1
NMSI_	5	0	1	96	288	5
NMSTR	7	0	7
NMSI_	7	0	7	96	288	3
EXSTR	9	0	3
NMSXR	9	0	3	96	480	0
EXSTR	9	0	4
NMSXL	9	0	4	96	480	7
NMTAP	11	0	6
NMTAP	11	48	6
NMTAP	11	96	6
NMTAP	11	192	6
NMTAP	11	192	7
NMTAP	11	288	6
NMTAP	11	288	7
NMTAP	12	0	5
NMTAP	12	48	5
NMTAP	12	96	5
NMTAP	12	192	4
NMTAP	12	192	5
NMTAP	12	288	4
NMTAP	12	288	5
NMTAP	13	0	3
NMTAP	13	48	3
NMTAP	13	96	3
NMTAP	13	192	2
NMTAP	13	192	3
NMTAP	13	288	2
NMTAP	13	288	3
NMTAP	14	0	1
NMTAP	14	48	1
NMTAP	14	96	1
BXTAP	14	192	0
BXTAP	14	192	1
NMTAP	15	0	1
NMTAP	15	48	1
NMTAP	15	96	1
NMTAP	15	192	0
NMTAP	15	192	1
NMTAP	15	288	0
NMTAP	15	288	1
NMTAP	16	0	2
NMTAP	16	48	2
NMTAP	16	96	2
NMTAP	16	192	2
NMTAP	16	192	3
NMTAP	16	288	2
NMTAP	16	288	3
NMTAP	17	0	4
NMTAP	17	48	4
NMTAP	17	96	4
NMTAP	17	192	4
NMTAP	17	192	5
NMTAP	17	288	4
NMTAP	17	288	5
NMTAP	18	0	6
NMTAP	18	48	6
NMTAP	18	96	6
NMTAP	18	192	6
NMTAP	18	192	7
NMSTR	19	0	6
NMSUL	19	0	6	96	480	3
NMSTR	21	0	1
NMSUR	21	0	1	96	480	4
NMTAP	23	0	5
NMTAP	23	48	5
NMTAP	23	96	5
NMTAP	23	192	6
NMTAP	23	240	6
NMTAP	23	288	6
NMTAP	24	0	7
NMTAP	24	48	7
NMTAP	24	96	7
NMTAP	24	192	0
NMTAP	24	240	0
NMTAP	24	288	0
NMTAP	25	0	1
NMTAP	25	48	1
NMTAP	25	96	1
NMTAP	25	192	2
NMTAP	25	240	2
NMTAP	25	288	2
NMTAP	26	0	3
NMTAP	26	48	3
NMTAP	26	96	3
NMTAP	26	192	3
NMTAP	26	192	4
NMTAP	27	0	2
NMTAP	27	48	2
NMTAP	27	96	2
NMTAP	27	96	3
NMTAP	27	192	1
NMTAP	27	240	1
NMTAP	27	288	0
NMTAP	27	288	1
NMTAP	28	0	7
NMTAP	28	48	7
NMTAP	28	96	6
NMTAP	28	96	7
NMTAP	28	192	4
NMTAP	28	192	5
NMTAP	28	240	4
NMTAP	28	240	5
NMTAP	28	288	4
NMTAP	28	288	5
NMTAP	29	0	5
NMTAP	29	48	5
NMTAP	29	96	4
NMTAP	29	96	5
NMTAP	29	192	6
NMTAP	29	240	6
NMTAP	29	288	6
NMTAP	29	288	7
NMTAP	30	0	0
NMTAP	30	48	0
NMTAP	30	96	0
NMTAP	30	96	1
BXTAP	30	192	2
BXTAP	30	192	3
NMTAP	31	0	2
NMTAP	31	48	2
NMTAP	31	96	0
NMTAP	31	96	1
NMTAP	31	144	0
NMTAP	31	144	1
NMTAP	31	192	7
NMTAP	31	240	7
NMTAP	31	288	6
NMTAP	31	288	7
NMTAP	32	0	5
NMTAP	32	48	5
NMTAP	32	96	6
NMTAP	32	96	7
NMTAP	32	144	6
NMTAP	32	144	7
NMTAP	32	192	0
NMTAP	32	240	0
NMTAP	32	288	0
NMTAP	32	288	1
NMTAP	33	0	1
NMTAP	33	48	1
NMTAP	33	96	2
NMTAP	33	96	3
NMTAP	33	144	2
NMTAP	33	144	3
NMTAP	33	192	4
NMTAP	33	240	4
NMTAP	33	288	4
NMTAP	33	288	5
NMTAP	34	0	6
NMTAP	34	48	6
NMTAP	34	96	4
NMTAP	34	96	5
NMTAP	34	144	4
NMTAP	34	144	5
NMTAP	34	192	3
NMTAP	34	240	3
NMTAP	34	288	2
NMTAP	34	288	3
NMTAP	35	0	2
NMTAP	35	48	2
NMTAP	35	96	0
NMTAP	35	96	1
NMTAP	35	144	0
NMTAP	35	144	1
NMTAP	35	192	7
NMTAP	35	240	7
NMTAP	35	288	6
NMTAP	35	288	7
NMTAP	35	336	6
NMTAP	35	336	7
NMTAP	36	0	5
NMTAP	36	48	5
NMTAP	36	96	6
NMTAP	36	96	7
NMTAP	36	144	6
NMTAP	36	144	7
NMTAP	36	192	0
NMTAP	36	240	0
NMTAP	36	288	0
NMTAP	36	288	1
NMTAP	37	0	1
NMTAP	37	48	1
NMTAP	37	96	2
NMTAP	37	96	3
NMTAP	37	144	2
NMTAP	37	144	3
NMTAP	37	192	4
NMTAP	37	240	4
NMTAP	37	288	4
NMTAP	37	288	5
NMTAP	37	336	4
NMTAP	37	336	5
NMTAP	38	0	6
NMTAP	38	48	6
NMTAP	38	96	4
NMTAP	38	96	5
NMTAP	38	144	4
NMTAP	38	144	5
NMTAP	38	192	3
NMTAP	38	240	3
NMTAP	38	288	2
NMTAP	38	288	3
NMHLD	39	0	2	192
NMHLD	39	192	3	192
NMHLD	40	0	4	192
NMTAP	40	192	5
NMHLD	41	0	5	192
NMHLD	41	192	4	192
NMHLD	42	0	3	192
NMTAP	42	192	2
NMHLD	43	0	1	192
NMHLD	43	192	0	192
NMHLD	44	0	7	192
NMTAP	44	192	6
NMHLD	45	0	6	192
NMHLD	45	192	7	192
NMHLD	46	0	0	192
NMTAP	46	192	1
NMTTP	47	0	1	B	0	L1
NMTTP	47	96	2	B	0	L1
NMTTP	47	192	3	B	0	L1
NMTTP	48	0	6	B	0	L1
NMTTP	48	96	5	B	0	L1
NMTTP	48	192	4	B	0	L1
NMTTP	49	0	1	B	0	L1
NMTTP	49	96	2	B	0	L1
NMTTP	49	192	3	B	0	L1
NMTTP	49	288	4	B	0	L1
NMTTP	50	0	5	B	0	L1
NMTTP	50	96	6	B	0	L1
NMTTP	50	192	0	C	0	L1
NMTTP	51	0	7	B	0	L1
NMTTP	51	96	6	B	0	L1
NMTTP	51	192	4	B	0	L1
NMTTP	51	192	5	B	0	L1
NMTTP	52	0	0	B	0	L1
NMTTP	52	96	1	B	0	L1
NMTTP	52	192	2	B	0	L1
NMTTP	52	192	3	B	0	L1
NMTTP	53	0	6	B	0	L1
NMTTP	53	96	5	B	0	L1
NMTTP	53	192	4	B	0	L1
NMTTP	53	288	3	B	0	L1
NMTTP	54	0	0	C	0	L1
NMTAP	55	0	1
NMTAP	55	24	1
NMTAP	55	48	1
NMTAP	55	96	0
NMTAP	55	144	0
NMTAP	55	192	7
NMTAP	55	216	7
NMTAP	55	240	7
NMTAP	55	288	6
NMTAP	55	288	7
NMTAP	56	0	5
NMTAP	56	24	5
NMTAP	56	48	5
NMTAP	56	96	6
NMTAP	56	144	6
NMTAP	56	192	7
NMTAP	56	216	7
NMTAP	56	240	7
NMTAP	56	288	0
NMTAP	56	288	1
NMTAP	57	0	1
NMTAP	57	24	1
NMTAP	57	48	1
NMTAP	57	96	2
NMTAP	57	144	2
NMTAP	57	192	3
NMTAP	57	216	3
NMTAP	57	240	3
NMTAP	57	288	4
NMTAP	57	288	5
NMTAP	58	0	6
NMTAP	58	24	6
NMTAP	58	48	6
NMTAP	58	96	5
NMTAP	58	144	5
BXTAP	58	192	3
BXTAP	58	192	4
NMTAP	59	0	2
NMTAP	59	24	2
NMTAP	59	48	2
NMTAP	59	96	0
NMTAP	59	96	1
NMTAP	59	144	0
NMTAP	59	144	1
NMTAP	59	192	7
NMTAP	59	216	7
NMTAP	59	240	7
NMTAP	59	288	6
NMTAP	59	288	7
NMTAP	60	0	5
NMTAP	60	24	5
NMTAP	60	48	5
NMTAP	60	96	6
NMTAP	60	96	7
NMTAP	60	144	6
NMTAP	60	144	7
NMTAP	60	192	0
NMTAP	60	216	0
NMTAP	60	240	0
NMTAP	60	288	0
NMTAP	60	288	1
NMTAP	61	0	2
NMTAP	61	24	2
NMTAP	61	48	2
NMTAP	61	96	3
NMTAP	61	120	3
NMTAP	61	144	3
NMTAP	61	192	4
NMTAP	61	216	4
NMTAP	61	240	4
NMTAP	61	288	5
NMTAP	61	312	5
NMTAP	61	336	5
BRTAP	62	0	3
BRTAP	62	0	4
EXSTR	62	288	3
NMSCL	62	288	3	96	192	0
EXSTR	62	288	4
NMSCR	62	288	4	96	192	7
NMHLD	64	0	0	288
NMHLD	64	0	7	288
NMTAP	65	0	1
NMTAP	65	48	1
NMTAP	65	96	0
NMTAP	65	96	1
NMTAP	65	192	6
NMTAP	65	240	6
NMTAP	65	288	6
NMTAP	65	288	7
NMTAP	66	0	5
NMTAP	66	24	5
NMTAP	66	48	5
NMTAP	66	96	6
NMTAP	66	120	6
NMTAP	66	144	6
NMTAP	66	192	7
NMTAP	66	216	7
NMTAP	66	240	7
EXTAP	66	288	0
EXTAP	66	288	1
NMTAP	67	0	2
NMTAP	67	24	2
NMTAP	67	48	2
NMTAP	67	96	1
NMTAP	67	120	1
NMTAP	67	144	1
NMTAP	67	192	0
NMTAP	67	216	0
NMTAP	67	240	0
EXTAP	67	288	6
EXTAP	67	288	7
NMTAP	68	0	5
NMTAP	68	24	5
NMTAP	68	48	5
NMTAP	68	96	6
NMTAP	68	96	7
NMTAP	68	120	6
NMTAP	68	120	7
NMTAP	68	144	6
NMTAP	68	144	7
NMTAP	68	192	0
NMTAP	68	216	0
NMTAP	68	240	0
NMTAP	68	288	0
NMTAP	68	288	1
NMTAP	69	0	2
NMTAP	69	24	2
NMTAP	69	48	2
NMTAP	69	96	0
NMTAP	69	96	1
NMTAP	69	120	0
NMTAP	69	120	1
NMTAP	69	144	0
NMTAP	69	144	1
NMTAP	69	192	7
NMTAP	69	216	7
NMTAP	69	240	7
NMTAP	69	288	6
NMTAP	69	288	7
NMTAP	70	0	6
NMTAP	70	24	6
NMTAP	70	48	6
NMTAP	70	96	4
NMTAP	70	96	5
NMTAP	70	120	4
NMTAP	70	120	5
NMTAP	70	144	4
NMTAP	70	144	5
NMTAP	70	192	3
NMTAP	70	216	3
NMTAP	70	240	3
NMTAP	70	288	2
NMTAP	70	288	3
NMTAP	71	0	1
NMTAP	71	24	1
NMTAP	71	48	1
NMTAP	71	96	2
NMTAP	71	96	3
NMTAP	71	120	2
NMTAP	71	120	3
NMTAP	71	144	2
NMTAP	71	144	3
NMTAP	71	192	4
NMTAP	71	216	4
NMTAP	71	240	4
NMTAP	71	288	4
NMTAP	71	288	5
NMHLD	72	0	6	96
NMHLD	72	96	7	96
NMHLD	72	192	0	96
NMTAP	72	288	1
NMTAP	73	0	0
NMTAP	73	0	1
NMTAP	73	24	0
NMTAP	73	24	1
NMTAP	73	48	0
NMTAP	73	48	1
NMTAP	73	96	2
NMTAP	73	96	7
NMTAP	73	144	2
NMTAP	73	144	7
NMTAP	73	192	3
NMTAP	73	192	6
NMTAP	73	240	3
NMTAP	73	240	6
NMTAP	73	288	4
NMTAP	73	288	5
NMTAP	74	0	6
NMTAP	74	0	7
NMTAP	74	24	6
NMTAP	74	24	7
NMTAP	74	48	6
NMTAP	74	48	7
NMTAP	74	96	0
NMTAP	74	96	5
NMTAP	74	144	0
NMTAP	74	144	5
NMTAP	74	192	1
NMTAP	74	192	4
NMTAP	74	240	1
NMTAP	74	240	4
NMTAP	74	288	2
NMTAP	74	288	3
NMTAP	75	0	3
NMTAP	75	0	4
NMTAP	75	24	3
NMTAP	75	24	4
NMTAP	75	48	3
NMTAP	75	48	4
NMTAP	75	96	2
NMTAP	75	96	5
NMTAP	75	120	2
NMTAP	75	120	5
NMTAP	75	144	2
NMTAP	75	144	5
NMTAP	75	192	1
NMTAP	75	192	6
NMTAP	75	216	1
NMTAP	75	216	6
NMTAP	75	240	1
NMTAP	75	240	6
NMTAP	75	288	0
NMTAP	75	288	7
NMTAP	75	312	0
NMTAP	75	312	7
NMTAP	75	336	0
NMTAP	75	336	7
NMSTR	76	0	1
NMSLR	76	0	1	96	384	7
NMSTR	76	0	6
NMSLL	76	0	6	96	384	0

T_REC_TAP	401
T_REC_BRK	2
T_REC_XTP	4
T_REC_BXX	6
T_REC_HLD	17
T_REC_XHO	0
T_REC_BHO	0
T_REC_BXH	0
T_REC_STR	7
T_REC_BST	0
T_REC_XST	4
T_REC_XBS	0
T_REC_TTP	26
T_REC_THO	0
T_REC_SLD	11
T_REC_BSL	0
T_REC_ALL	478
T_NUM_TAP	442
T_NUM_BRK	8
T_NUM_HLD	17
T_NUM_SLD	11
T_NUM_ALL	478
T_JUDGE_TAP	450
T_JUDGE_HLD	84
T_JUDGE_SLD	11
T_JUDGE_ALL	545
TTM_EACHPAIRS	114
TTM_SCR_TAP	221000
TTM_SCR_BRK	20800
TTM_SCR_HLD	17000
TTM_SCR_SLD	16500
TTM_SCR_ALL	275300
TTM_SCR_S	266300
TTM_SCR_SS	274500
TTM_RAT_ACV	10029

