VERSION	0.00.00	1.04.00
FES_MODE	0
BPM_DEF	250.000	250.000	250.000	250.000
MET_DEF	4	4
RESOLUTION	384
CLK_DEF	384
COMPATIBLE_CODE	MA2

BPM	0	0	250.000
MET	0	0	4	4

BXSTR	3	0	5
BRSI_	3	0	5	96	480	2
BXSTR	3	1	1
NMSI_	3	1	1	96	479	6
EXTAP	3	16	2
EXTAP	3	16	6
EXTAP	3	32	3
EXTAP	3	32	7
EXTAP	3	48	0
EXTAP	3	48	4
CNSI_	4	192	2	0	768	5
CNSI_	4	192	6	0	768	1
NMTAP	7	0	1
NMTAP	7	24	7
NMTAP	7	48	1
NMTAP	7	72	7
BRHLD	7	96	1	672
NMHLD	9	0	3	144
NMHLD	9	144	2	144
NMTAP	9	288	4
NMTAP	10	0	3
NMHLD	10	0	5	144
NMHLD	10	144	4	144
NMSTR	10	288	6
NMSLL	10	288	6	96	480	0
BXTAP	11	0	3
NMTAP	11	96	3
NMTAP	11	192	3
NMTAP	11	288	3
NMTAP	12	0	2
NMTAP	12	96	2
NMTAP	12	192	1
NMSTR	12	288	1
BRSV_	12	288	1	96	192	2
NMTAP	13	0	7
NMTAP	13	96	7
CNSI_	13	192	2	0	384	4
NMTAP	13	192	7
NMTAP	13	288	7
NMTAP	14	0	6
NMTAP	14	96	6
NMTAP	14	192	5
NMTAP	14	288	5
NMTAP	15	0	3
NMTAP	15	48	3
NMTAP	15	96	4
NMTAP	15	144	4
NMTAP	15	192	2
NMTAP	15	240	2
NMTAP	15	288	4
NMTAP	15	336	4
NMTAP	16	0	1
NMTAP	16	48	1
NMTAP	16	96	5
NMTAP	16	144	5
NMTAP	16	192	0
NMTAP	16	240	0
NMTAP	16	288	1
NMHLD	16	288	7	96
NMTAP	17	0	1
NMTAP	17	24	2
NMTAP	17	48	3
NMTAP	17	72	4
NMTAP	17	96	5
NMTAP	17	120	6
NMTAP	17	144	7
NMTAP	17	168	0
NMTAP	17	192	1
NMTAP	17	216	2
NMTAP	17	240	3
NMTAP	17	264	4
NMTAP	17	288	5
NMTAP	17	312	6
NMTAP	17	336	7
NMTAP	17	360	0
NMTAP	18	0	1
NMHLD	18	0	5	288
NMTTP	18	288	0	C	0	M1
NMSTR	19	0	6
NMSCL	19	0	6	96	48	3
NMTAP	19	96	0
NMSTR	19	144	1
NMSI_	19	144	1	96	48	7
NMTAP	19	240	3
NMTAP	19	288	4
NMSTR	20	0	6
NMSI_	20	0	6	96	48	0
NMTAP	20	96	2
NMSTR	20	144	1
NMSCR	20	144	1	96	48	4
NMTAP	20	240	7
NMTAP	20	288	7
NMHLD	21	0	5	96
NMTAP	21	96	4
NMTAP	21	144	3
NMSTR	21	144	6
NMSV_	21	144	6	96	48	3
NMTAP	21	240	0
NMTAP	21	288	0
NMTAP	22	0	1
NMTAP	22	48	2
NMTAP	22	96	3
NMTAP	22	144	4
NMTAP	22	192	5
NMTAP	22	240	4
NMTAP	22	288	3
NMTAP	22	336	2
NMSTR	23	0	1
NMSCL	23	0	1	96	48	7
NMTAP	23	0	4
NMTAP	23	96	5
NMHLD	23	144	5	96
NMTAP	23	240	4
NMSTR	23	288	3
NMSI_	23	288	3	96	48	7
NMSTR	24	0	6
NMSCL	24	0	6	96	48	3
NMTAP	24	96	0
NMTAP	24	144	0
NMTAP	24	240	1
NMTAP	24	240	7
NMTAP	24	288	1
NMTAP	24	288	7
EXTAP	25	0	1
EXTAP	25	0	4
NMTAP	25	48	2
NMTAP	25	72	3
NMTAP	25	96	2
NMTAP	25	144	5
NMTAP	25	192	2
NMTAP	25	216	3
NMTAP	25	240	2
NMTAP	25	288	6
NMTAP	25	336	1
NMTAP	25	360	0
NMTAP	26	0	1
NMTAP	26	48	7
NMTAP	26	96	0
NMSTR	26	96	6
NMSI_	26	96	6	96	48	4
CNSI_	26	240	4	0	48	2
CNSI_	26	288	2	0	48	0
BRTAP	27	0	7
NMTAP	27	96	0
NMTAP	27	96	6
NMHLD	27	144	0	96
NMTAP	27	144	6
NMTAP	27	240	2
NMTAP	27	336	4
NMTAP	28	0	3
NMTAP	28	0	5
NMHLD	28	48	2	96
NMTAP	28	48	6
NMSTR	28	144	7
NMSI_	28	144	7	96	48	2
NMSTR	28	240	1
NMSI_	28	240	1	96	48	4
NMTAP	28	336	5
NMTAP	29	0	5
NMTAP	29	96	6
NMTAP	29	96	7
NMTAP	29	144	6
NMTAP	29	144	7
NMTAP	29	240	0
NMTAP	29	240	1
NMSTR	29	336	2
NMSLL	29	336	2	96	96	6
NMTAP	29	336	3
NMTAP	30	48	4
BRHLD	30	144	5	96
NMTAP	30	240	4
NMTAP	30	288	3
NMSTR	30	288	6
NMSCR	30	288	6	96	48	1
NMTAP	31	0	2
NMTAP	31	96	3
NMTAP	31	144	3
NMTAP	31	192	7
NMTAP	31	216	6
NMTAP	31	240	5
NMTAP	31	264	4
NMTAP	31	288	1
NMTAP	31	312	2
NMTAP	31	336	3
NMTAP	31	360	4
NMTHO	32	0	0	384	C	1	M1
NMSTR	33	0	0
NMSCR	33	0	0	96	672	7
CNSI_	35	0	7	0	576	3
NMTTP	35	360	4	A	0	M1
NMTTP	36	0	5	D	0	M1
NMTTP	36	24	5	A	0	M1
NMHLD	37	0	2	96
NMHLD	37	192	1	96
NMTTP	37	192	3	B	0	M1
NMTTP	37	192	4	B	0	M1
NMHLD	38	0	1	96
NMHLD	38	192	2	96
NMTTP	38	192	3	B	0	M1
NMTTP	38	192	4	B	0	M1
NMTAP	39	0	2
NMHLD	39	0	6	96
NMTTP	39	192	4	B	0	M1
NMTTP	39	192	4	E	0	M1
NMHLD	39	192	5	96
NMHLD	40	0	5	96
NMTTP	40	192	3	B	0	M1
NMTTP	40	192	4	B	0	M1
NMTTP	40	192	4	E	0	M1
NMHLD	40	192	6	96
BRTAP	41	0	1
BRSTR	41	0	7
NMSUL	41	0	7	96	288	3
NMTAP	41	96	1
NMTAP	41	192	1
NMTAP	41	288	1
NMTAP	42	0	2
NMTAP	42	96	2
NMTAP	42	192	2
NMTAP	42	288	2
NMTAP	42	288	4
NMTAP	42	336	1
NMSTR	43	0	0
NMSUR	43	0	0	96	288	4
NMTAP	43	0	6
NMTAP	43	96	6
NMTAP	43	192	6
NMTAP	43	288	6
NMTAP	44	0	5
NMTAP	44	96	5
NMTAP	44	192	5
NMTAP	44	288	3
NMTAP	44	288	4
NMTAP	45	0	2
NMTAP	45	24	3
NMTAP	45	48	2
EXTAP	45	96	1
EXTAP	45	96	4
NMTAP	45	192	0
NMTAP	45	240	0
NMTAP	45	288	6
NMTAP	45	336	6
NMTAP	46	0	2
NMTAP	46	48	2
NMTAP	46	96	4
NMTAP	46	144	4
NMTAP	46	192	3
NMTAP	46	240	3
NMTAP	46	288	2
NMTAP	46	288	4
EXTAP	47	0	2
EXTAP	47	24	4
EXTAP	47	48	2
EXTAP	47	72	4
EXTAP	47	96	2
EXTAP	47	120	4
EXTAP	47	144	2
EXTAP	47	168	4
EXTAP	47	192	1
EXTAP	47	216	5
EXTAP	47	240	1
EXSTR	47	264	5
NMSI_	47	264	5	96	72	2
EXSTR	47	288	1
BRSI_	47	288	1	96	48	6
NMTAP	48	144	0
NMTAP	48	144	4
NMTAP	48	192	0
NMTAP	48	192	4
NMTAP	48	288	2
NMSTR	48	288	6
NMSI_	48	288	6	96	48	3
NMSTR	49	0	1
NMSLL	49	0	1	96	96	5
BXTAP	49	0	6
NMTAP	49	96	4
NMTAP	49	192	3
CNSCR	49	192	5	0	96	0
NMSTR	49	288	4
NMSI_	49	288	4	96	48	0
NMTAP	50	0	3
NMSTR	50	0	4
NMSLL	50	0	4	96	96	7
NMTAP	50	96	7
NMSTR	50	192	5
NMSI_	50	192	5	96	48	3
NMTAP	50	288	1
NMTAP	50	288	5
NMTAP	51	0	2
NMSTR	51	0	6
NMSLR	51	0	6	96	96	2
NMTAP	51	96	3
CNSCL	51	192	2	0	96	7
NMTAP	51	192	4
NMSTR	51	288	3
NMSI_	51	288	3	96	48	7
NMSTR	52	0	3
NMSLR	52	0	3	96	96	0
NMTAP	52	0	4
NMTAP	52	96	0
NMSTR	52	192	2
NMSI_	52	192	2	96	48	7
NMTAP	52	288	2
NMTAP	52	288	3
NMHLD	53	0	5	96
NMSTR	53	96	4
NMSI_	53	96	4	96	48	1
NMTAP	53	192	4
NMSTR	53	192	6
NMSI_	53	192	6	96	48	3
BRTAP	53	288	0
NMTAP	53	288	6
NMSTR	54	0	1
NMSI_	54	0	1	96	48	5
NMTAP	54	96	4
CNSI_	54	144	5	0	48	3
CNSI_	54	192	3	0	48	0
NMSTR	54	192	7
NMSI_	54	192	7	96	48	3
BRTAP	54	288	7
NMTAP	55	0	1
NMTAP	55	24	0
NMTAP	55	48	1
NMTAP	55	96	6
NMTAP	55	120	7
NMTAP	55	144	6
NMTAP	55	192	2
NMTAP	55	216	3
NMTAP	55	240	1
NMTAP	55	288	5
NMTAP	55	312	4
NMTAP	55	336	6
NMSTR	56	0	0
NMSI_	56	0	0	96	48	4
NMSTR	56	0	1
NMSI_	56	0	1	96	48	3
NMTAP	56	96	0
NMTAP	56	96	1
NMTAP	56	192	7
NMTAP	56	288	1
NMTAP	56	288	5
BXSTR	57	0	0
BRSI_	57	0	0	96	48	4
BXSTR	57	96	6
BRSI_	57	96	6	96	48	2
BXTAP	57	192	3
BXTAP	57	288	0
BXTAP	57	336	0
BXTAP	58	0	1
BXTAP	58	0	7
BXTAP	58	48	1
BXTAP	58	48	7
BXTAP	58	96	2
BXHLD	58	96	6	96
BXTAP	58	192	4
BXTAP	58	264	3
BXTAP	58	288	4
BXTAP	58	336	1
BXSTR	59	0	1
BRSI_	59	0	1	96	48	7
BXSTR	59	96	5
BRSI_	59	96	5	96	48	3
BXTAP	59	192	2
BXTAP	59	288	1
BXTAP	59	312	0
BXTAP	59	336	1
BXTAP	59	360	0
BXTAP	60	0	1
BXTAP	60	48	2
BXTAP	60	48	7
BXTAP	60	96	3
BXHLD	60	96	6	72
BXTAP	60	168	4
BXTAP	60	192	5
BXTAP	60	240	0
BXTAP	60	264	7
BXSTR	60	288	1
BRSI_	60	288	1	96	48	4
BXSTR	60	288	6
NMSI_	60	288	6	96	48	3
BXTAP	61	0	1
BXTAP	61	0	6
EXTAP	61	96	1
EXTAP	61	96	7
NMTAP	61	144	1
NMTAP	61	192	6
NMTAP	61	216	5
NMTAP	61	240	4
NMTAP	61	264	3
NMTAP	61	288	6
NMTAP	61	312	5
NMTAP	61	336	4
NMTAP	61	360	3
BRTAP	62	0	7
NMTAP	62	96	0
NMTAP	62	96	6
NMTAP	62	144	6
NMTAP	62	192	1
NMTAP	62	216	2
NMTAP	62	240	3
NMTAP	62	264	4
NMTAP	62	288	1
NMTAP	62	312	2
NMTAP	62	336	3
NMTAP	62	360	4
BRTAP	63	0	0
NMTTP	63	96	1	A	0	M1
NMTTP	63	128	2	E	0	M1
NMTTP	63	160	3	E	0	M1
NMTTP	63	192	7	A	0	M1
NMTTP	63	224	7	E	0	M1
NMTTP	63	256	6	E	0	M1
NMTTP	63	288	0	B	0	M1
NMTTP	63	320	0	C	0	M1
NMTTP	63	352	4	B	0	M1
NMTTP	64	0	6	A	0	M1
NMTTP	64	32	5	A	0	M1
NMTTP	64	64	4	A	0	M1
NMTTP	64	96	3	A	0	M1
NMTTP	64	128	2	A	0	M1
NMTTP	64	160	1	A	0	M1
NMTTP	64	192	6	D	0	M1
NMTTP	64	224	5	D	0	M1
NMTTP	64	256	4	D	0	M1
NMTTP	64	288	3	D	0	M1
NMTTP	64	320	2	D	0	M1
NMTTP	64	352	1	D	0	M1
NMTAP	65	0	7
NMTAP	65	24	6
NMTAP	65	48	5
NMTAP	65	72	4
NMTAP	65	96	3
NMTAP	65	120	2
NMTAP	65	144	1
NMTAP	65	168	0
NMTAP	65	192	7
NMTAP	65	216	0
NMTAP	65	240	1
NMTAP	65	264	2
NMTAP	65	288	3
NMTAP	65	312	4
NMTAP	65	336	5
NMTAP	65	360	6
NMTHO	66	0	0	192	C	0	M1
NMTAP	66	0	7
NMTTP	66	192	2	E	0	M1
NMTTP	66	192	2	D	0	M1
NMTTP	66	192	6	E	0	M1
NMTTP	66	192	6	D	0	M1
NMSTR	67	0	7
NMSI_	67	0	7	96	48	2
NMTAP	67	96	0
NMTAP	67	96	7
NMSTR	67	144	1
NMSI_	67	144	1	96	48	5
NMSTR	67	240	3
NMSCR	67	240	3	96	96	7
NMTAP	67	336	0
NMTAP	68	96	2
NMTAP	68	192	0
NMTAP	68	192	1
NMTAP	68	288	6
NMTAP	68	288	7
NMTAP	69	0	0
NMTAP	69	0	5
NMSTR	69	48	0
NMSI_	69	48	0	96	48	2
NMTAP	69	48	5
NMSTR	69	144	0
NMSI_	69	144	0	96	48	6
NMSTR	69	240	0
NMSI_	69	240	0	96	48	4
NMTAP	69	336	0
NMSTR	70	96	6
NMSCL	70	96	6	96	96	3
NMSTR	70	192	3
NMSCL	70	192	3	96	96	0
NMSTR	70	288	0
NMSCL	70	288	0	96	96	5
NMSTR	71	0	5
NMSXL	71	0	5	96	144	4
NMHLD	71	288	3	96
NMHLD	72	0	1	96
NMHLD	72	96	7	96
NMHLD	72	192	5	96
NMTAP	72	288	3
NMTAP	73	0	2
NMTAP	73	0	4
NMTAP	73	48	2
NMSTR	73	48	4
NMSI_	73	48	4	96	48	6
NMSTR	73	144	4
NMSI_	73	144	4	96	48	2
NMSTR	73	240	4
NMSI_	73	240	4	96	48	0
NMSTR	73	336	4
NMSCR	73	336	4	96	144	2
NMTAP	74	48	4
NMTAP	74	144	4
NMTAP	74	240	5
NMTAP	74	336	4
NMTAP	74	336	6
NMSTR	75	0	7
NMSI_	75	0	7	96	48	3
NMTAP	75	48	7
NMTAP	75	96	2
NMTAP	75	144	2
NMSTR	75	192	6
NMSI_	75	192	6	96	48	4
NMTAP	75	240	6
NMTAP	75	288	0
NMSTR	76	0	1
NMSI_	76	0	1	96	48	3
NMTAP	76	48	1
NMTAP	76	96	5
NMTAP	76	144	5
NMSTR	76	192	0
NMSI_	76	192	0	96	48	4
NMTAP	76	240	0
NMTAP	76	288	7
NMSTR	77	0	6
NMSI_	77	0	6	96	48	4
NMTAP	77	48	6
NMTAP	77	96	0
NMTAP	77	144	1
NMSTR	77	192	2
NMSI_	77	192	2	96	48	7
NMTAP	77	240	2
NMTAP	77	288	4
NMTAP	78	0	6
NMTAP	78	48	6
NMTAP	78	96	4
NMTAP	78	144	5
NMSTR	78	192	3
NMSI_	78	192	3	96	48	7
NMSTR	78	192	6
NMSCL	78	192	6	96	48	3
NMTAP	79	0	0
NMTAP	79	0	4
NMHLD	79	96	1	96
NMTAP	79	96	3
NMTAP	79	120	4
NMTAP	79	144	5
NMTAP	79	168	6
NMTAP	79	192	7
NMHLD	79	288	2	96
NMTAP	79	288	4
NMTAP	79	312	5
NMTAP	79	336	6
NMTAP	79	360	7
NMTAP	80	0	0
NMTAP	80	24	1
NMTAP	80	48	2
NMTAP	80	72	3
NMTAP	80	96	4
NMTAP	80	120	5
NMTAP	80	144	6
NMTAP	80	168	7
NMTAP	80	192	0
NMTAP	80	192	4
NMTAP	80	288	1
NMTAP	80	288	3
NMTAP	81	0	3
NMTAP	81	0	4
NMTAP	81	96	4
NMHLD	81	96	6	96
NMTAP	81	120	3
NMTAP	81	144	2
NMTAP	81	168	1
NMTAP	81	192	0
NMTAP	81	288	3
NMHLD	81	288	5	96
NMTAP	81	312	2
NMTAP	81	336	1
NMTAP	81	360	0
NMTAP	82	0	7
NMTAP	82	24	6
NMTAP	82	48	5
NMTAP	82	72	4
NMTAP	82	96	3
NMTAP	82	120	2
NMTAP	82	144	1
NMTAP	82	168	0
NMTAP	82	192	4
NMTAP	82	216	5
NMTAP	82	240	6
NMTAP	82	264	7
NMTAP	82	288	0
NMTAP	82	312	1
NMTAP	82	336	2
NMTAP	82	360	3
NMSTR	83	0	0
NMSUL	83	0	0	96	528	6
NMSTR	83	0	4
NMSUL	83	0	4	96	528	2
CNSCR	84	240	2	0	528	5
CNSCR	84	240	6	0	528	1
NMTAP	86	192	0
NMTAP	86	192	6
NMTAP	86	288	0
NMTAP	86	288	6
NMTAP	87	0	1
NMTTP	87	0	4	B	0	M1
NMTTP	87	0	5	B	0	M1
NMTAP	87	48	1
NMTAP	87	96	1
NMTAP	87	144	1
NMTAP	87	192	1
NMTTP	87	192	6	B	0	M1
NMTTP	87	192	7	B	0	M1
NMTAP	87	240	1
NMTAP	87	288	1
NMTTP	88	0	2	A	0	M1
NMTTP	88	0	3	A	0	M1
NMTTP	88	0	3	D	0	M1
NMTAP	88	0	5
NMTAP	88	48	5
NMTAP	88	96	5
NMTAP	88	144	5
NMTTP	88	192	0	A	0	M1
NMTTP	88	192	1	A	0	M1
NMTTP	88	192	1	D	0	M1
NMTAP	88	192	5
NMTAP	88	240	5
NMTAP	88	288	5
NMTAP	89	0	3
NMTTP	89	0	4	B	0	M1
NMTTP	89	0	5	B	0	M1
NMTTP	89	0	5	E	0	M1
NMTAP	89	48	3
NMTAP	89	96	3
NMTAP	89	144	3
NMTAP	89	192	3
NMTTP	89	192	6	B	0	M1
NMTTP	89	192	7	B	0	M1
NMTTP	89	192	7	E	0	M1
NMTAP	89	240	3
NMTAP	89	288	3
NMHLD	90	0	0	24
NMHLD	90	48	0	24
NMHLD	90	96	0	24
NMHLD	90	144	0	24
NMHLD	90	192	1	24
NMHLD	90	192	7	24
NMHLD	90	240	1	24
NMHLD	90	240	7	24
NMHLD	90	288	2	24
NMHLD	90	288	6	24
NMHLD	90	336	2	24
NMHLD	90	336	6	24
NMTTP	91	0	0	C	1	M1
NMTAP	92	336	2
NMTAP	92	360	3
NMHLD	93	0	4	396
NMHLD	94	0	3	0
BXTAP	95	0	3
BRTAP	95	0	6
NMTAP	95	32	2
NMTAP	95	64	1
NMTAP	95	96	0
BRTAP	95	128	4
BXTAP	95	128	7
NMTAP	95	160	3
NMTAP	95	192	2
NMTAP	95	224	1
NMTAP	95	256	0
NMTAP	95	288	7
NMTAP	95	320	6
NMTAP	95	352	5
BRTAP	96	0	0
BXTAP	96	0	4
NMTAP	96	32	1
NMTAP	96	64	2
NMTAP	96	96	3
BXTAP	96	128	4
BRTAP	96	128	7
NMTAP	96	160	0
NMTAP	96	192	1
NMTAP	96	224	2
NMTAP	96	256	3
NMTAP	96	288	4
NMTAP	96	320	5
NMTAP	96	352	6
BRTAP	97	0	2
BRSTR	97	0	7
NMSSR	97	0	7	96	192	3
BRSTR	97	192	3
NMSCL	97	192	3	96	96	1
CNSI_	98	0	1	0	96	7
CNSV_	98	96	7	0	96	6
CNSI_	98	192	6	0	96	4
NMTTP	99	0	3	E	0	M1
EXHLD	99	0	4	672
NMTTP	99	96	2	E	0	M1
NMTTP	99	192	1	E	0	M1
NMTTP	99	288	0	E	0	M1
NMTTP	100	0	7	E	0	M1
NMTTP	100	96	6	E	0	M1
NMTTP	100	192	5	E	0	M1
NMTTP	100	288	4	E	0	M1
EXHLD	101	0	3	672
NMTTP	101	0	5	E	0	M1
NMTTP	101	96	6	E	0	M1
NMTTP	101	192	7	E	0	M1
NMTTP	101	288	0	E	0	M1
NMTTP	102	0	1	E	0	M1
NMTTP	102	96	2	E	0	M1
NMTTP	102	192	3	E	0	M1
NMTTP	102	288	4	E	0	M1
NMTTP	103	0	3	E	0	M1
NMTTP	103	0	5	E	0	M1
NMTTP	103	96	2	E	0	M1
NMTTP	103	192	1	E	0	M1
NMTTP	103	192	4	E	0	M1
NMTTP	103	288	0	E	0	M1
NMTTP	104	0	0	C	0	M1
NMTTP	104	0	7	E	0	M1
NMTTP	104	96	6	E	0	M1
NMTTP	104	192	0	E	0	M1
NMTTP	104	192	5	E	0	M1
NMTTP	104	288	4	E	0	M1
NMHLD	105	0	1	96
NMHLD	105	0	4	96
NMHLD	105	192	2	96
NMTAP	105	192	3
NMTAP	105	288	4
NMTAP	105	336	4
NMHLD	106	0	1	96
NMTAP	106	48	3
NMTAP	106	96	4
NMHLD	106	192	0	96
NMTAP	106	192	3
NMHLD	107	0	1	96
EXHLD	107	0	7	96
NMTAP	107	192	2
NMHLD	107	192	6	96
NMTAP	107	288	3
NMTAP	107	336	3
NMHLD	108	0	5	96
NMTAP	108	48	4
NMTAP	108	96	3
NMHLD	108	192	1	96
NMHLD	108	192	4	96
EXHLD	109	0	2	96
NMHLD	109	0	3	96
NMTAP	109	192	1
NMHLD	109	192	3	96
NMTAP	109	288	2
NMTAP	109	336	2
NMHLD	110	0	3	96
NMTAP	110	48	1
NMTAP	110	96	0
NMTAP	110	192	1
NMHLD	110	192	3	96
NMHLD	111	0	4	96
EXHLD	111	0	5	96
NMHLD	111	192	4	96
NMTAP	111	192	6
NMTAP	111	288	5
NMTAP	111	336	5
NMHLD	112	0	4	96
NMTAP	112	48	6
NMTAP	112	96	5
NMHLD	112	192	4	96
NMTAP	112	192	7
BRSTR	113	0	6
NMSI_	113	0	6	96	96	2
NMTAP	113	96	2
NMTAP	113	192	1
CNSI_	113	192	2	0	96	4
NMTAP	113	288	0
CNSI_	113	288	4	0	96	0
CNSI_	114	0	0	0	96	4
NMTAP	114	0	1
NMTAP	114	96	2
CNSI_	114	96	4	0	96	2
NMTAP	114	192	1
CNSI_	114	192	2	0	96	6
NMTAP	114	288	0
BRSTR	115	0	1
NMSI_	115	0	1	96	96	5
NMTAP	115	96	5
CNSI_	115	192	5	0	96	3
NMTAP	115	192	6
CNSI_	115	288	3	0	96	7
NMTAP	115	288	7
NMTAP	116	0	6
CNSI_	116	0	7	0	96	3
CNSI_	116	96	3	0	96	5
NMTAP	116	96	5
CNSI_	116	192	5	0	96	1
NMTAP	116	192	6
NMSTR	116	288	7
BRSI_	116	288	7	96	48	3
BRTAP	117	0	0
NMTAP	117	96	1
NMTAP	117	144	1
NMTAP	117	192	3
NMTAP	117	240	3
NMTAP	117	288	4
NMTAP	117	336	4
NMTAP	118	0	6
NMTAP	118	48	6
NMTAP	118	96	0
NMTAP	118	144	0
NMTAP	118	192	7
NMTAP	118	240	7
NMTAP	118	288	1
NMTAP	118	336	1
NMTAP	119	0	5
NMTAP	119	32	3
NMTAP	119	64	4
NMTAP	119	96	2
NMTAP	119	128	4
NMTAP	119	160	3
NMTAP	119	192	5
NMTAP	119	224	3
NMTAP	119	256	4
NMTAP	119	288	2
NMTAP	119	320	4
NMTAP	119	352	3
NMHLD	120	0	4	24
NMHLD	120	48	4	24
NMHLD	120	96	4	24
NMHLD	120	144	4	24
NMHLD	120	192	3	24
NMHLD	120	192	5	24
NMHLD	120	240	3	24
NMHLD	120	240	5	24
NMHLD	120	288	3	24
NMHLD	120	288	5	24
NMHLD	120	336	3	24
NMHLD	120	336	5	24
NMTAP	121	0	2
NMTAP	121	24	4
NMTAP	121	48	2
NMTAP	121	72	4
NMTAP	121	96	2
NMTAP	121	120	4
NMTAP	121	144	2
NMTAP	121	168	4
NMTAP	121	192	1
NMTAP	121	216	5
NMTAP	121	240	1
NMSTR	121	264	5
NMSI_	121	264	5	96	72	2
NMSTR	121	288	1
BRSI_	121	288	1	96	48	6
NMTAP	122	192	0
NMTAP	122	192	6
NMTAP	122	240	0
NMTAP	122	240	6
NMSTR	122	288	1
NMSI_	122	288	1	96	48	4
NMTAP	122	288	5
BRTAP	123	0	1
NMSTR	123	0	6
NMSLR	123	0	6	96	96	2
NMTAP	123	96	3
NMTAP	123	144	4
CNSCL	123	192	2	0	96	7
NMTAP	123	192	5
NMSTR	123	288	3
NMSI_	123	288	3	96	48	7
NMSTR	124	0	3
NMSCR	124	0	3	96	48	5
NMTAP	124	0	5
NMTAP	124	96	0
NMTAP	124	144	1
CNSI_	124	144	5	0	48	0
NMSTR	124	192	2
NMSI_	124	192	2	96	48	4
NMTAP	124	288	2
NMTAP	124	288	6
NMSTR	125	0	1
NMSLL	125	0	1	96	96	5
NMTAP	125	96	4
NMTAP	125	144	3
NMTAP	125	192	2
CNSCR	125	192	5	0	96	0
NMSTR	125	288	4
NMSI_	125	288	4	96	48	0
NMTAP	126	0	2
NMSTR	126	0	4
NMSCL	126	0	4	96	48	2
NMTAP	126	96	7
CNSI_	126	144	2	0	48	7
NMTAP	126	144	6
NMSTR	126	192	5
NMSI_	126	192	5	96	48	0
NMTAP	126	288	4
NMTAP	126	288	5
NMHLD	127	0	2	96
NMSTR	127	96	3
NMSI_	127	96	3	96	48	6
NMTAP	127	144	2
NMSTR	127	192	1
NMSI_	127	192	1	96	48	4
NMTAP	127	192	3
NMTAP	127	288	1
BRTAP	127	288	7
NMSTR	128	0	6
NMSI_	128	0	6	96	48	2
NMTAP	128	96	2
NMTAP	128	144	1
CNSI_	128	144	2	0	48	4
NMSTR	128	192	0
NMSI_	128	192	0	96	48	4
CNSI_	128	192	4	0	48	7
BRTAP	128	288	0
NMTAP	129	0	6
NMTAP	129	24	7
NMTAP	129	48	6
NMTAP	129	96	1
NMTAP	129	120	0
NMTAP	129	144	1
NMTAP	129	192	5
NMTAP	129	216	4
NMTAP	129	240	6
NMTAP	129	288	2
NMTAP	129	312	3
NMTAP	129	336	1
NMSTR	130	0	6
NMSI_	130	0	6	96	48	4
NMSTR	130	48	7
NMSI_	130	48	7	96	48	3
NMTAP	130	96	6
NMTAP	130	144	7
NMTAP	130	192	0
EXTAP	130	288	2
EXTAP	130	288	6
BXSTR	131	0	7
BRSI_	131	0	7	96	48	3
BXSTR	131	96	1
BRSI_	131	96	1	96	48	5
BXTAP	131	96	7
BXTAP	131	192	1
BXTAP	131	192	4
BXTAP	131	288	6
BXTAP	131	288	7
BXTAP	131	336	6
BXTAP	131	336	7
BXTAP	132	0	0
BXTAP	132	0	5
BXTAP	132	48	0
BXTAP	132	48	5
BXTAP	132	96	1
BXTAP	132	96	4
BXTAP	132	192	2
BXTAP	132	192	7
BXTAP	132	264	5
BXTAP	132	288	4
BXTAP	132	336	3
BXTAP	132	336	6
BXTAP	133	0	3
BXSTR	133	0	6
BRSI_	133	0	6	96	48	1
BXSTR	133	96	2
BRSI_	133	96	2	96	48	5
BXTAP	133	96	6
BXTAP	133	192	2
BXTAP	133	192	5
BXTAP	133	288	6
BXTAP	133	312	7
BXTAP	133	336	6
BXTAP	133	360	7
BXTAP	134	0	6
BXTAP	134	48	0
BXTAP	134	48	5
BXHLD	134	96	1	72
BXTAP	134	96	4
BXTAP	134	168	3
BXTAP	134	192	2
BXTAP	134	240	7
BXTAP	134	264	0
BXSTR	134	288	1
NMSI_	134	288	1	96	48	4
BXSTR	134	288	6
NMSI_	134	288	6	96	48	3
BXTAP	135	0	1
EXSTR	135	0	6
NMSI_	135	0	6	96	48	0
NMSTR	135	96	2
NMSI_	135	96	2	96	48	6
NMTAP	135	192	2
NMSTR	135	192	4
NMSI_	135	192	4	96	48	0
NMSTR	135	288	1
NMSI_	135	288	1	96	48	5
NMTAP	135	288	4
NMTAP	136	0	1
BRTAP	136	0	5
NMTAP	136	96	4
NMSTR	136	96	7
NMSI_	136	96	7	96	48	3
BRSTR	136	192	1
NMSI_	136	192	1	96	48	5
NMTAP	136	192	7
NMTAP	136	288	1
NMTAP	136	288	4
NMTAP	137	0	6
NMTAP	137	48	6
NMTAP	137	96	4
NMTAP	137	144	4
NMTAP	137	192	2
NMTAP	137	240	2
NMTAP	137	288	1
NMHLD	137	288	7	48
NMTAP	138	0	1
NMTAP	138	0	5
NMTAP	138	24	0
NMTAP	138	48	7
NMTAP	138	72	6
NMTAP	138	96	5
NMTAP	138	120	4
NMTAP	138	144	3
NMTAP	138	168	2
NMTAP	138	192	1
NMTAP	138	192	5
NMTAP	138	216	6
NMTAP	138	240	7
NMTAP	138	264	0
NMTAP	138	288	1
NMTAP	138	312	2
NMTAP	138	336	3
NMTAP	138	360	4
BRTAP	139	0	1
BRTAP	139	0	5
NMHLD	139	64	2	64
NMHLD	139	128	4	64
NMHLD	139	192	3	64
NMTAP	139	256	5
NMTAP	139	320	2
NMTAP	139	320	6
NMTTP	140	0	3	E	0	M1
NMTTP	140	32	4	E	0	M1
NMTTP	140	64	4	A	0	M1
NMTTP	140	96	1	E	0	M1
NMTTP	140	128	2	E	0	M1
NMTTP	140	160	2	A	0	M1
NMTTP	140	192	6	A	0	M1
NMTTP	140	224	7	E	0	M1
NMTTP	140	256	0	E	0	M1
NMTTP	140	288	4	A	0	M1
NMTTP	140	320	5	E	0	M1
NMTTP	140	352	6	E	0	M1
NMTAP	141	48	0
NMTAP	141	96	0
NMTAP	141	144	6
NMTAP	141	192	2
NMTAP	141	240	7
NMTAP	141	288	7
NMTAP	141	336	7
NMTAP	142	0	4
NMTAP	142	48	4
NMTAP	142	96	3
NMTAP	142	96	5
NMTAP	142	144	3
NMTAP	142	144	5
NMTAP	142	192	2
NMHLD	142	192	6	96
BRTAP	142	288	7
NMTAP	143	0	0
NMTAP	143	0	5
NMTAP	143	32	1
NMTAP	143	64	2
NMTAP	143	96	7
NMTAP	143	128	0
NMTAP	143	160	1
NMTAP	143	192	6
NMTAP	143	224	7
NMTAP	143	256	0
NMTAP	143	288	5
NMTAP	143	320	6
NMTAP	143	352	7
NMTTP	144	0	2	E	0	M1
NMTTP	144	24	2	B	0	M1
NMTTP	144	48	3	B	0	M1
NMTTP	144	72	4	E	0	M1
NMTTP	144	96	6	E	0	M1
NMTTP	144	120	6	B	0	M1
NMTTP	144	144	7	B	0	M1
NMTTP	144	168	0	E	0	M1
NMTTP	144	192	2	A	0	M1
NMTTP	144	216	3	A	0	M1
NMTTP	144	240	4	A	0	M1
NMTTP	144	264	5	A	0	M1
NMTTP	144	288	6	A	0	M1
NMTTP	144	312	7	A	0	M1
NMTTP	144	336	0	A	0	M1
NMTTP	144	360	1	A	0	M1
EXHLD	145	0	2	48
NMHLD	145	96	1	48
NMHLD	145	96	3	48
NMHLD	145	192	5	48
NMHLD	145	288	4	48
NMHLD	145	288	6	48
NMTAP	146	0	3
NMTAP	146	32	4
NMTAP	146	64	2
NMTAP	146	96	3
NMTAP	146	128	1
NMTAP	146	160	2
NMSTR	146	192	0
BRSCL	146	192	0	96	48	5
BRSCR	146	192	0	96	48	3
BXTAP	147	0	1
BXTAP	147	0	7
NMSTR	147	96	0
NMSI_	147	96	0	96	48	4
NMTAP	147	144	0
NMSTR	147	192	6
NMSI_	147	192	6	96	48	3
NMTAP	147	240	6
NMSTR	147	288	1
NMSI_	147	288	1	96	48	5
NMTAP	147	336	1
NMSTR	148	0	4
NMSI_	148	0	4	96	48	0
NMTAP	148	48	4
NMSTR	148	96	2
NMSI_	148	96	2	96	48	7
NMTAP	148	144	2
NMTAP	148	192	6
NMTAP	148	240	6
NMTAP	148	288	0
NMTAP	148	312	1
NMTAP	148	336	2
NMTAP	148	360	3
NMSTR	149	0	5
NMSI_	149	0	5	96	48	0
NMTAP	149	48	5
NMSTR	149	96	4
NMSI_	149	96	4	96	48	1
NMTAP	149	144	4
NMTAP	149	192	7
NMTAP	149	216	6
NMTAP	149	240	5
NMTAP	149	264	4
NMHLD	149	288	0	48
NMHLD	149	288	3	48
NMTAP	150	0	1
NMTAP	150	24	3
NMTAP	150	48	1
NMTAP	150	72	3
NMTAP	150	96	1
NMTAP	150	144	6
NMTAP	150	168	4
NMTAP	150	192	6
NMTAP	150	216	4
NMTAP	150	240	6
NMTAP	150	288	0
NMTAP	150	312	7
NMTAP	150	336	0
BRTAP	151	0	2
BRSTR	151	0	6
NMSI_	151	0	6	96	48	3
NMTAP	151	96	3
NMTAP	151	120	2
NMTAP	151	144	1
NMTAP	151	168	0
NMSTR	151	192	7
NMSI_	151	192	7	96	48	2
NMTAP	151	240	7
NMTAP	151	288	3
NMTAP	151	312	4
NMTAP	151	336	5
NMTAP	151	360	6
NMSTR	152	0	7
NMSCL	152	0	7	96	48	4
NMTAP	152	48	7
NMTAP	152	96	4
NMTAP	152	120	3
NMTAP	152	144	2
NMTAP	152	168	1
NMSTR	152	192	0
NMSI_	152	192	0	96	48	4
NMTAP	152	240	0
BRTAP	152	288	6
BRTAP	153	0	3
BRTAP	153	0	7
NMTAP	153	48	3
NMTAP	153	48	7
NMTAP	153	96	2
NMTAP	153	96	6
NMTAP	153	144	2
NMTAP	153	144	6
BRTAP	153	192	1
BRTAP	153	192	5
NMTAP	153	240	1
NMTAP	153	240	5
NMTAP	153	288	0
NMTAP	153	288	4
NMTAP	153	336	0
NMTAP	153	336	4
BRTAP	154	0	7
NMTAP	154	24	3
NMTAP	154	48	7
NMTAP	154	72	3
BRTAP	154	96	7
NMTAP	154	120	3
NMTAP	154	144	7
NMTAP	154	168	3
BRTAP	154	192	7
NMTAP	154	204	6
NMTAP	154	216	5
NMTAP	154	228	4
BRTAP	154	240	3
NMTAP	154	252	2
NMTAP	154	264	1
NMTAP	154	276	0
BRSTR	154	288	7
NMSF_	154	288	7	96	48	3
NMTTP	155	0	0	C	1	M1
NMTTP	155	0	1	B	0	M1
NMTTP	155	0	1	E	0	M1
NMTTP	155	0	1	A	0	M1
NMTTP	155	0	2	E	0	M1
NMTTP	155	0	5	B	0	M1
NMTTP	155	0	5	E	0	M1
NMTTP	155	0	5	A	0	M1
NMTTP	155	0	6	E	0	M1
BRSTR	155	0	7
NMSCL	155	0	7	96	480	0
BRHLD	157	0	4	768
NMTAP	157	96	1
NMSTR	157	144	1
NMSI_	157	144	1	96	48	4
CNSI_	157	288	4	0	144	1
NMTTP	158	192	2	E	0	M1
NMTTP	158	204	2	B	0	M1
NMHLD	159	0	3	768
NMTAP	159	96	6
NMSTR	159	144	6
NMSI_	159	144	6	96	48	3
CNSI_	159	288	3	0	144	6
NMTTP	160	192	6	E	0	M1
NMTTP	160	204	5	B	0	M1
NMHLD	161	0	4	240
NMTAP	161	96	2
NMTAP	161	144	2
NMSTR	161	240	1
BRSCL	161	240	1	96	240	5
NMTHO	161	336	0	384	C	0	M1
CNSLR	162	192	5	0	96	2
CNSI_	162	288	2	0	48	4

T_REC_TAP	624
T_REC_BRK	29
T_REC_XTP	25
T_REC_BXX	71
T_REC_HLD	86
T_REC_XHO	6
T_REC_BHO	3
T_REC_BXH	3
T_REC_STR	92
T_REC_BST	9
T_REC_XST	3
T_REC_XBS	14
T_REC_TTP	124
T_REC_THO	3
T_REC_SLD	102
T_REC_BSL	17
T_REC_ALL	1211
T_NUM_TAP	868
T_NUM_BRK	146
T_NUM_HLD	95
T_NUM_SLD	102
T_NUM_ALL	1211
T_JUDGE_TAP	991
T_JUDGE_HLD	152
T_JUDGE_SLD	119
T_JUDGE_ALL	1262
TTM_EACHPAIRS	151
TTM_SCR_TAP	434000
TTM_SCR_BRK	379600
TTM_SCR_HLD	95000
TTM_SCR_SLD	153000
TTM_SCR_ALL	1061600
TTM_SCR_S	1015600
TTM_SCR_SS	1047000
TTM_RAT_ACV	10139

