VERSION	0.00.00	1.04.00
FES_MODE	0
BPM_DEF	250.000	250.000	250.000	250.000
MET_DEF	4	4
RESOLUTION	384
CLK_DEF	384
COMPATIBLE_CODE	MA2

BPM	0	0	250.000
MET	0	0	4	4

NMTTP	3	0	0	C	1	M1
NMTTP	3	0	1	B	0	M1
NMTTP	3	0	1	A	0	M1
NMTTP	3	0	2	B	0	M1
NMTTP	3	0	2	E	0	M1
NMTTP	3	0	2	A	0	M1
NMTTP	3	0	2	D	0	M1
NMTTP	3	0	5	B	0	M1
NMTTP	3	0	5	A	0	M1
NMTTP	3	0	6	B	0	M1
NMTTP	3	0	6	E	0	M1
NMTTP	3	0	6	A	0	M1
NMTTP	3	0	6	D	0	M1
NMTAP	7	0	0
NMTAP	7	0	7
BRHLD	7	96	1	1056
BRHLD	7	96	6	1056
NMTAP	11	0	5
NMTAP	11	96	5
NMTAP	11	192	4
NMTAP	11	288	4
NMTAP	12	0	3
NMTAP	12	96	3
NMTAP	12	192	2
NMTAP	12	288	2
NMTAP	13	0	3
NMTAP	13	96	3
NMTAP	13	192	4
NMTAP	13	288	4
NMTAP	14	0	3
NMTAP	14	0	5
NMTAP	14	96	3
NMTAP	14	96	5
NMTAP	14	192	2
NMTAP	14	192	6
NMTAP	14	288	2
NMTAP	14	288	6
NMTAP	15	0	1
NMTAP	15	48	1
NMTAP	15	96	7
NMTAP	15	144	7
NMTAP	15	192	0
NMTAP	15	240	0
NMTAP	15	288	6
NMTAP	15	336	6
NMTAP	16	0	1
NMTAP	16	48	1
NMTAP	16	96	7
NMTAP	16	144	7
NMTAP	16	192	0
NMTAP	16	240	0
NMTAP	16	288	6
EXTAP	17	0	0
EXTAP	17	0	7
EXTAP	17	48	0
EXTAP	17	48	7
EXTAP	17	96	0
EXTAP	17	96	7
EXTAP	17	144	0
EXTAP	17	144	7
EXTAP	17	192	0
EXTAP	17	192	7
EXTAP	17	240	0
EXTAP	17	240	7
EXSTR	17	288	0
NMSCR	17	288	0	96	96	3
EXSTR	17	288	7
NMSCL	17	288	7	96	96	4
BRTAP	18	288	3
BRTAP	18	288	4
NMHLD	19	0	6	96
NMTAP	19	96	4
NMHLD	19	144	4	96
NMTAP	19	240	3
NMTAP	19	288	3
NMHLD	20	0	1	96
NMTAP	20	96	3
NMHLD	20	144	3	96
NMTAP	20	240	4
NMTAP	20	288	4
NMTAP	21	0	6
NMTAP	21	96	5
NMTAP	21	96	7
NMTAP	21	192	1
NMTAP	21	288	0
NMTAP	21	288	2
NMHLD	22	0	1	96
NMTAP	22	96	3
NMHLD	22	192	6	96
NMTAP	22	288	4
NMHLD	23	0	1	96
NMTAP	23	96	3
NMHLD	23	144	3	96
NMTAP	23	240	4
NMTAP	23	288	4
NMHLD	24	0	6	96
NMTAP	24	96	4
NMHLD	24	144	4	96
NMTAP	24	240	3
NMTAP	24	288	3
NMSTR	25	0	1
NMSI_	25	0	1	96	48	4
NMSTR	25	192	5
NMSI_	25	192	5	96	48	0
NMTAP	26	0	2
NMTAP	26	48	2
NMTAP	26	96	7
NMTAP	26	144	7
NMTAP	26	192	4
NMTAP	26	288	3
NMTAP	26	288	5
NMHLD	27	0	2	96
NMTAP	27	96	0
NMHLD	27	144	0	96
NMTAP	27	240	7
NMTAP	27	288	7
NMHLD	28	0	5	96
NMTAP	28	96	7
NMHLD	28	144	7	96
NMTAP	28	240	0
NMTAP	28	288	0
NMTAP	29	0	2
NMTAP	29	96	1
NMTAP	29	96	3
NMTAP	29	192	5
NMTAP	29	288	4
NMTAP	29	288	6
NMHLD	30	0	7	96
NMTAP	30	96	0
BRTAP	30	144	0
NMTAP	30	240	2
NMTAP	30	240	4
NMTAP	30	288	2
NMTAP	30	288	4
NMTAP	31	0	5
NMTAP	31	48	5
NMTAP	31	96	3
NMTAP	31	144	3
NMTAP	31	192	6
NMTAP	31	240	6
NMSTR	31	288	0
NMSCR	31	288	0	96	384	7
NMTAP	31	336	0
BRTAP	32	0	4
NMTTP	33	0	0	C	1	M1
NMHLD	36	0	5	768
NMTTP	37	0	7	E	0	M1
NMTTP	37	96	6	E	0	M1
NMTTP	37	192	5	E	0	M1
NMTAP	38	0	3
NMHLD	38	192	2	576
NMTTP	39	0	1	E	0	M1
NMTTP	39	96	2	E	0	M1
NMTTP	39	192	3	E	0	M1
NMTAP	40	0	4
NMTAP	40	192	4
NMTAP	41	0	3
NMTAP	41	0	5
NMTAP	41	96	3
NMTAP	41	96	5
NMTAP	41	192	3
NMTAP	41	192	5
NMTAP	41	288	3
NMTAP	41	288	5
NMTAP	42	0	3
NMTAP	42	0	5
NMTAP	42	96	3
NMTAP	42	96	5
NMTAP	42	192	3
NMTAP	42	192	5
NMTAP	42	288	3
NMTAP	42	288	5
NMTAP	42	336	2
NMTAP	43	0	1
NMTAP	43	0	4
NMTAP	43	96	1
NMTAP	43	96	4
NMTAP	43	192	1
NMTAP	43	192	4
NMTAP	43	288	1
NMTAP	43	288	4
NMTAP	44	0	1
NMTAP	44	0	4
NMTAP	44	96	1
NMTAP	44	96	4
NMTAP	44	192	1
NMTAP	44	192	4
NMTAP	44	288	1
NMTAP	44	288	4
NMTAP	44	336	5
NMHLD	45	0	0	48
NMHLD	45	0	6	48
BXTAP	45	96	0
BXTAP	45	96	6
NMTAP	45	192	7
NMTAP	45	240	7
NMTAP	45	288	7
NMTAP	45	336	7
NMTAP	46	0	4
NMTAP	46	48	4
NMTAP	46	96	4
NMTAP	46	144	4
NMTAP	46	192	3
NMTAP	46	240	3
NMTAP	46	288	3
NMTAP	46	336	3
NMTAP	47	0	0
NMTAP	47	24	1
NMTAP	47	48	2
NMTAP	47	72	3
NMTAP	47	96	4
NMTAP	47	120	5
NMTAP	47	144	6
NMTAP	47	168	7
NMTAP	47	192	0
NMTAP	47	216	1
NMTAP	47	240	2
NMTAP	47	264	3
NMTAP	47	288	4
NMTAP	47	312	5
NMTAP	47	336	6
NMTAP	47	360	7
NMHLD	48	0	0	288
BRTAP	48	288	7
NMTAP	49	0	0
NMTAP	49	0	6
NMTAP	49	96	0
NMTAP	49	96	6
NMTAP	49	192	1
NMTAP	49	192	2
NMTAP	49	288	3
NMTAP	49	288	5
NMTAP	50	0	1
NMTAP	50	0	7
NMTAP	50	96	1
NMTAP	50	96	7
NMTAP	50	192	5
NMTAP	50	192	6
NMTAP	50	288	2
NMTAP	50	288	4
NMTAP	51	0	0
NMTAP	51	0	6
NMTAP	51	96	0
NMTAP	51	96	6
NMTAP	51	192	1
NMTAP	51	192	3
NMTAP	51	288	4
NMTAP	51	288	5
NMTAP	52	0	1
NMTAP	52	0	7
NMTAP	52	96	1
NMTAP	52	96	7
NMTAP	52	192	4
NMTAP	52	192	6
NMTAP	52	288	2
NMTAP	52	288	3
NMTAP	53	0	1
NMTAP	53	0	4
NMTAP	53	96	1
NMTAP	53	96	4
NMTAP	53	192	4
NMTAP	53	192	5
BRTAP	53	288	7
NMTAP	54	0	3
NMTAP	54	0	6
NMTAP	54	96	3
NMTAP	54	96	6
NMTAP	54	192	2
NMTAP	54	192	3
BRTAP	54	288	4
NMSTR	55	0	0
NMSLR	55	0	0	96	96	4
NMSTR	55	192	7
NMSLL	55	192	7	96	96	3
NMTAP	56	0	0
NMTAP	56	96	1
NMTAP	56	96	3
NMTAP	56	144	1
NMTAP	56	144	3
NMTAP	56	240	4
NMTAP	56	240	6
NMTAP	56	288	4
NMTAP	56	288	6
NMSTR	57	0	1
NMSI_	57	0	1	96	48	3
NMSTR	57	96	7
NMSI_	57	96	7	96	48	5
NMSTR	57	192	0
NMSI_	57	192	0	96	48	4
NMTAP	57	288	7
NMTAP	57	336	7
NMTAP	58	0	3
NMTAP	58	48	3
NMTAP	58	96	5
NMTAP	58	192	2
NMTAP	58	192	6
NMTAP	58	288	3
NMTAP	58	288	5
NMSTR	59	0	6
NMSI_	59	0	6	96	48	4
NMSTR	59	96	0
NMSI_	59	96	0	96	48	2
NMSTR	59	192	7
NMSI_	59	192	7	96	48	3
NMTAP	59	288	0
NMTAP	59	336	0
NMTAP	60	0	4
NMTAP	60	48	4
NMTAP	60	96	2
NMTAP	60	192	1
NMTAP	60	192	5
BRTAP	60	288	7
NMTAP	61	0	6
NMTAP	61	48	6
NMTAP	61	96	0
NMTAP	61	144	0
NMTAP	61	192	5
NMTAP	61	288	2
NMTAP	61	288	4
NMTAP	62	0	1
NMTAP	62	48	1
NMTAP	62	96	3
NMTAP	62	144	3
NMTAP	62	192	2
NMTAP	62	240	2
NMTAP	62	288	4
NMTAP	62	336	4
NMSTR	63	0	3
NMSUR	63	0	3	96	480	4
CNSCR	64	192	4	0	576	2
NMTAP	66	192	0
NMTAP	66	192	7
NMTAP	67	0	1
NMTAP	67	48	1
NMTAP	67	96	7
NMTAP	67	144	3
NMTAP	67	240	4
NMTAP	67	240	6
NMTAP	67	336	5
NMTAP	67	336	7
NMTAP	68	48	2
NMTAP	68	96	2
NMTAP	68	144	4
NMTAP	68	192	1
NMTAP	68	240	3
NMHLD	68	288	0	96
NMTAP	69	0	6
NMTAP	69	48	6
NMTAP	69	96	2
NMTAP	69	144	4
NMTAP	69	240	1
NMTAP	69	240	3
NMTAP	69	336	0
NMTAP	69	336	2
NMTAP	70	48	5
NMTAP	70	96	5
NMTAP	70	144	3
NMTAP	70	192	6
NMTAP	70	240	4
NMHLD	70	288	7	96
NMTAP	71	0	1
NMTAP	71	48	1
NMTAP	71	96	5
NMTAP	71	144	4
NMTAP	71	240	1
NMTAP	71	240	7
NMTAP	71	336	0
NMTAP	71	336	6
NMTAP	72	48	1
NMTAP	72	96	1
NMTAP	72	144	7
NMTAP	72	192	2
NMTAP	72	240	0
NMHLD	72	288	3	96
NMTAP	73	0	6
NMHLD	73	48	6	96
NMHLD	73	144	4	96
NMHLD	73	240	2	96
NMHLD	73	336	0	96
NMHLD	74	48	7	96
NMHLD	74	144	5	96
NMTAP	74	240	3
NMTAP	74	288	3
NMTAP	75	0	2
NMTAP	75	48	2
NMTAP	75	96	4
NMTAP	75	144	0
NMTAP	75	192	6
NMTAP	75	240	6
NMTAP	75	288	4
NMTAP	75	336	0
NMTAP	76	0	2
NMTAP	76	48	2
NMTAP	76	96	4
NMTAP	76	144	1
NMTAP	76	192	5
NMTAP	76	240	0
NMTAP	76	288	6
NMTAP	76	336	7
NMTAP	77	0	5
NMTAP	77	48	5
NMTAP	77	96	3
NMTAP	77	144	7
NMTAP	77	192	1
NMTAP	77	240	1
NMTAP	77	288	3
NMTAP	77	336	7
NMTAP	78	0	5
NMTAP	78	48	5
NMTAP	78	96	3
NMTAP	78	144	6
NMTAP	78	192	2
NMTAP	78	240	7
NMTAP	78	288	1
NMTAP	78	336	0
NMSTR	79	0	2
NMSCL	79	0	2	96	96	7
NMSTR	79	192	6
NMSCL	79	192	6	96	96	3
NMTAP	80	0	2
NMTAP	80	96	1
NMTAP	80	96	3
NMTAP	80	192	0
NMTAP	80	192	7
NMTAP	80	288	4
NMTAP	80	288	6
NMSTR	81	0	5
NMSCR	81	0	5	96	96	0
NMSTR	81	192	1
NMSCR	81	192	1	96	96	4
NMTAP	82	0	5
NMTAP	82	96	4
NMTAP	82	96	6
NMTAP	82	192	0
NMTAP	82	192	7
NMTAP	82	288	1
NMTAP	82	288	3
NMTAP	83	0	2
NMTAP	83	0	4
NMTAP	83	64	2
NMTAP	83	64	4
NMTAP	83	128	2
NMTAP	83	128	4
NMTAP	83	192	2
NMTAP	83	192	4
NMHLD	84	0	1	192
NMTAP	84	192	3
NMTAP	85	64	3
NMTAP	85	64	5
NMTAP	85	128	3
NMTAP	85	128	5
NMTAP	85	192	3
NMTAP	85	192	5
NMTAP	85	256	3
NMTAP	85	256	5
NMTAP	85	320	3
NMTAP	85	320	5
NMTAP	86	0	3
NMTAP	86	0	5
NMTAP	86	64	3
NMTAP	86	64	5
NMTAP	86	128	3
NMTAP	86	128	5
NMTAP	86	192	3
NMTAP	86	192	5
NMTAP	87	0	6
NMHLD	87	48	6	144
NMTAP	87	192	4
NMTAP	87	240	4
NMTAP	88	0	1
NMHLD	88	48	1	144
NMTAP	88	192	3
NMTAP	88	240	3
NMTAP	89	0	6
NMTAP	89	48	6
NMTAP	89	96	4
NMTAP	89	144	4
NMTAP	89	192	5
NMTAP	89	240	5
NMTAP	89	288	2
NMTAP	89	336	2
NMTAP	90	0	3
NMTAP	90	48	3
NMTAP	90	96	1
NMTAP	90	144	1
NMTAP	90	192	4
NMTAP	90	240	4
NMSTR	90	288	0
NMSI_	90	288	0	96	384	5
CNSCR	92	0	5	0	96	6
CNSI_	92	96	6	0	288	2
CNSCL	93	0	2	0	96	1
CNSI_	93	96	1	0	288	4
BRTAP	94	0	7
NMSTR	95	0	0
NMSI_	95	0	0	96	48	4
NMSTR	95	144	6
NMSI_	95	144	6	96	48	2
NMHLD	95	288	4	96
NMSTR	96	0	7
NMSI_	96	0	7	96	48	3
NMSTR	96	144	1
NMSI_	96	144	1	96	48	5
NMHLD	96	288	3	96
BXSTR	97	0	0
NMSCR	97	0	0	96	384	7
NMTAP	99	0	7
NMTAP	99	96	7
NMTAP	99	192	7
NMTAP	99	288	7
NMTAP	100	0	4
NMTAP	100	0	6
NMTAP	100	96	4
NMTAP	100	96	6
NMTAP	100	192	4
NMTAP	100	192	6
NMTAP	100	288	4
NMTAP	100	288	6
NMTAP	101	0	3
NMTAP	101	96	3
NMTAP	101	192	3
NMTAP	101	288	3
NMTAP	102	0	2
NMTAP	102	0	4
NMTAP	102	96	2
NMTAP	102	96	4
NMTAP	102	192	2
NMTAP	102	192	4
NMTAP	102	288	2
NMTAP	102	288	4
NMTAP	103	0	1
NMTAP	103	96	1
NMTAP	103	192	1
NMTAP	103	288	1
NMTAP	104	0	0
NMTAP	104	0	7
NMSTR	104	96	0
NMSCR	104	96	0	96	96	3
NMSTR	104	96	7
NMSCL	104	96	7	96	96	4
NMTAP	105	0	6
NMTAP	105	192	6
NMHLD	106	0	6	384
NMTTP	106	192	1	E	0	M1
NMTTP	106	216	0	E	0	M1
NMTTP	106	240	7	E	0	M1
NMTTP	106	264	6	E	0	M1
NMTTP	106	288	5	E	0	M1
NMTAP	107	0	1
NMTAP	107	192	1
NMHLD	108	0	1	384
NMTTP	108	192	7	E	0	M1
NMTTP	108	216	0	E	0	M1
NMTTP	108	240	1	E	0	M1
NMTTP	108	264	2	E	0	M1
NMTTP	108	288	3	E	0	M1
NMTAP	109	0	5
NMTAP	109	192	5
NMHLD	110	0	5	384
NMTTP	110	96	5	E	0	M1
NMTTP	110	120	4	E	0	M1
NMTTP	110	144	3	E	0	M1
NMTTP	110	168	2	E	0	M1
NMTTP	110	192	1	E	0	M1
NMTTP	110	216	0	E	0	M1
NMTTP	110	240	7	E	0	M1
NMTTP	110	264	6	E	0	M1
NMTTP	110	288	5	E	0	M1
NMTAP	111	0	2
NMTAP	111	192	2
NMHLD	112	0	2	384
NMTTP	112	96	3	E	0	M1
NMTTP	112	120	4	E	0	M1
NMTTP	112	144	5	E	0	M1
NMTTP	112	168	6	E	0	M1
NMTTP	112	192	7	E	0	M1
NMTTP	112	216	0	E	0	M1
NMTTP	112	240	1	E	0	M1
NMTTP	112	264	2	E	0	M1
NMTTP	112	288	3	E	0	M1
NMTAP	113	0	6
NMTAP	113	96	6
NMTAP	113	192	3
NMTAP	113	192	5
NMTAP	113	288	3
NMTAP	113	288	5
NMTAP	114	0	1
NMTAP	114	96	1
NMTAP	114	192	2
NMTAP	114	192	4
NMTAP	114	288	2
NMTAP	114	288	4
NMTAP	115	0	5
NMTAP	115	96	5
NMTAP	115	192	0
NMTAP	115	192	6
NMTAP	115	288	0
NMTAP	115	288	6
NMTAP	116	0	2
NMTAP	116	96	2
NMTAP	116	192	1
NMTAP	116	192	7
NMTAP	116	288	1
NMTAP	116	288	7
NMTAP	117	0	6
NMTAP	117	48	6
NMTAP	117	96	4
NMTAP	117	144	4
NMTAP	117	192	5
NMTAP	117	240	5
NMTAP	117	288	3
NMTAP	117	336	3
NMTAP	118	0	6
NMTAP	118	48	6
NMTAP	118	96	2
NMTAP	118	144	2
NMTAP	118	192	7
NMTAP	118	240	7
NMTAP	118	288	1
NMTAP	118	336	1
NMTAP	119	0	6
NMTAP	119	48	6
NMTAP	119	96	0
NMTAP	119	144	0
NMTAP	119	192	7
NMTAP	119	240	7
NMTAP	119	288	2
NMTAP	119	336	2
NMTAP	120	0	6
NMTAP	120	48	6
NMTAP	120	96	3
NMTAP	120	144	3
NMTAP	120	192	5
NMTAP	120	240	5
NMSTR	120	288	4
NMSUL	120	288	4	96	192	3
BRTAP	122	0	2
BRTAP	122	0	5
NMTAP	122	240	1
NMTAP	122	288	1
NMTAP	122	336	3
NMTAP	123	0	2
NMTAP	123	96	0
NMTAP	123	96	1
NMTAP	123	144	0
NMTAP	123	144	1
NMSTR	123	240	6
NMSUR	123	240	6	96	96	3
NMSTR	123	240	7
NMSCR	123	240	7	96	96	2
NMTAP	124	144	4
NMTAP	124	144	5
NMTAP	124	240	6
NMTAP	124	288	6
NMTAP	124	336	4
NMTAP	125	0	5
NMTAP	125	96	6
NMTAP	125	96	7
NMTAP	125	144	6
NMTAP	125	144	7
NMSTR	125	240	0
NMSCL	125	240	0	96	96	5
NMSTR	125	240	1
NMSUL	125	240	1	96	96	4
NMTAP	126	144	2
NMTAP	126	144	3
NMTAP	126	240	1
NMTAP	126	288	1
NMTAP	126	336	3
NMHLD	127	0	2	96
NMTAP	127	96	4
NMTAP	127	144	4
NMSTR	127	192	1
NMSI_	127	192	1	96	48	7
BRTAP	127	288	3
NMHLD	128	0	5	96
NMTAP	128	96	3
NMTAP	128	144	3
NMSTR	128	192	6
NMSI_	128	192	6	96	48	2
BRTAP	128	288	1
NMHLD	129	0	0	96
NMHLD	129	96	1	96
NMHLD	129	192	2	96
NMTAP	129	288	3
NMTAP	130	0	1
NMTAP	130	0	4
NMTAP	130	48	1
NMTAP	130	48	4
NMTAP	130	96	2
NMTAP	130	96	3
NMTAP	130	192	3
NMTAP	130	192	6
NMTAP	130	240	3
NMTAP	130	240	6
NMTAP	130	288	4
NMTAP	130	288	5
BRTAP	131	0	6
BRTAP	131	0	7
BRTAP	131	96	6
BRTAP	131	96	7
BRTAP	131	192	1
BRTAP	131	192	2
BRTAP	131	288	5
BRTAP	131	336	5
BRTAP	132	0	3
BRTAP	132	48	3
BRTAP	132	96	6
BRTAP	132	192	1
BRTAP	132	192	4
BRTAP	132	288	2
BRTAP	132	288	3
BRTAP	133	0	0
BRTAP	133	0	1
BRTAP	133	96	0
BRTAP	133	96	1
BRTAP	133	192	5
BRTAP	133	192	6
BRTAP	133	288	2
BRTAP	133	336	2
BRTAP	134	0	4
BRTAP	134	48	4
BRTAP	134	96	0
BRSTR	134	192	1
NMSI_	134	192	1	96	48	7
BRTAP	134	192	3
BRTAP	134	288	4
NMHLD	135	0	5	96
NMTAP	135	96	7
NMHLD	135	144	7	96
NMHLD	135	240	0	96
NMHLD	135	336	2	96
NMTAP	136	48	4
NMTAP	136	96	4
NMHLD	136	144	1	96
NMTAP	136	240	3
NMTAP	136	288	3
NMTAP	137	0	2
NMTAP	137	0	4
NMTAP	137	48	2
NMTAP	137	48	4
NMTAP	137	96	2
NMTAP	137	96	4
NMTAP	137	144	2
NMTAP	137	144	4
NMTAP	137	192	2
NMTAP	137	192	4
NMTAP	137	240	2
NMTAP	137	240	4
NMTAP	137	288	2
NMTAP	137	288	4
NMTAP	138	0	1
NMTAP	138	0	5
NMTAP	138	48	1
NMTAP	138	48	5
NMTAP	138	96	1
NMTAP	138	96	5
NMTAP	138	192	6
NMTAP	138	216	0
NMTAP	138	240	6
NMTAP	138	264	0
BXTAP	138	288	6
NMTAP	139	0	5
NMTAP	139	64	4
NMTAP	139	128	3
NMSTR	139	192	2
NMSI_	139	192	2	96	48	4
NMSTR	139	288	6
NMSI_	139	288	6	96	48	0
NMSTR	140	0	1
NMSI_	140	0	1	96	48	5
NMSTR	140	96	7
NMSCL	140	96	7	96	48	4
NMSTR	140	192	0
NMSCR	140	192	0	96	48	3
NMTAP	140	288	6
NMTAP	141	0	7
NMTAP	141	48	7
NMTAP	141	96	0
NMHLD	141	144	0	432
NMTAP	141	240	3
NMTAP	141	288	3
NMTAP	141	336	3
NMTAP	142	48	4
NMTAP	142	96	4
NMTAP	142	192	3
NMTAP	142	240	3
NMTAP	142	288	3
NMHLD	143	0	1	96
NMHLD	143	96	3	96
NMHLD	143	192	5	96
NMHLD	143	288	7	96
BRHLD	144	0	1	96
BRHLD	144	96	3	96
BRHLD	144	192	5	96
BRHLD	144	288	7	96
NMTAP	145	0	1
NMTAP	145	48	1
NMTAP	145	96	3
NMTAP	145	144	2
NMTAP	145	192	2
NMTAP	145	240	4
NMTAP	145	288	3
NMTAP	145	336	3
NMTAP	146	0	6
NMTAP	146	48	6
NMTAP	146	96	4
NMTAP	146	144	4
NMTAP	146	192	3
NMTAP	146	240	3
NMTAP	146	288	1
NMTAP	146	336	1
BRTAP	147	0	7
NMTAP	147	96	0
NMTAP	147	96	6
NMTAP	147	144	0
NMTAP	147	144	6
NMTAP	147	192	0
NMTAP	147	192	6
NMTAP	147	240	0
NMTAP	147	240	6
BRTAP	147	288	0
BRTAP	147	288	6
NMTAP	148	0	5
NMTAP	148	0	7
NMTAP	148	48	5
NMTAP	148	48	7
NMTAP	148	96	5
NMTAP	148	96	7
NMTAP	148	144	5
NMTAP	148	144	7
NMTAP	148	192	5
NMTAP	148	192	7
NMTAP	148	240	5
NMTAP	148	240	7
BRTAP	148	288	5
BRTAP	148	288	7
NMTAP	149	0	0
NMTAP	149	0	6
NMTAP	149	48	0
NMTAP	149	48	6
NMTAP	149	96	0
NMTAP	149	96	6
NMTAP	149	144	0
NMTAP	149	144	6
NMTAP	149	192	0
NMTAP	149	192	6
NMTAP	149	240	0
NMTAP	149	240	6
BRTAP	149	288	0
BRTAP	149	288	6
NMTAP	150	0	1
NMTAP	150	0	7
NMTAP	150	48	1
NMTAP	150	48	7
NMTAP	150	96	1
NMTAP	150	96	7
NMTAP	150	144	1
NMTAP	150	144	7
NMTAP	150	192	1
NMTAP	150	192	7
NMTAP	150	240	1
NMTAP	150	240	7
BRTAP	150	288	1
BRTAP	150	288	7
NMTAP	151	0	0
NMTAP	151	0	2
NMTAP	151	48	0
NMTAP	151	48	2
NMTAP	151	96	0
NMTAP	151	96	2
NMTAP	151	144	0
NMTAP	151	144	2
NMTAP	151	192	0
NMTAP	151	192	2
NMTAP	151	240	0
NMTAP	151	240	2
BRTAP	151	288	0
BRTAP	151	288	2
NMTAP	152	0	3
NMTAP	152	48	3
NMTAP	152	96	3
NMTAP	152	144	3
NMTAP	152	192	3
NMTAP	152	240	3
BRTAP	152	288	2
BRTAP	152	288	4
NMTAP	153	0	2
NMTAP	153	24	4
NMTAP	153	48	2
NMTAP	153	72	4
NMTAP	153	96	2
NMTAP	153	192	5
NMTAP	153	216	3
NMTAP	153	240	5
NMTAP	153	264	3
NMTAP	153	288	5
NMTAP	154	0	2
NMTAP	154	0	6
NMTAP	154	96	1
NMTAP	154	96	5
NMTAP	154	192	0
NMTAP	154	216	7
NMTAP	154	240	0
NMTAP	154	264	7
NMTAP	154	288	0
NMTAP	154	312	7
NMTAP	154	336	0
NMTAP	154	360	7
BXHLD	155	0	0	2304
EXSTR	157	0	3
NMSI_	157	0	3	96	288	7
NMSTR	159	0	3
NMSI_	159	0	3	96	288	7
NMTAP	161	0	4
NMTAP	161	96	5
NMTAP	161	192	6
NMSTR	161	288	7
NMSCL	161	288	7	96	384	0
NMTHO	162	0	0	384	C	0	M1

T_REC_TAP	653
T_REC_BRK	54
T_REC_XTP	12
T_REC_BXX	3
T_REC_HLD	53
T_REC_XHO	0
T_REC_BHO	6
T_REC_BXH	1
T_REC_STR	37
T_REC_BST	1
T_REC_XST	3
T_REC_XBS	1
T_REC_TTP	48
T_REC_THO	1
T_REC_SLD	42
T_REC_BSL	0
T_REC_ALL	915
T_NUM_TAP	753
T_NUM_BRK	66
T_NUM_HLD	54
T_NUM_SLD	42
T_NUM_ALL	915
T_JUDGE_TAP	812
T_JUDGE_HLD	140
T_JUDGE_SLD	42
T_JUDGE_ALL	994
TTM_EACHPAIRS	183
TTM_SCR_TAP	376500
TTM_SCR_BRK	171600
TTM_SCR_HLD	54000
TTM_SCR_SLD	63000
TTM_SCR_ALL	665100
TTM_SCR_S	638750
TTM_SCR_SS	658500
TTM_RAT_ACV	10100

