VERSION	0.00.00	1.04.00
FES_MODE	0
BPM_DEF	250.000	250.000	250.000	250.000
MET_DEF	4	4
RESOLUTION	384
CLK_DEF	384
COMPATIBLE_CODE	MA2

BPM	0	0	250.000
MET	0	0	4	4

EXHLD	3	0	2	384
NMHLD	4	0	3	384
NMHLD	5	0	4	384
NMTAP	6	0	5
NMHLD	7	0	5	384
NMHLD	8	0	4	384
NMHLD	9	0	3	384
NMTAP	10	0	2
NMHLD	11	0	1	384
NMHLD	12	0	2	384
NMHLD	13	0	3	384
NMTAP	14	0	4
NMHLD	15	0	6	384
NMHLD	16	0	5	384
NMHLD	17	0	4	384
NMTAP	18	0	3
NMTAP	19	0	5
NMTAP	19	96	5
NMTAP	19	192	6
NMTAP	19	288	6
NMTAP	20	0	7
NMTAP	20	96	7
NMTAP	20	192	0
NMTAP	20	192	1
NMTAP	21	0	2
NMTAP	21	96	2
NMTAP	21	192	1
NMTAP	21	288	1
NMTAP	22	0	0
NMTAP	22	96	0
NMTAP	22	192	6
NMTAP	22	192	7
NMTAP	23	0	6
NMTAP	23	96	6
NMTAP	23	192	5
NMTAP	23	288	5
NMTAP	24	0	4
NMTAP	24	96	4
NMTAP	24	192	2
NMTAP	24	192	3
NMTAP	25	0	1
NMTAP	25	96	1
NMTAP	25	192	2
NMTAP	25	288	2
NMTAP	26	0	3
NMTAP	26	96	3
NMTAP	26	192	4
NMTAP	26	192	5
NMTAP	27	0	5
NMTAP	27	96	5
NMTAP	27	192	6
NMTAP	27	288	6
NMTAP	28	0	7
NMTAP	28	96	7
NMTAP	28	192	0
NMTAP	28	192	1
NMTAP	29	0	2
NMTAP	29	96	2
NMTAP	29	192	1
NMTAP	29	288	1
NMTAP	30	0	0
NMTAP	30	96	0
NMTAP	30	192	6
NMTAP	30	192	7
NMTAP	31	0	6
NMTAP	31	96	5
NMTAP	31	192	4
NMTAP	31	288	3
NMTAP	32	0	2
NMTAP	32	96	1
NMTAP	32	192	0
NMTAP	32	192	7
NMSTR	33	0	1
NMSXR	33	0	1	96	672	4
NMTAP	36	0	4
NMTAP	36	0	5
NMSTR	37	0	6
NMSXL	37	0	6	96	672	3
NMTAP	40	0	3
NMTAP	40	0	4
NMTAP	41	0	2
NMTAP	41	96	2
NMTAP	41	192	2
NMTAP	41	192	3
NMTAP	42	0	1
NMTAP	42	96	1
NMTAP	42	192	0
NMTAP	42	192	1
NMTAP	43	0	7
NMTAP	43	96	7
NMTAP	43	192	6
NMTAP	43	192	7
NMTAP	44	0	4
NMTAP	44	0	5
NMTAP	44	96	4
NMTAP	44	96	5
NMTAP	44	192	4
NMTAP	44	192	5
NMTAP	45	0	5
NMTAP	45	96	5
NMTAP	45	192	4
NMTAP	45	192	5
NMTAP	46	0	6
NMTAP	46	96	6
NMTAP	46	192	6
NMTAP	46	192	7
NMTAP	47	0	0
NMTAP	47	96	0
NMTAP	47	192	0
NMTAP	47	192	1
BXTAP	48	0	2
BXTAP	48	0	3
NMTAP	49	0	2
NMTAP	49	96	2
NMTAP	49	192	0
NMTAP	49	192	1
NMTAP	49	288	0
NMTAP	49	288	1
NMTAP	50	0	7
NMTAP	50	96	7
NMTAP	50	192	6
NMTAP	50	192	7
NMTAP	51	0	5
NMTAP	51	96	5
NMTAP	51	192	6
NMTAP	51	192	7
NMTAP	51	288	6
NMTAP	51	288	7
NMTAP	52	0	0
NMTAP	52	96	0
NMTAP	52	192	0
NMTAP	52	192	1
NMTAP	53	0	1
NMTAP	53	96	1
NMTAP	53	192	2
NMTAP	53	192	3
NMTAP	53	288	2
NMTAP	53	288	3
NMTAP	54	0	4
NMTAP	54	96	4
NMTAP	54	192	4
NMTAP	54	192	5
NMTAP	55	0	6
NMTAP	55	96	6
NMTAP	55	192	4
NMTAP	55	192	5
NMTAP	55	288	4
NMTAP	55	288	5
NMTAP	56	0	3
NMTAP	56	96	3
NMTAP	56	192	2
NMTAP	56	192	3
NMTAP	57	0	1
NMTAP	57	96	1
NMTAP	57	192	1
NMTAP	57	288	0
NMTAP	57	288	1
NMTAP	58	0	2
NMTAP	58	96	2
NMTAP	58	192	2
NMTAP	58	288	2
NMTAP	58	288	3
NMTAP	59	0	4
NMTAP	59	96	4
NMTAP	59	192	4
NMTAP	59	288	4
NMTAP	59	288	5
NMTAP	60	0	6
NMTAP	60	0	7
NMTAP	60	96	6
NMTAP	60	96	7
NMTAP	60	192	6
NMTAP	60	192	7
NMTAP	61	0	6
NMTAP	61	96	6
NMTAP	61	192	6
NMTAP	61	288	6
NMTAP	61	288	7
NMTAP	62	0	5
NMTAP	62	96	5
NMTAP	62	192	5
NMTAP	62	288	4
NMTAP	62	288	5
NMTAP	63	0	3
NMTAP	63	96	3
NMTAP	63	192	3
NMTAP	63	288	2
NMTAP	63	288	3
NMTAP	64	0	0
NMTAP	64	0	1
NMTAP	64	96	0
NMTAP	64	96	1
NMTAP	64	192	0
NMTAP	64	192	1
NMSTR	65	0	0
NMSI_	65	0	0	96	288	3
NMSTR	65	0	7
NMSI_	65	0	7	96	288	4
NMTAP	67	0	5
NMTAP	67	96	5
NMTAP	67	192	5
NMTAP	67	288	5
NMTAP	68	0	6
NMTAP	68	96	6
NMTAP	68	192	6
NMTAP	68	288	6
NMTAP	69	0	7
NMTAP	69	96	7
NMTAP	69	192	7
NMTAP	69	288	7
NMTAP	70	0	0
NMTAP	70	0	1
NMTAP	71	0	2
NMTAP	71	96	2
NMTAP	71	192	2
NMTAP	71	288	2
NMTAP	72	0	1
NMTAP	72	96	1
NMTAP	72	192	1
NMTAP	72	288	1
NMTAP	73	0	0
NMTAP	73	96	0
NMTAP	73	192	0
NMTAP	73	288	0
NMTAP	74	0	6
NMTAP	74	0	7
NMTAP	75	0	6
NMTAP	75	96	6
NMTAP	75	192	6
NMTAP	75	288	6
NMTAP	76	0	5
NMTAP	76	96	5
NMTAP	76	192	5
NMTAP	76	288	5
NMTAP	77	0	4
NMTAP	77	96	4
NMTAP	77	192	4
NMTAP	77	288	4
NMTAP	78	0	2
NMTAP	78	0	3
NMTAP	79	0	1
NMTAP	79	96	1
NMTAP	79	192	1
NMTAP	79	288	1
NMTAP	80	0	2
NMTAP	80	96	2
NMTAP	80	192	2
NMTAP	80	288	2
NMTAP	81	0	3
NMTAP	81	96	3
NMTAP	81	192	3
NMTAP	81	288	3
NMTAP	82	0	4
NMTAP	82	0	5
NMHLD	83	0	6	384
EXTAP	83	192	7
EXTAP	84	0	7
NMHLD	85	0	5	384
EXTAP	85	192	4
EXTAP	86	0	4
NMHLD	87	0	2	384
EXTAP	87	192	3
EXTAP	88	0	3
NMHLD	89	0	1	384
EXTAP	89	192	0
BXTAP	90	0	0
NMSTR	91	0	0
NMSXL	91	0	0	96	672	3
NMSTR	91	0	7
NMSXR	91	0	7	96	672	4
NMTAP	94	0	3
NMTAP	94	0	4
NMHLD	95	0	2	192
NMHLD	95	0	3	192
NMHLD	96	0	4	192
NMHLD	96	0	5	192
NMHLD	97	0	3	384
NMHLD	97	0	4	384
NMTAP	99	0	2
NMTAP	99	0	3
NMTAP	99	96	2
NMTAP	99	96	3
NMTAP	99	192	2
NMTAP	99	192	3
NMTAP	100	0	1
NMTAP	100	192	1
NMTAP	101	0	0
NMTAP	101	0	7
NMTAP	101	96	0
NMTAP	101	96	7
NMTAP	101	192	0
NMTAP	101	192	7
NMTAP	102	0	6
NMTAP	102	192	6
NMTAP	103	0	4
NMTAP	103	0	5
NMTAP	103	96	4
NMTAP	103	96	5
NMTAP	103	192	4
NMTAP	103	192	5
NMTAP	104	0	3
NMTAP	104	0	4
NMTTP	105	0	4	B	0	L1
NMTTP	105	192	5	B	0	L1
NMTTP	106	0	6	B	0	L1
NMTTP	107	0	3	B	0	L1
NMTTP	107	192	2	B	0	L1
NMTTP	108	0	1	B	0	L1
NMTTP	109	0	4	B	0	L1
NMTTP	109	192	5	B	0	L1
NMTTP	110	0	6	B	0	L1
NMTTP	110	192	7	B	0	L1
NMTTP	111	0	0	B	0	L1
NMTTP	111	192	1	B	0	L1
NMTTP	112	0	2	B	0	L1
NMTTP	112	0	3	B	0	L1
NMTAP	113	0	4
NMTAP	113	96	4
NMTAP	113	192	5
NMTAP	114	0	6
NMTAP	114	96	6
NMTAP	114	192	7
NMTAP	115	0	0
NMTAP	115	96	0
NMTAP	115	192	1
NMTAP	116	0	2
NMTAP	116	96	2
NMTAP	116	192	2
NMTAP	116	192	3
NMTAP	117	0	3
NMTAP	117	96	3
NMTAP	117	192	2
NMTAP	118	0	1
NMTAP	118	96	1
NMTAP	118	192	0
NMTAP	119	0	7
NMTAP	119	96	7
NMTAP	119	192	6
NMTAP	120	0	5
NMTAP	120	96	5
NMTAP	120	192	4
NMTAP	120	192	5
EXHLD	121	0	3	384
EXHLD	121	0	4	384
NMTAP	123	0	5
NMTAP	123	96	5
NMTAP	123	192	6
NMTAP	123	192	7
NMTAP	123	288	6
NMTAP	123	288	7
NMTAP	124	0	0
NMTAP	124	96	0
NMTAP	124	192	0
NMTAP	124	192	1
NMTAP	124	288	0
NMTAP	124	288	1
NMTAP	125	0	2
NMTAP	125	96	2
NMTAP	125	192	0
NMTAP	125	192	1
NMTAP	125	288	0
NMTAP	125	288	1
NMTAP	126	0	7
NMTAP	126	96	7
NMTAP	126	192	6
NMTAP	126	192	7
NMTAP	127	0	6
NMTAP	127	96	6
NMTAP	127	192	4
NMTAP	127	192	5
NMTAP	127	288	4
NMTAP	127	288	5
NMTAP	128	0	3
NMTAP	128	96	3
NMTAP	128	192	2
NMTAP	128	192	3
NMTAP	128	288	2
NMTAP	128	288	3
NMTAP	129	0	1
NMTAP	129	96	1
NMTAP	129	192	2
NMTAP	129	192	3
NMTAP	129	288	2
NMTAP	129	288	3
NMTAP	130	0	4
NMTAP	130	96	4
NMTAP	130	192	4
NMTAP	130	192	5
NMTAP	131	0	4
NMTAP	131	0	6
NMTAP	131	96	4
NMTAP	131	96	6
NMTAP	131	192	4
NMTAP	131	192	6
NMTAP	132	0	1
NMTAP	132	0	3
NMTAP	132	96	1
NMTAP	132	96	3
NMTAP	132	192	1
NMTAP	132	192	3
NMTAP	133	0	2
NMTAP	133	96	1
NMTAP	133	192	0
NMTAP	133	288	7
NMTAP	134	0	6
NMTAP	134	96	5
NMTAP	134	192	3
NMTAP	134	192	4
NMTAP	135	0	1
NMTAP	135	0	3
NMTAP	135	96	1
NMTAP	135	96	3
NMTAP	135	192	1
NMTAP	135	192	3
NMTAP	136	0	4
NMTAP	136	0	6
NMTAP	136	96	4
NMTAP	136	96	6
NMTAP	136	192	4
NMTAP	136	192	6
NMTAP	137	0	5
NMTAP	137	96	6
NMTAP	137	192	7
NMTAP	137	288	0
NMTAP	138	0	1
NMTAP	138	96	2
NMTAP	138	192	3
NMTAP	138	192	4
NMTAP	139	0	2
NMTAP	139	96	2
NMTAP	139	192	2
NMTAP	139	192	3
NMTAP	139	288	2
NMTAP	139	288	3
NMTAP	140	0	1
NMTAP	140	96	1
NMTAP	140	192	0
NMTAP	140	192	1
NMTAP	140	288	0
NMTAP	140	288	1
NMTAP	141	0	7
NMTAP	141	96	7
NMTAP	141	192	6
NMTAP	141	192	7
NMTAP	141	288	6
NMTAP	141	288	7
NMTAP	142	0	4
NMTAP	142	0	5
NMTAP	142	96	4
NMTAP	142	96	5
NMTAP	142	192	3
NMTAP	142	192	6
NMTAP	143	0	5
NMTAP	143	96	5
NMTAP	143	192	4
NMTAP	143	192	5
NMTAP	143	288	4
NMTAP	143	288	5
NMTAP	144	0	6
NMTAP	144	96	6
NMTAP	144	192	6
NMTAP	144	192	7
NMTAP	144	288	6
NMTAP	144	288	7
NMTAP	145	0	0
NMTAP	145	96	0
NMTAP	145	192	0
NMTAP	145	192	1
NMTAP	145	288	0
NMTAP	145	288	1
NMTAP	146	0	2
NMTAP	146	0	3
NMTAP	146	96	2
NMTAP	146	96	3
NMTAP	146	192	1
NMTAP	146	192	4
NMTAP	147	0	2
NMTAP	147	0	3
NMTAP	147	96	2
NMTAP	147	96	3
NMTAP	147	192	1
NMTAP	147	240	1
NMTAP	147	288	1
NMTAP	148	0	0
NMTAP	148	48	0
NMTAP	148	96	0
NMTAP	148	192	6
NMTAP	148	192	7
NMTAP	149	0	4
NMTAP	149	0	5
NMTAP	149	96	4
NMTAP	149	96	5
NMTAP	149	192	6
NMTAP	149	240	6
NMTAP	149	288	6
NMTAP	150	0	7
NMTAP	150	48	7
NMTAP	150	96	7
NMTAP	150	192	0
NMTAP	150	192	1
NMTAP	151	0	2
NMTAP	151	48	2
NMTAP	151	96	2
NMTAP	151	192	1
NMTAP	151	240	1
NMTAP	151	288	1
NMTAP	152	0	0
NMTAP	152	48	0
NMTAP	152	96	0
NMTAP	152	192	6
NMTAP	152	192	7
NMTAP	153	0	5
NMTAP	153	48	5
NMTAP	153	96	5
NMTAP	153	192	6
NMTAP	153	240	6
NMTAP	153	288	6
NMTAP	154	0	7
NMTAP	154	48	7
NMTAP	154	96	7
NMTAP	154	192	0
NMTAP	154	192	1
BRTAP	155	0	0
BRTAP	155	0	7
EXSTR	157	0	1
NMSI_	157	0	1	96	288	4
NMSTR	159	0	6
NMSI_	159	0	6	96	288	2
NMSTR	161	0	0
NMSXL	161	0	0	96	672	3
NMSTR	161	0	7
NMSXR	161	0	7	96	672	4

T_REC_TAP	462
T_REC_BRK	2
T_REC_XTP	7
T_REC_BXX	3
T_REC_HLD	21
T_REC_XHO	3
T_REC_BHO	0
T_REC_BXH	0
T_REC_STR	9
T_REC_BST	0
T_REC_XST	1
T_REC_XBS	0
T_REC_TTP	14
T_REC_THO	0
T_REC_SLD	10
T_REC_BSL	0
T_REC_ALL	532
T_NUM_TAP	493
T_NUM_BRK	5
T_NUM_HLD	24
T_NUM_SLD	10
T_NUM_ALL	532
T_JUDGE_TAP	498
T_JUDGE_HLD	88
T_JUDGE_SLD	10
T_JUDGE_ALL	596
TTM_EACHPAIRS	122
TTM_SCR_TAP	246500
TTM_SCR_BRK	13000
TTM_SCR_HLD	24000
TTM_SCR_SLD	15000
TTM_SCR_ALL	298500
TTM_SCR_S	289100
TTM_SCR_SS	298000
TTM_RAT_ACV	10016

