VERSION	0.00.00	1.04.00
FES_MODE	0
BPM_DEF	185.000	185.000	185.000	185.000
MET_DEF	4	4
RESOLUTION	384
CLK_DEF	384
COMPATIBLE_CODE	MA2

BPM	0	0	185.000
MET	0	0	4	4

NMTAP	1	192	3
NMTAP	1	192	4
NMTAP	1	240	3
NMTAP	1	264	4
NMTAP	1	288	2
NMTAP	1	312	5
NMTAP	1	336	1
NMTAP	1	360	6
BRSTR	2	0	0
NMSCR	2	0	0	96	1248	7
NMTTP	2	192	0	C	0	M1
NMTTP	3	192	0	C	0	M1
NMTTP	4	192	0	C	0	M1
NMTTP	5	192	0	C	0	M1
NMSTR	6	0	0
NMSCR	6	0	0	96	288	3
NMTTP	6	192	0	E	0	M1
NMSTR	7	0	7
NMSCL	7	0	7	96	288	4
NMTTP	7	192	0	E	0	M1
NMSTR	8	0	3
NMSCL	8	0	3	96	288	0
NMTTP	8	192	4	E	0	M1
NMSTR	9	0	4
NMSCR	9	0	4	96	288	7
NMTTP	9	192	4	E	0	M1
NMHLD	10	0	1	480
NMTAP	10	96	7
NMTAP	10	192	7
NMTAP	10	288	0
NMTAP	11	0	2
NMTAP	11	96	3
NMTAP	11	192	2
NMTAP	11	192	4
NMHLD	11	240	2	96
NMHLD	11	240	4	96
NMHLD	12	0	6	288
NMTAP	12	96	7
NMTAP	12	192	7
NMTAP	12	288	5
NMHLD	13	0	4	96
NMHLD	13	0	6	96
NMTAP	13	192	3
NMTAP	13	192	5
NMTAP	13	240	3
NMTAP	13	240	5
NMHLD	14	0	4	48
NMHLD	14	0	5	48
NMHLD	14	96	4	48
NMHLD	14	96	5	48
NMHLD	14	192	3	48
NMHLD	14	192	4	48
NMHLD	14	288	3	48
NMHLD	14	288	4	48
NMHLD	15	0	2	48
NMHLD	15	0	3	48
NMHLD	15	96	2	48
NMHLD	15	96	3	48
NMHLD	15	192	3	48
NMHLD	15	192	4	48
NMTAP	15	288	3
NMTAP	15	288	4
NMTAP	16	0	2
NMTAP	16	48	2
NMTAP	16	96	6
NMTAP	16	144	6
NMTAP	16	192	1
NMTAP	16	216	7
NMTAP	16	240	1
NMTAP	16	264	7
NMSTR	16	288	0
NMSCR	16	288	0	96	192	6
NMTAP	16	312	6
NMTAP	16	336	0
NMTAP	16	360	6
NMSTR	17	192	7
NMSI_	17	192	7	96	48	3
BRSTR	17	288	0
NMSXL	17	288	0	96	192	6
BRTAP	17	288	7
NMHLD	18	0	4	192
NMTAP	18	288	7
NMTAP	18	336	7
NMHLD	19	0	7	72
NMHLD	19	72	0	72
NMTAP	19	144	1
NMSTR	19	192	1
NMSI_	19	192	1	96	48	4
NMSTR	19	288	7
NMSXR	19	288	7	96	192	1
NMHLD	20	0	3	192
NMTAP	20	288	0
NMTAP	20	336	7
NMHLD	21	0	6	72
NMHLD	21	72	5	72
NMTAP	21	144	4
NMSTR	21	192	4
NMSI_	21	192	4	96	48	0
NMSTR	21	288	3
NMSXR	21	288	3	96	192	5
NMHLD	22	0	7	192
NMTAP	22	288	4
NMTAP	22	336	3
NMHLD	23	0	2	72
NMHLD	23	72	1	72
NMTAP	23	144	0
NMSTR	23	192	0
NMSI_	23	192	0	96	48	4
NMTAP	23	288	6
NMSTR	24	0	5
NMSI_	24	0	5	96	48	3
NMTAP	24	96	2
NMTAP	24	96	5
NMSTR	24	144	1
NMSI_	24	144	1	96	48	4
NMTAP	24	240	1
NMTAP	24	240	5
NMSTR	24	288	6
NMSI_	24	288	6	96	48	2
NMTAP	25	0	1
NMTAP	25	0	6
NMSTR	25	48	0
NMSV_	25	48	0	96	48	5
NMTAP	25	144	0
NMTAP	25	144	6
NMSTR	25	192	7
NMSI_	25	192	7	96	48	2
NMSI_	25	192	7	96	48	4
NMTAP	25	288	7
BRTAP	26	0	1
BRTAP	26	0	5
NMTAP	26	96	6
NMTAP	26	96	7
NMTAP	26	144	6
NMTAP	26	168	7
NMTAP	26	192	5
NMTAP	26	240	2
NMTAP	26	240	3
NMTAP	26	288	1
NMTAP	26	336	4
NMTAP	26	336	5
NMHLD	27	0	6	48
EXHLD	27	0	7	48
EXHLD	27	72	3	48
NMHLD	27	72	4	48
EXTAP	27	144	0
NMTAP	27	144	1
NMTAP	27	192	2
NMTAP	27	192	7
NMTAP	27	240	3
NMTAP	27	240	6
NMTAP	27	288	5
NMTAP	27	312	4
NMTAP	27	336	5
NMTAP	28	0	3
NMTAP	28	0	6
NMTAP	28	96	0
NMTAP	28	96	7
NMTAP	28	144	1
NMTAP	28	168	0
NMTAP	28	192	2
NMTAP	28	240	4
NMTAP	28	240	5
NMTAP	28	288	6
NMTAP	28	336	2
NMTAP	28	336	3
EXHLD	29	0	0	48
NMHLD	29	0	1	48
NMHLD	29	72	3	48
EXHLD	29	72	4	48
NMTAP	29	144	6
EXTAP	29	144	7
NMTAP	29	192	0
NMTAP	29	192	5
NMTAP	29	240	1
NMTAP	29	240	4
NMTAP	29	288	2
NMTAP	29	312	3
NMTAP	29	336	2
NMTAP	30	0	1
NMTAP	30	0	4
NMTAP	30	96	6
NMTAP	30	96	7
NMTAP	30	144	5
NMTAP	30	168	4
NMTAP	30	192	6
NMTAP	30	240	0
NMTAP	30	240	1
NMTAP	30	288	2
NMTAP	30	336	6
NMTAP	30	336	7
EXHLD	31	0	4	48
NMHLD	31	0	5	48
EXHLD	31	72	0	48
NMHLD	31	72	7	48
NMTAP	31	144	2
EXTAP	31	144	3
NMTAP	31	192	1
NMTAP	31	192	4
NMTAP	31	240	0
NMTAP	31	240	5
NMTAP	31	288	6
NMTAP	31	312	7
NMTAP	31	336	6
NMTAP	32	0	0
NMTAP	32	0	5
NMTAP	32	48	4
NMTAP	32	96	2
NMTAP	32	96	3
NMTAP	32	144	1
NMTAP	32	192	0
NMTAP	32	192	7
NMTAP	32	240	6
NMTAP	32	288	4
NMTAP	32	288	5
NMHLD	33	0	4	48
NMHLD	33	0	6	48
NMHLD	33	72	1	48
NMHLD	33	72	3	48
NMTAP	33	144	2
NMTAP	33	144	5
NMSTR	33	192	0
NMSI_	33	192	0	96	48	4
NMTAP	33	216	7
NMTAP	33	240	2
NMTAP	33	264	5
NMTAP	33	288	0
BRSTR	34	0	3
NMSCL	34	0	3	96	672	4
BRHLD	34	0	7	1344
CNSUL	36	0	4	0	576	3
NMTTP	37	288	6	E	0	M1
NMTTP	37	336	5	E	0	M1
NMTTP	38	288	2	E	0	M1
NMTTP	38	336	3	E	0	M1
NMTTP	39	288	5	E	0	M1
NMTTP	39	336	6	E	0	M1
NMTTP	40	288	3	E	0	M1
NMTTP	40	336	2	E	0	M1
NMTAP	41	288	2
NMTAP	41	288	5
EXHLD	42	0	0	480
NMTAP	42	96	6
NMTAP	42	192	6
NMTAP	42	288	7
NMTAP	43	0	1
NMTAP	43	96	2
NMTAP	43	192	1
NMTAP	43	192	3
NMHLD	43	240	1	96
NMHLD	43	240	3	96
EXHLD	44	0	6	288
NMTAP	44	96	7
NMTAP	44	192	7
NMTAP	44	288	5
NMHLD	45	0	4	96
NMHLD	45	0	6	96
NMTAP	45	192	3
NMTAP	45	192	7
NMTAP	45	240	3
NMTAP	45	240	7
EXTAP	46	0	1
NMTAP	46	0	3
NMTAP	46	48	1
EXTAP	46	96	2
NMTAP	46	96	4
NMTAP	46	144	2
EXTAP	46	192	3
NMTAP	46	192	5
NMTAP	46	240	3
EXTAP	46	288	4
NMTAP	46	288	6
NMTAP	46	336	4
NMTAP	47	0	3
EXTAP	47	0	7
NMTAP	47	48	7
NMTAP	47	96	2
EXTAP	47	96	6
NMTAP	47	144	6
NMTAP	47	192	1
EXTAP	47	192	5
NMTAP	47	240	5
NMTAP	47	288	0
EXTAP	47	288	4
EXTAP	48	0	1
NMTAP	48	24	3
NMTAP	48	48	1
NMTAP	48	72	3
EXTAP	48	96	2
NMTAP	48	120	4
NMTAP	48	144	2
NMTAP	48	168	4
EXTAP	48	192	3
NMTAP	48	216	5
NMTAP	48	240	3
NMTAP	48	264	5
EXSTR	48	288	4
NMSCL	48	288	4	96	192	5
NMTAP	48	312	6
NMTAP	48	336	4
NMTAP	48	360	6
NMSTR	49	192	4
NMSF_	49	192	4	96	48	0
BRTAP	50	0	2
BRTAP	50	0	6
NMTAP	50	48	1
NMTAP	50	72	0
NMTAP	50	96	2
NMTAP	50	144	6
NMTAP	50	168	7
NMTAP	50	192	5
NMTAP	50	240	2
NMTAP	50	264	3
NMTAP	50	288	2
NMTAP	50	312	3
NMTAP	50	336	1
NMTAP	51	0	0
NMTAP	51	0	7
NMTAP	51	48	6
NMTAP	51	72	4
NMTAP	51	96	6
NMTAP	51	120	4
NMTAP	51	144	6
NMTAP	51	192	3
NMTAP	51	192	5
NMTAP	51	240	3
NMTAP	51	240	5
NMTAP	51	288	2
NMTAP	51	304	4
NMTAP	51	320	2
NMTAP	51	336	4
NMTAP	52	0	1
NMTAP	52	0	5
NMTAP	52	48	6
NMTAP	52	72	7
NMTAP	52	96	5
NMTAP	52	144	1
NMTAP	52	168	0
NMTAP	52	192	2
NMTAP	52	240	3
NMTAP	52	240	4
NMTAP	52	288	1
NMSTR	52	288	6
NMSI_	52	288	6	96	48	4
NMTAP	52	336	0
NMSTR	52	336	7
NMSI_	52	336	7	96	48	3
NMSTR	53	0	6
NMSI_	53	0	6	96	48	2
NMSTR	53	48	7
NMSI_	53	48	7	96	48	1
NMSTR	53	96	6
NMSCL	53	96	6	96	48	4
NMTAP	53	144	7
NMTAP	53	192	6
NMTAP	53	240	7
BRTAP	53	288	1
BXTAP	53	288	4
NMTAP	54	0	0
NMTAP	54	0	5
NMTAP	54	48	6
NMTAP	54	72	7
NMTAP	54	96	5
NMTAP	54	144	1
NMTAP	54	168	0
NMTAP	54	192	2
NMTAP	54	240	5
NMTAP	54	264	4
NMTAP	54	288	5
NMTAP	54	312	4
NMTAP	54	336	6
NMTAP	55	0	0
NMTAP	55	0	7
NMTAP	55	48	1
NMTAP	55	72	3
NMTAP	55	96	1
NMTAP	55	120	3
NMTAP	55	144	1
NMTAP	55	192	2
NMTAP	55	192	4
NMTAP	55	240	2
NMTAP	55	240	4
NMTAP	55	288	5
NMTAP	55	304	3
NMTAP	55	320	5
NMTAP	55	336	3
NMTAP	56	0	2
NMTAP	56	0	6
NMTAP	56	48	1
NMTAP	56	72	0
NMTAP	56	96	2
NMTAP	56	144	6
NMTAP	56	168	7
NMTAP	56	192	5
NMTAP	56	240	3
NMTAP	56	240	4
NMSTR	56	288	1
NMSCR	56	288	1	96	48	4
NMTAP	56	288	6
NMSTR	56	336	0
NMSCL	56	336	0	96	48	5
NMTAP	56	336	7
NMSTR	57	0	1
NMSI_	57	0	1	96	48	5
NMSTR	57	48	0
NMSI_	57	48	0	96	48	4
NMSTR	57	96	1
NMSI_	57	96	1	96	48	3
NMTAP	57	144	0
NMTAP	57	192	1
NMTAP	57	240	0
BXTAP	57	288	3
BRTAP	57	288	7
NMTAP	58	0	1
NMTAP	58	0	5
NMTAP	58	48	2
NMTAP	58	72	3
NMTAP	58	96	1
NMTAP	58	144	5
NMTAP	58	168	4
NMTAP	58	192	6
NMSTR	58	240	4
NMSI_	58	240	4	96	48	2
NMSTR	58	240	5
NMSI_	58	240	5	96	48	0
NMTAP	58	288	3
NMTAP	58	288	6
NMTAP	58	336	4
NMTAP	58	336	5
NMSTR	59	48	2
NMSI_	59	48	2	96	48	7
NMSTR	59	48	3
NMSI_	59	48	3	96	48	5
NMTAP	59	96	1
NMTAP	59	96	4
NMTAP	59	144	2
NMTAP	59	144	3
NMHLD	59	240	6	48
NMTAP	59	288	7
NMTAP	59	304	0
NMTAP	59	320	1
NMTAP	59	336	2
NMTAP	60	0	4
NMTAP	60	0	5
NMTAP	60	48	5
NMTAP	60	72	4
NMTAP	60	96	6
NMTAP	60	144	0
NMTAP	60	168	7
NMTAP	60	192	1
NMSTR	60	240	2
NMSI_	60	240	2	96	48	7
NMSTR	60	240	6
NMSI_	60	240	6	96	48	3
NMTAP	60	288	3
NMTAP	60	288	7
EXTAP	60	336	2
EXTAP	60	336	6
EXSTR	61	48	0
NMSCR	61	48	0	96	48	3
EXSTR	61	48	4
NMSCR	61	48	4	96	48	7
NMTAP	61	96	1
NMTAP	61	96	5
EXTAP	61	144	0
EXTAP	61	144	4
EXTAP	61	240	3
EXTAP	61	240	7
NMTAP	61	288	6
NMTAP	61	312	4
NMTAP	61	336	5
NMTAP	61	360	3
NMSTR	62	0	4
NMSI_	62	0	4	96	48	0
NMTAP	62	48	4
NMSTR	62	96	2
NMSI_	62	96	2	96	48	7
NMTAP	62	144	2
NMSTR	62	192	6
NMSI_	62	192	6	96	48	2
NMTAP	62	240	6
NMSTR	62	288	0
NMSI_	62	288	0	96	48	4
NMTAP	62	336	0
NMSTR	63	0	5
NMSI_	63	0	5	96	48	0
NMTAP	63	48	5
NMSTR	63	96	3
NMSI_	63	96	3	96	48	7
NMTAP	63	144	3
NMTAP	63	192	5
NMTAP	63	240	5
NMTAP	63	288	0
NMTAP	63	312	4
NMTAP	63	336	0
NMTAP	63	360	4
NMSTR	64	0	0
NMSLR	64	0	0	96	72	6
NMTAP	64	96	5
NMSTR	64	144	7
NMSI_	64	144	7	96	32	3
NMTAP	64	240	4
CNSI_	64	272	3	0	32	6
NMTAP	64	288	2
CNSI_	64	304	6	0	32	4
NMTAP	64	336	0
NMHLD	65	0	0	96
NMTAP	65	96	4
NMTAP	65	108	5
NMTAP	65	120	6
NMTAP	65	132	7
NMTAP	65	144	0
NMTAP	65	156	1
NMTAP	65	168	2
NMTAP	65	180	3
NMSTR	65	192	4
NMSI_	65	192	4	96	48	1
NMSI_	65	192	4	96	48	7
BRTAP	65	288	4
NMTAP	66	0	0
NMTAP	66	24	0
NMTAP	66	48	0
NMTAP	66	72	0
BRTAP	66	96	1
BRSTR	66	96	7
NMSI_	66	96	7	96	48	5
NMTAP	66	192	3
NMSTR	66	192	7
NMSI_	66	192	7	96	48	1
NMTAP	66	240	3
NMTAP	66	288	4
NMSTR	66	288	7
NMSCL	66	288	7	96	48	4
NMTAP	66	336	4
NMTAP	67	0	3
NMSTR	67	0	7
NMSI_	67	0	7	96	48	3
NMTAP	67	48	3
NMTAP	67	96	2
NMTAP	67	96	7
NMTAP	67	144	2
NMTAP	67	192	1
NMTAP	67	192	4
NMTAP	67	240	1
NMTAP	67	240	4
NMTAP	67	288	2
NMTAP	67	304	3
NMTAP	67	320	2
NMTAP	67	336	3
NMSTR	68	0	2
NMSCL	68	0	2	96	96	4
NMTAP	68	0	4
NMSTR	68	192	3
NMSLL	68	192	3	96	64	7
CNSI_	68	352	7	0	32	5
NMSTR	69	0	4
NMSCR	69	0	4	96	96	2
NMSTR	69	192	3
NMSI_	69	192	3	96	48	7
BRSTR	70	0	0
NMSI_	70	0	0	96	48	3
BRTAP	70	0	6
NMSTR	70	96	0
NMSI_	70	96	0	96	48	6
NMTAP	70	96	5
NMTAP	70	144	5
NMSTR	70	192	0
NMSCR	70	192	0	96	48	2
NMTAP	70	192	4
NMTAP	70	240	4
NMSTR	70	288	0
NMSCL	70	288	0	96	48	6
NMTAP	70	288	3
NMTAP	70	336	3
NMSTR	71	0	0
NMSI_	71	0	0	96	48	4
NMTAP	71	0	4
NMTAP	71	48	4
NMTAP	71	96	0
NMTAP	71	96	5
NMTAP	71	144	5
NMTAP	71	192	3
NMTAP	71	192	6
NMTAP	71	240	3
NMTAP	71	240	6
NMTAP	71	288	5
NMTAP	71	304	4
NMTAP	71	320	5
NMTAP	71	336	4
NMTAP	72	0	3
NMSTR	72	0	5
NMSCR	72	0	5	96	96	3
NMSTR	72	192	4
NMSLR	72	192	4	96	64	0
CNSI_	72	352	0	0	32	2
NMSTR	73	0	3
NMSCL	73	0	3	96	96	5
NMSTR	73	192	4
NMSI_	73	192	4	96	48	0
BRTAP	74	0	2
BRSTR	74	0	6
NMSUL	74	0	6	96	48	2
NMSTR	74	96	0
NMSV_	74	96	0	96	48	3
NMTAP	74	144	0
NMSTR	74	192	4
NMSUR	74	192	4	96	48	0
NMTAP	74	240	4
NMSTR	74	288	2
NMSCR	74	288	2	96	48	5
NMTAP	74	336	2
NMSTR	75	0	1
NMSI_	75	0	1	96	48	5
NMTAP	75	48	1
NMSTR	75	96	7
NMSCR	75	96	7	96	48	2
NMTAP	75	144	7
NMTAP	75	192	4
NMSTR	75	288	5
NMSI_	75	288	5	96	48	0
NMTAP	75	304	3
NMTAP	75	320	5
NMTAP	75	336	3
NMSTR	76	0	1
NMSUR	76	0	1	96	48	5
NMTAP	76	48	1
NMSTR	76	96	7
NMSV_	76	96	7	96	48	4
NMTAP	76	144	7
NMSTR	76	192	3
NMSUL	76	192	3	96	48	7
NMTAP	76	240	3
NMSTR	76	288	5
NMSCL	76	288	5	96	48	2
NMTAP	76	336	5
NMSTR	77	0	6
NMSI_	77	0	6	96	48	2
NMTAP	77	48	6
NMSTR	77	96	0
NMSCL	77	96	0	96	48	5
NMTAP	77	144	0
NMTAP	77	192	1
NMTAP	77	240	2
NMTAP	77	288	3
NMTAP	77	336	4
NMTAP	78	0	5
NMTAP	78	0	6
NMTAP	78	48	5
NMTAP	78	48	6
NMTAP	78	96	4
NMTAP	78	96	5
NMTAP	78	144	4
NMTAP	78	144	5
NMTAP	78	192	3
NMTAP	78	192	4
NMTAP	78	240	3
NMTAP	78	240	4
NMTAP	78	288	2
NMTAP	78	288	3
NMTAP	78	336	2
NMTAP	78	336	3
NMTAP	79	0	1
NMTAP	79	0	2
NMTAP	79	48	1
NMTAP	79	48	2
NMTAP	79	96	0
NMTAP	79	96	1
NMTAP	79	144	0
NMTAP	79	144	1
NMTAP	79	192	0
NMTAP	79	192	7
NMTAP	79	240	0
NMTAP	79	240	7
NMTAP	79	288	6
NMTAP	79	288	7
NMTAP	79	336	6
NMTAP	79	336	7
NMTAP	80	0	0
NMTAP	80	24	5
NMTAP	80	48	0
NMTAP	80	72	5
NMTAP	80	96	1
NMTAP	80	120	6
NMTAP	80	144	1
NMTAP	80	168	6
NMTAP	80	192	2
NMTAP	80	216	7
NMTAP	80	240	2
NMTAP	80	264	7
NMTAP	80	288	3
NMTAP	80	312	0
NMTAP	80	336	3
NMTAP	80	360	0
NMSTR	81	0	4
NMSV_	81	0	4	96	48	1
NMSV_	81	0	4	96	48	7
NMTAP	81	192	6
NMTAP	81	204	5
NMTAP	81	216	4
NMTAP	81	228	3
NMTAP	81	240	2
NMTAP	81	252	1
NMTAP	81	264	0
NMTAP	81	276	7
NMSTR	81	288	2
NMSXL	81	288	2	96	768	7
NMSTR	81	288	6
NMSXR	81	288	6	96	768	1
BRTAP	82	0	2
BRTAP	82	0	6
CNSCR	84	0	1	0	576	7
CNSCL	84	0	7	0	576	1
NMTTP	86	0	7	E	0	M1
NMTTP	86	144	6	E	0	M1
NMTTP	86	288	5	E	0	M1
NMTTP	87	144	2	B	0	M1
NMTTP	87	192	5	B	0	M1
NMTTP	87	264	3	B	0	M1
NMTTP	87	336	4	B	0	M1
NMTTP	88	0	3	E	0	M1
NMTTP	88	144	2	E	0	M1
NMTTP	88	288	1	E	0	M1
NMTTP	89	48	0	E	0	M1
NMTTP	89	192	2	E	0	M1
NMTTP	89	192	6	E	0	M1
NMSTR	89	288	0
NMSI_	89	288	0	96	48	4
NMTAP	89	312	6
NMTAP	89	336	2
NMTAP	89	360	4
BRTAP	90	0	0
NMTTP	90	16	0	C	1	M1

T_REC_TAP	436
T_REC_BRK	14
T_REC_XTP	20
T_REC_BXX	2
T_REC_HLD	45
T_REC_XHO	8
T_REC_BHO	1
T_REC_BXH	0
T_REC_STR	74
T_REC_BST	6
T_REC_XST	3
T_REC_XBS	0
T_REC_TTP	30
T_REC_THO	0
T_REC_SLD	86
T_REC_BSL	0
T_REC_ALL	725
T_NUM_TAP	563
T_NUM_BRK	23
T_NUM_HLD	53
T_NUM_SLD	86
T_NUM_ALL	725
T_JUDGE_TAP	585
T_JUDGE_HLD	133
T_JUDGE_SLD	86
T_JUDGE_ALL	804
TTM_EACHPAIRS	137
TTM_SCR_TAP	281500
TTM_SCR_BRK	59800
TTM_SCR_HLD	53000
TTM_SCR_SLD	129000
TTM_SCR_ALL	523300
TTM_SCR_S	505400
TTM_SCR_SS	521000
TTM_RAT_ACV	10044

