VERSION	0.00.00	1.04.00
FES_MODE	0
BPM_DEF	185.000	185.000	185.000	185.000
MET_DEF	4	4
RESOLUTION	384
CLK_DEF	384
COMPATIBLE_CODE	MA2

BPM	0	0	185.000
MET	0	0	4	4

NMTAP	1	288	0
NMTAP	1	288	6
NMTAP	2	0	1
NMHLD	2	0	5	1536
NMTTP	2	192	3	E	0	M1
NMTTP	3	192	5	E	0	M1
NMTTP	4	192	7	E	0	M1
NMTTP	5	192	1	E	0	M1
NMHLD	6	0	1	1344
NMTTP	6	192	3	E	0	M1
NMTTP	7	192	1	E	0	M1
NMTTP	8	192	7	E	0	M1
NMTTP	9	192	5	E	0	M1
EXTAP	9	288	2
EXTAP	9	288	5
NMTAP	10	0	3
NMTAP	10	0	4
NMTAP	10	96	5
NMTAP	10	192	6
NMTAP	10	288	7
NMTAP	11	0	0
NMTAP	11	96	1
NMTAP	11	192	2
EXTAP	11	240	2
NMTAP	11	288	3
EXTAP	12	0	1
EXTAP	12	0	4
NMTAP	12	96	5
NMTAP	12	192	6
NMTAP	12	288	7
EXTAP	13	0	0
EXTAP	13	0	7
NMTAP	13	96	1
EXTAP	13	192	2
EXTAP	13	192	3
EXTAP	13	240	2
EXTAP	13	240	3
NMTAP	13	288	1
NMTAP	13	288	4
NMTAP	14	0	3
NMTAP	14	0	6
NMTAP	14	96	3
NMTAP	14	96	6
NMTAP	14	192	1
NMTAP	14	192	4
NMTAP	14	288	2
NMTAP	14	336	2
NMTAP	15	0	3
NMTAP	15	96	4
NMTAP	15	96	6
NMTAP	15	192	5
NMTAP	15	240	5
NMTAP	15	288	3
NMTAP	16	0	2
NMTAP	16	48	2
NMTAP	16	96	6
NMTAP	16	144	6
NMTAP	16	192	0
NMTAP	16	216	7
NMTAP	16	240	0
NMTAP	16	264	7
NMTAP	16	288	1
NMTAP	16	312	6
NMTAP	16	336	1
NMTAP	16	360	6
NMSTR	17	0	1
NMSI_	17	0	1	96	48	3
NMSTR	17	96	7
NMSI_	17	96	7	96	48	5
NMSTR	17	192	0
NMSI_	17	192	0	96	48	4
EXTAP	17	288	7
EXHLD	18	0	3	96
EXHLD	18	0	6	96
NMTAP	18	144	4
NMTAP	18	144	5
NMTAP	18	192	4
NMTAP	18	192	5
NMTAP	18	288	6
NMTAP	18	336	6
NMTAP	19	0	7
NMTAP	19	72	0
NMTAP	19	72	7
NMTAP	19	144	0
NMTAP	19	144	1
NMTAP	19	192	0
NMTAP	19	192	1
NMTAP	19	288	2
NMTAP	19	288	3
NMHLD	20	0	1	96
NMHLD	20	0	4	96
NMTAP	20	144	2
NMTAP	20	144	3
NMTAP	20	192	2
NMTAP	20	192	3
NMTAP	20	288	1
NMTAP	20	336	1
NMTAP	21	0	0
NMTAP	21	72	0
NMTAP	21	72	7
NMTAP	21	144	6
NMTAP	21	144	7
NMTAP	21	192	6
NMTAP	21	192	7
NMTAP	21	288	4
NMTAP	21	288	5
NMHLD	22	0	3	96
NMHLD	22	0	6	96
NMTAP	22	144	4
NMTAP	22	144	5
NMTAP	22	192	4
NMTAP	22	192	5
NMTAP	22	288	6
NMTAP	22	336	6
NMTAP	23	0	7
NMTAP	23	72	0
NMTAP	23	72	7
NMTAP	23	144	1
NMTAP	23	192	1
NMTAP	23	240	3
NMTAP	23	288	3
NMTAP	23	336	2
NMHLD	24	0	1	96
NMHLD	24	0	4	96
NMTAP	24	144	2
NMTAP	24	144	3
NMTAP	24	192	2
NMTAP	24	192	3
NMTAP	24	288	1
NMTAP	24	336	1
NMTAP	25	0	0
NMTAP	25	72	0
NMTAP	25	72	7
NMTAP	25	144	6
NMTAP	25	144	7
NMSTR	25	192	6
NMSI_	25	192	6	96	48	3
NMSTR	25	192	7
NMSI_	25	192	7	96	48	3
NMHLD	26	0	1	96
NMTAP	26	96	3
NMTAP	26	144	3
NMTAP	26	192	0
NMTAP	26	240	0
NMTAP	26	288	6
NMTAP	26	336	6
NMTAP	27	0	4
NMTAP	27	48	5
NMTAP	27	96	2
NMTAP	27	144	3
NMTAP	27	192	1
NMTAP	27	240	1
NMTAP	27	288	4
NMTAP	27	336	3
NMHLD	28	0	5	96
NMTAP	28	96	7
NMHLD	28	144	7	96
NMTAP	28	240	0
NMHLD	28	288	0	96
NMTAP	29	0	2
NMHLD	29	48	2	96
NMTAP	29	144	3
NMTAP	29	192	3
NMTAP	29	288	4
NMTAP	29	288	5
NMHLD	30	0	6	96
NMTAP	30	96	4
NMTAP	30	144	4
NMTAP	30	192	7
NMTAP	30	240	7
NMTAP	30	288	1
NMTAP	30	336	1
NMTAP	31	0	3
NMTAP	31	48	2
NMTAP	31	96	5
NMTAP	31	144	4
NMTAP	31	192	6
NMTAP	31	240	6
NMTAP	31	288	3
NMTAP	31	336	4
NMHLD	32	0	2	96
NMTAP	32	96	0
NMHLD	32	144	0	96
NMTAP	32	240	7
NMTAP	32	288	7
NMTAP	33	0	6
NMTAP	33	0	7
NMTAP	33	48	6
NMTAP	33	72	7
BXTAP	33	144	0
BXTAP	33	144	5
BXSTR	33	192	0
NMSI_	33	192	0	96	48	4
BXTAP	33	192	5
NMHLD	34	0	7	2976
NMTAP	35	288	4
NMTAP	36	0	4
NMTAP	36	288	3
NMTAP	37	0	3
NMTAP	37	288	3
NMTAP	38	0	4
NMTAP	38	288	4
NMTAP	39	0	3
NMTAP	39	288	4
NMTAP	40	0	5
NMTAP	40	288	3
NMTAP	41	0	2
NMTAP	41	192	3
EXHLD	41	288	1	480
NMTAP	42	0	3
NMTAP	42	96	3
NMTAP	42	192	3
NMTAP	42	288	3
NMTAP	43	0	4
NMTAP	43	96	4
NMTAP	43	192	5
EXTAP	43	240	5
NMTAP	43	288	3
EXHLD	44	0	6	288
NMTAP	44	96	4
NMTAP	44	192	4
NMTAP	44	288	4
NMHLD	45	0	6	96
NMHLD	45	0	7	96
NMTAP	45	192	0
NMTAP	45	192	1
NMTAP	45	240	0
NMTAP	45	240	1
NMTAP	45	288	2
NMTAP	45	288	7
NMTAP	46	0	1
NMTAP	46	48	1
NMTAP	46	96	3
NMTAP	46	144	3
NMTAP	46	192	2
NMTAP	46	240	2
NMTAP	46	288	6
NMTAP	46	336	6
NMTAP	47	0	4
NMTAP	47	48	4
NMTAP	47	96	7
NMTAP	47	144	7
NMTAP	47	192	2
NMTAP	47	240	2
NMTAP	47	288	6
NMTAP	47	336	6
NMTAP	48	0	1
NMTAP	48	24	7
NMTAP	48	48	1
NMTAP	48	72	7
NMTAP	48	96	1
NMTAP	48	120	7
NMTAP	48	144	1
NMTAP	48	168	7
NMTAP	48	192	0
NMTAP	48	216	6
NMTAP	48	240	0
NMTAP	48	264	6
NMTAP	48	288	0
NMTAP	48	312	6
NMTAP	48	336	0
NMTAP	48	360	6
NMTAP	49	0	0
NMSTR	49	96	1
NMSI_	49	96	1	96	48	5
NMSTR	49	96	7
NMSI_	49	96	7	96	48	3
EXTAP	49	288	2
EXTAP	49	288	6
NMHLD	50	0	1	96
NMTAP	50	96	3
NMTAP	50	144	3
NMTAP	50	240	0
NMTAP	50	240	1
NMTAP	50	336	4
NMTAP	50	336	6
NMTAP	51	48	6
NMTAP	51	48	7
NMTAP	51	144	1
NMTAP	51	144	3
NMTAP	51	240	0
NMTAP	51	288	1
NMTAP	51	288	7
NMHLD	52	0	6	96
NMTAP	52	96	4
NMTAP	52	144	4
NMTAP	52	240	6
NMTAP	52	240	7
NMTAP	52	336	2
NMTAP	53	0	2
NMTAP	53	48	3
NMTAP	53	96	1
NMTAP	53	144	7
NMTAP	53	192	0
NMTAP	53	240	6
NMTAP	53	288	4
NMTAP	53	288	5
NMHLD	54	0	6	96
NMTAP	54	96	4
NMTAP	54	144	4
NMTAP	54	240	6
NMTAP	54	240	7
NMTAP	54	336	1
NMTAP	54	336	3
NMTAP	55	48	0
NMTAP	55	48	1
NMTAP	55	144	4
NMTAP	55	144	6
NMTAP	55	240	7
NMTAP	55	288	0
NMTAP	55	288	6
NMHLD	56	0	1	96
NMTAP	56	96	3
NMTAP	56	144	3
NMTAP	56	240	0
NMTAP	56	240	1
NMTAP	56	336	5
NMTAP	57	0	5
NMTAP	57	48	4
NMTAP	57	96	6
NMTAP	57	144	0
NMTAP	57	192	7
NMTAP	57	240	1
NMTAP	57	288	2
NMTAP	57	288	3
NMTAP	58	0	2
NMTAP	58	0	4
NMSTR	58	96	1
NMSI_	58	96	1	96	48	4
NMSTR	58	96	5
NMSI_	58	96	5	96	48	0
NMTAP	58	288	3
NMTAP	58	288	7
NMTAP	58	336	3
NMTAP	58	336	7
NMSTR	59	48	1
NMSCR	59	48	1	96	48	4
NMSTR	59	48	5
NMSCR	59	48	5	96	48	0
EXTAP	59	240	3
EXTAP	59	240	7
EXTAP	59	288	3
EXTAP	59	288	7
NMTAP	60	0	3
NMTAP	60	0	5
NMSTR	60	96	2
NMSI_	60	96	2	96	48	7
NMSTR	60	96	6
NMSI_	60	96	6	96	48	3
NMTAP	60	288	0
NMTAP	60	288	4
NMTAP	60	336	0
NMTAP	60	336	4
NMSTR	61	48	2
NMSCL	61	48	2	96	48	7
NMSTR	61	48	6
NMSCL	61	48	6	96	48	3
EXTAP	61	240	0
EXTAP	61	240	4
EXTAP	61	288	0
EXTAP	61	288	4
NMTAP	62	0	1
NMHLD	62	48	1	48
NMTAP	62	96	3
NMHLD	62	144	3	48
NMTAP	62	192	4
NMHLD	62	240	4	48
NMTAP	62	288	6
NMHLD	62	336	6	48
NMTAP	63	0	7
NMTAP	63	48	7
NMTAP	63	96	0
NMTAP	63	96	5
NMTAP	63	144	0
NMTAP	63	144	5
NMTAP	63	192	1
NMTAP	63	192	4
NMTAP	63	240	1
NMTAP	63	240	4
NMSTR	63	288	2
NMSLL	63	288	2	96	144	4
NMSTR	63	288	3
NMSI_	63	288	3	96	96	7
CNSI_	64	96	7	0	48	5
EXTAP	64	240	6
EXTAP	64	240	7
EXSTR	64	288	6
NMSI_	64	288	6	96	48	4
EXSTR	64	288	7
NMSI_	64	288	7	96	48	3
NMSTR	65	96	0
NMSI_	65	96	0	96	48	4
NMSTR	65	96	1
NMSI_	65	96	1	96	48	3
NMTAP	65	288	6
NMTAP	65	288	7
NMTAP	66	0	0
NMTAP	66	24	7
NMTAP	66	48	0
NMTAP	66	72	7
BRTAP	66	96	0
NMTAP	66	192	5
NMTAP	66	240	5
NMTAP	66	288	4
NMTAP	66	336	6
NMTAP	67	0	2
NMTAP	67	48	2
NMTAP	67	96	4
NMTAP	67	144	4
NMTAP	67	192	0
NMTAP	67	240	1
NMTAP	67	240	5
NMTAP	67	288	1
NMTAP	67	288	5
NMSTR	68	0	6
NMSCL	68	0	6	96	96	2
NMHLD	68	192	0	192
NMSTR	69	0	6
NMSCL	69	0	6	96	96	2
NMTAP	69	192	7
NMTAP	69	288	1
NMTAP	69	288	3
NMTAP	70	0	0
NMTAP	70	0	7
NMTAP	70	96	5
NMTAP	70	144	4
NMTAP	70	192	6
NMTAP	70	240	2
NMTAP	70	288	3
NMTAP	70	336	1
NMTAP	71	0	5
NMTAP	71	48	5
NMTAP	71	96	3
NMTAP	71	144	3
NMTAP	71	192	7
NMTAP	71	240	2
NMTAP	71	240	6
NMTAP	71	288	2
NMTAP	71	288	6
NMSTR	72	0	1
NMSCR	72	0	1	96	96	5
NMHLD	72	192	7	192
NMSTR	73	0	1
NMSCR	73	0	1	96	96	5
NMTAP	73	192	0
NMTAP	73	288	4
NMTAP	73	288	6
NMTAP	74	0	0
NMTAP	74	0	7
NMTAP	74	96	1
NMTAP	74	144	3
NMTAP	74	192	2
NMTAP	74	240	6
NMTAP	74	288	4
NMTAP	74	336	5
NMTAP	75	0	2
NMTAP	75	48	2
NMTAP	75	96	6
NMTAP	75	144	6
NMTAP	75	192	0
NMTAP	75	240	0
NMSTR	75	288	6
NMSI_	75	288	6	96	48	3
NMSTR	75	288	7
NMSI_	75	288	7	96	48	2
NMSTR	76	96	0
NMSI_	76	96	0	96	48	5
NMSTR	76	96	1
NMSI_	76	96	1	96	48	4
NMSTR	76	288	6
NMSCL	76	288	6	96	48	3
NMSTR	76	288	7
NMSI_	76	288	7	96	48	2
NMSTR	77	96	0
NMSI_	77	96	0	96	48	5
NMSTR	77	96	1
NMSCR	77	96	1	96	48	4
NMTAP	77	288	6
NMTAP	77	288	7
NMTAP	78	0	5
NMTAP	78	48	5
NMTAP	78	96	2
NMTAP	78	96	4
NMTAP	78	144	2
NMTAP	78	144	4
NMTAP	78	192	1
NMTAP	78	240	1
NMTAP	78	288	0
NMTAP	78	288	7
NMTAP	78	336	0
NMTAP	78	336	7
NMTAP	79	0	6
NMTAP	79	48	6
NMTAP	79	96	3
NMTAP	79	96	5
NMTAP	79	144	3
NMTAP	79	144	5
NMTAP	79	192	2
NMTAP	79	216	4
NMTAP	79	240	2
NMTAP	79	264	4
NMSTR	79	288	2
NMSCL	79	288	2	96	192	4
NMTTP	80	0	0	C	1	M1
NMSTR	81	0	0
NMSCR	81	0	0	96	48	3
NMSTR	81	0	7
NMSCL	81	0	7	96	48	4
NMSTR	81	192	0
NMSI_	81	192	0	96	48	4
NMSTR	81	192	7
NMSI_	81	192	7	96	48	3
BRTAP	82	0	1
BRHLD	82	0	6	768
NMTAP	83	288	4
NMHLD	84	0	4	768
NMTAP	85	288	3
NMHLD	86	0	3	768
NMTAP	87	288	1
NMHLD	88	0	1	576
NMTAP	89	192	0
EXSTR	89	288	0
BRSI_	89	288	0	96	48	4
EXSTR	89	288	1
BRSI_	89	288	1	96	48	5
EXTAP	89	336	0
EXTAP	89	336	1

T_REC_TAP	366
T_REC_BRK	2
T_REC_XTP	27
T_REC_BXX	3
T_REC_HLD	32
T_REC_XHO	4
T_REC_BHO	1
T_REC_BXH	0
T_REC_STR	36
T_REC_BST	0
T_REC_XST	4
T_REC_XBS	1
T_REC_TTP	9
T_REC_THO	0
T_REC_SLD	39
T_REC_BSL	2
T_REC_ALL	526
T_NUM_TAP	442
T_NUM_BRK	9
T_NUM_HLD	36
T_NUM_SLD	39
T_NUM_ALL	526
T_JUDGE_TAP	448
T_JUDGE_HLD	254
T_JUDGE_SLD	41
T_JUDGE_ALL	743
TTM_EACHPAIRS	108
TTM_SCR_TAP	221000
TTM_SCR_BRK	23400
TTM_SCR_HLD	36000
TTM_SCR_SLD	58500
TTM_SCR_ALL	338900
TTM_SCR_S	327900
TTM_SCR_SS	338000
TTM_RAT_ACV	10026

