VERSION	0.00.00	1.04.00
FES_MODE	0
BPM_DEF	160.000	160.000	160.000	160.000
MET_DEF	4	4
RESOLUTION	384
CLK_DEF	384
COMPATIBLE_CODE	MA2

BPM	0	0	160.000
MET	0	0	4	4

NMSTR	1	288	2
NMSUR	1	288	2	96	192	4
NMHLD	2	0	5	192
NMSTR	2	288	5
NMSUL	2	288	5	96	192	3
NMHLD	3	0	2	192
NMSTR	3	288	2
NMSXR	3	288	2	96	192	4
NMHLD	4	0	5	192
NMTAP	4	288	4
NMTAP	4	288	5
BRTAP	5	0	3
BRTAP	5	0	4
NMTAP	5	192	2
NMHLD	5	288	1	288
NMTAP	5	288	3
NMTTP	6	0	1	E	0	M1
NMTTP	6	96	2	E	0	M1
NMTTP	6	192	3	E	0	M1
NMHLD	6	288	6	288
NMTTP	7	0	7	E	0	M1
NMTTP	7	96	6	E	0	M1
NMTTP	7	192	5	E	0	M1
NMHLD	7	288	3	288
NMTTP	8	0	3	E	0	M1
NMTTP	8	96	2	E	0	M1
NMTTP	8	192	1	E	0	M1
NMTTP	8	288	0	E	0	M1
NMTTP	9	0	3	A	0	M1
NMTTP	9	0	4	E	0	M1
NMTTP	9	0	4	A	0	M1
NMTTP	9	96	0	C	1	M1
NMTTP	9	96	1	B	0	M1
NMTTP	9	96	2	B	0	M1
NMTTP	9	96	5	B	0	M1
NMTTP	9	96	6	B	0	M1
NMHLD	10	0	1	96
NMHLD	10	0	7	96
NMTAP	10	144	0
NMTAP	10	144	6
NMHLD	10	192	0	96
NMHLD	10	192	6	96
NMTAP	10	336	5
NMTAP	10	336	7
NMHLD	11	0	5	240
NMSTR	11	0	7
NMSCL	11	0	7	96	96	3
NMTAP	11	240	1
NMTAP	11	288	1
NMHLD	12	0	2	72
NMHLD	12	0	3	72
NMTAP	12	144	2
NMTAP	12	144	3
NMHLD	12	192	1	72
NMHLD	12	192	4	72
NMTAP	12	336	1
NMTAP	12	336	4
NMSTR	13	0	2
NMSCR	13	0	2	96	96	5
NMTAP	13	0	3
NMTAP	13	240	6
NMTAP	13	288	6
NMHLD	14	0	0	96
NMHLD	14	0	6	96
NMTAP	14	144	1
NMTAP	14	144	7
NMHLD	14	192	1	96
NMHLD	14	192	7	96
NMTAP	14	336	0
NMTAP	14	336	2
NMSTR	15	0	0
NMSCR	15	0	0	96	96	4
NMHLD	15	0	2	240
NMTAP	15	240	6
NMTAP	15	288	6
NMHLD	16	0	4	72
NMHLD	16	0	5	72
NMTAP	16	144	4
NMTAP	16	144	5
NMHLD	16	192	3	72
NMHLD	16	192	6	72
NMTAP	16	336	3
NMTAP	16	336	6
NMTAP	17	0	4
NMSTR	17	0	5
NMSCL	17	0	5	96	96	2
NMTAP	17	288	1
NMTAP	18	0	2
NMHLD	18	0	3	480
NMTAP	18	96	2
NMTAP	18	192	4
NMTAP	18	288	4
NMTAP	19	0	2
NMTAP	19	96	2
NMTAP	19	192	2
NMTAP	19	216	3
NMTAP	19	264	3
NMTAP	19	288	2
NMHLD	20	0	4	480
NMTAP	20	0	5
NMTAP	20	96	5
NMTAP	20	192	3
NMTAP	20	288	3
NMTAP	21	0	5
NMTAP	21	96	5
NMTAP	21	192	5
NMTAP	21	216	4
NMTAP	21	264	4
NMTAP	21	288	6
NMTAP	22	0	5
NMTAP	22	48	5
NMTAP	22	96	5
NMTAP	22	144	5
NMTAP	22	168	4
NMTAP	22	192	3
NMTAP	22	240	3
NMTAP	22	288	3
NMTAP	22	336	3
NMTAP	22	360	2
NMTAP	23	0	1
NMTAP	23	48	1
NMTAP	23	96	1
NMTAP	23	144	1
NMTAP	23	168	0
NMTAP	23	192	7
NMTAP	23	240	7
NMTAP	23	288	0
NMTAP	23	288	6
NMTAP	23	336	0
NMTAP	23	336	6
NMTAP	24	0	1
NMTAP	24	24	5
NMTAP	24	48	1
NMTAP	24	72	5
NMTAP	24	96	2
NMTAP	24	120	6
NMTAP	24	144	2
NMTAP	24	168	6
NMTTP	24	192	4	E	0	M1
NMTTP	24	204	5	E	0	M1
NMTTP	24	216	6	E	0	M1
NMTTP	24	228	7	E	0	M1
NMTTP	24	240	0	E	0	M1
NMTTP	24	252	1	E	0	M1
NMTTP	24	264	2	E	0	M1
NMTTP	24	276	3	E	0	M1
NMTTP	24	288	4	E	0	M1
NMTTP	24	300	5	E	0	M1
NMTTP	24	312	6	E	0	M1
NMTTP	24	324	7	E	0	M1
NMTTP	24	336	0	E	0	M1
NMTTP	24	348	1	E	0	M1
NMTTP	24	360	2	E	0	M1
NMTTP	24	372	3	E	0	M1
NMTTP	25	0	0	C	1	M1
NMTTP	25	0	4	E	0	M1
NMTAP	26	0	0
NMTAP	26	0	7
NMTAP	26	96	1
NMTAP	26	144	2
NMTAP	26	192	3
NMTAP	26	192	6
NMTAP	26	240	5
NMTAP	26	288	1
NMTAP	26	288	4
NMHLD	26	336	2	192
NMTAP	27	48	3
NMTAP	27	96	3
NMTAP	27	144	3
NMTAP	27	192	3
NMTAP	27	216	2
NMTAP	27	240	3
NMTAP	27	288	1
NMTAP	27	312	0
NMTAP	27	336	1
NMSTR	28	0	2
NMSCL	28	0	2	96	48	7
NMTAP	28	0	7
NMTAP	28	96	2
NMSTR	28	96	6
NMSCL	28	96	6	96	48	3
NMTAP	28	144	5
NMSTR	28	192	0
NMSI_	28	192	0	96	48	4
NMTAP	28	192	6
NMSTR	28	240	1
NMSI_	28	240	1	96	48	5
NMTAP	28	288	0
NMTAP	28	336	1
NMTAP	29	48	3
NMTAP	29	48	7
NMTAP	29	96	6
NMTAP	29	144	5
NMTAP	29	192	2
NMTAP	29	192	4
NMTAP	29	240	1
NMTAP	29	240	3
NMTAP	29	288	6
NMTAP	29	312	7
NMTAP	29	336	6
NMTAP	30	0	0
NMSTR	30	0	5
NMSCR	30	0	5	96	48	0
EXSTR	30	96	1
NMSCR	30	96	1	96	48	4
NMTAP	30	96	5
NMTAP	30	144	2
NMTAP	30	192	1
NMSTR	30	192	7
NMSI_	30	192	7	96	48	3
NMSTR	30	240	6
NMSI_	30	240	6	96	48	2
NMTAP	30	288	7
NMTAP	30	336	6
NMTAP	31	48	0
NMTAP	31	48	4
NMTAP	31	96	1
NMTAP	31	96	3
NMTAP	31	144	1
NMTAP	31	144	3
NMTAP	31	192	5
NMTAP	31	216	4
NMTAP	31	264	3
NMTAP	31	264	6
BXTAP	31	288	3
BXTAP	31	288	6
NMSTR	32	0	1
NMSCR	32	0	1	96	48	4
NMTAP	32	0	4
NMTAP	32	96	1
NMSTR	32	96	5
NMSCR	32	96	5	96	48	0
NMTAP	32	144	6
NMSTR	32	192	3
NMSI_	32	192	3	96	48	7
NMTAP	32	192	5
NMSTR	32	240	2
NMSI_	32	240	2	96	48	0
NMTAP	32	288	3
NMTAP	32	336	2
NMTAP	33	48	6
NMTAP	33	96	0
NMTAP	33	96	6
NMTAP	33	144	1
NMTAP	33	144	7
NMTAP	33	192	2
NMTAP	33	216	3
NMTAP	33	264	5
NMTAP	33	288	4
NMTAP	33	336	3
NMTAP	33	336	5
NMTAP	34	0	1
NMTAP	34	0	7
NMTAP	34	48	6
NMTAP	34	96	1
NMTAP	34	96	5
NMTAP	34	144	2
NMTAP	34	192	3
NMTAP	34	192	5
NMTAP	34	240	6
NMTAP	34	288	0
NMTAP	34	288	7
NMTAP	34	336	1
NMHLD	35	0	2	48
NMHLD	35	0	3	48
NMHLD	35	96	4	48
NMHLD	35	96	5	48
NMTAP	35	192	0
NMTAP	35	192	7
NMTAP	35	240	0
NMTAP	35	240	7
NMTAP	35	288	1
NMTAP	35	288	6
BRTAP	36	0	2
BXSTR	36	0	7
NMSI_	36	0	7	96	48	1
NMTAP	36	96	3
EXSTR	36	96	7
NMSI_	36	96	7	96	48	5
NMTAP	36	144	3
NMTAP	36	192	3
EXSTR	36	192	7
NMSI_	36	192	7	96	48	1
NMTAP	36	240	3
NMHLD	36	288	3	48
EXSTR	36	288	7
NMSI_	36	288	7	96	48	5
EXSTR	37	0	7
NMSI_	37	0	7	96	48	1
NMTAP	37	48	4
NMTAP	37	96	4
EXSTR	37	96	7
NMSI_	37	96	7	96	48	5
NMTAP	37	144	4
NMHLD	37	192	4	48
EXSTR	37	192	7
NMSI_	37	192	7	96	48	1
NMHLD	37	288	3	48
EXSTR	37	288	7
NMSI_	37	288	7	96	48	5
NMTAP	38	0	3
EXSTR	38	0	7
NMSI_	38	0	7	96	48	1
NMTAP	38	96	4
EXSTR	38	96	7
NMSI_	38	96	7	96	48	5
NMTAP	38	144	4
NMTAP	38	192	4
EXSTR	38	192	7
NMSI_	38	192	7	96	48	1
NMTAP	38	240	4
NMHLD	38	288	4	48
EXSTR	38	288	7
NMSI_	38	288	7	96	48	5
EXTAP	39	0	7
NMTAP	39	96	3
NMTAP	39	96	4
NMTAP	39	144	2
NMTAP	39	192	1
NMTAP	39	192	4
NMTAP	39	216	1
NMTAP	39	216	4
NMTAP	39	264	3
NMTAP	39	264	6
BRTAP	39	288	3
BRTAP	39	288	6
EXSTR	40	0	0
NMSI_	40	0	0	96	48	6
NMTAP	40	0	5
EXSTR	40	96	0
NMSI_	40	96	0	96	48	2
NMTAP	40	96	4
NMTAP	40	144	4
EXSTR	40	192	0
NMSI_	40	192	0	96	48	6
NMTAP	40	192	4
NMTAP	40	240	4
EXSTR	40	288	0
NMSI_	40	288	0	96	48	2
NMHLD	40	288	4	48
EXTAP	41	0	0
NMTAP	41	48	5
NMTAP	41	96	3
NMTAP	41	96	4
NMTAP	41	144	2
NMTAP	41	192	1
NMTAP	41	192	4
NMTAP	41	216	1
NMTAP	41	216	4
NMTAP	41	264	3
NMTAP	41	264	6
BRTAP	41	288	3
BRTAP	41	288	6
NMTAP	42	0	0
NMTAP	42	0	4
NMTAP	42	96	0
NMTAP	42	144	1
NMTAP	42	144	7
NMTAP	42	192	6
NMTAP	42	216	4
NMTAP	42	264	1
NMTAP	42	288	3
NMTAP	42	336	0
NMTAP	42	336	7
NMSTR	43	0	1
NMSCR	43	0	1	96	48	4
NMSTR	43	96	7
NMSCL	43	96	7	96	48	4
NMSTR	43	192	0
NMSI_	43	192	0	96	48	4
BRTAP	43	288	0
NMSTR	44	0	7
NMSCL	44	0	7	96	192	2
NMTTP	44	96	0	C	0	M1
NMTAP	44	240	1
NMHLD	44	288	1	192
NMSTR	45	0	2
NMSXL	45	0	2	96	192	6
NMTAP	45	240	0
NMTAP	45	288	0
NMSTR	46	0	7
NMSCL	46	0	7	96	192	2
NMTTP	46	96	0	C	0	M1
NMTAP	46	240	1
NMTAP	46	288	1
NMHLD	47	0	0	96
NMTAP	47	96	6
NMTAP	47	144	6
NMTAP	47	168	7
NMTAP	47	216	7
NMTAP	47	240	6
NMTAP	47	288	0
NMTAP	47	288	5
NMSTR	48	0	6
NMSCL	48	0	6	96	192	1
NMTTP	48	96	0	C	0	M1
NMTAP	48	240	0
NMHLD	48	288	0	192
NMSTR	49	0	1
NMSXL	49	0	1	96	192	6
NMTAP	49	240	7
NMTAP	49	288	7
NMSTR	50	0	5
NMSUL	50	0	5	96	192	2
NMTTP	50	96	0	C	0	M1
NMTAP	50	240	0
NMTAP	50	288	0
NMTAP	51	0	1
NMTAP	51	0	3
NMTAP	51	96	4
NMTAP	51	144	4
NMTAP	51	168	3
NMTAP	51	216	3
NMTAP	51	240	5
NMTAP	51	288	4
NMTAP	51	288	6
NMHLD	52	0	4	480
NMTAP	52	0	5
NMTAP	52	96	5
NMTAP	52	192	3
NMTAP	52	288	2
NMTAP	53	0	3
NMTAP	53	96	5
NMTAP	53	192	5
NMTAP	53	216	4
NMTAP	53	264	3
NMTAP	53	264	6
NMTAP	53	288	3
NMTAP	53	288	6
NMTAP	54	0	2
NMHLD	54	0	3	480
NMTAP	54	96	2
NMTAP	54	192	4
NMTAP	54	288	5
NMTAP	55	0	4
NMTAP	55	96	2
NMTAP	55	192	2
NMTAP	55	216	3
NMTAP	55	264	1
NMTAP	55	264	4
NMTAP	55	288	1
NMTAP	55	288	4
NMTAP	56	0	2
NMTAP	56	48	2
NMTAP	56	96	2
NMTAP	56	144	2
NMTAP	56	168	3
NMTAP	56	192	4
NMTAP	56	240	4
NMTAP	56	288	4
NMTAP	56	336	4
NMTAP	56	360	5
NMTAP	57	0	6
NMTAP	57	48	6
NMTAP	57	96	6
NMTAP	57	144	6
NMTAP	57	168	7
NMTAP	57	192	0
NMTAP	57	240	0
NMTAP	57	288	1
NMTAP	57	288	7
NMTAP	57	336	1
NMTAP	57	336	7
NMTAP	58	0	6
NMTAP	58	24	2
NMTAP	58	48	6
NMTAP	58	72	2
NMTAP	58	96	7
NMTAP	58	120	3
NMTAP	58	144	7
NMTAP	58	168	3
NMTTP	58	192	0	E	0	M1
NMTTP	58	204	1	E	0	M1
NMTTP	58	216	2	E	0	M1
NMTTP	58	228	3	E	0	M1
NMTTP	58	240	4	E	0	M1
NMTTP	58	252	5	E	0	M1
NMTTP	58	264	6	E	0	M1
NMTTP	58	276	7	E	0	M1
NMTTP	58	288	0	E	0	M1
NMTTP	58	300	1	E	0	M1
NMTTP	58	312	2	E	0	M1
NMTTP	58	324	3	E	0	M1
NMTTP	58	336	4	E	0	M1
NMTTP	58	348	5	E	0	M1
NMTTP	58	360	6	E	0	M1
NMTTP	58	372	7	E	0	M1
NMTTP	59	0	0	C	1	M1
NMTTP	59	0	0	E	0	M1
NMTAP	60	0	0
NMTAP	60	0	7
NMTAP	60	144	6
NMTAP	60	168	6
NMHLD	60	192	6	96
NMTAP	60	240	4
NMHLD	60	288	1	96
NMTAP	60	336	3
NMSTR	61	0	7
NMSI_	61	0	7	96	48	4
NMSI_	61	0	7	96	48	5
NMSTR	61	96	7
NMSI_	61	96	7	96	48	1
NMSI_	61	96	7	96	48	2
NMSTR	61	192	7
NMSI_	61	192	7	96	48	3
NMTAP	61	288	7
BRHLD	62	0	0	96
BRHLD	62	0	1	96
NMTAP	62	144	1
NMTAP	62	168	3
NMTAP	62	192	2
NMTAP	62	240	3
NMTAP	62	240	4
NMTAP	62	288	4
NMTAP	62	288	5
NMTAP	62	336	3
NMTAP	62	336	6
NMTAP	63	48	1
NMTAP	63	72	1
NMTAP	63	96	0
NMTAP	63	144	2
NMTAP	63	168	2
NMTAP	63	192	3
NMTAP	63	240	0
NMTAP	63	264	0
NMTAP	63	288	7
BRHLD	64	0	6	96
BRHLD	64	0	7	96
NMTAP	64	144	5
NMTAP	64	168	4
NMTAP	64	192	5
NMTAP	64	240	2
NMTAP	64	240	3
NMTAP	64	288	0
NMTAP	64	288	1
NMTAP	64	336	2
NMTAP	64	336	7
NMTAP	65	48	6
NMTAP	65	48	7
NMTAP	65	96	0
NMTAP	65	96	5
NMTAP	65	144	1
NMTAP	65	168	3
NMTAP	65	192	2
NMTAP	65	240	5
NMTAP	65	264	4
NMTAP	65	288	5
EXTAP	66	0	2
NMTAP	66	0	3
NMTAP	66	48	1
NMTAP	66	96	4
EXTAP	66	96	5
NMTAP	66	144	6
EXTAP	66	192	1
NMTAP	66	192	3
NMTAP	66	240	0
EXTAP	66	288	6
NMTAP	66	288	7
NMTAP	66	336	0
EXTAP	66	336	5
NMTAP	67	0	1
EXTAP	67	0	4
NMTAP	67	48	2
EXTAP	67	96	3
NMTAP	67	96	5
NMTAP	67	144	3
NMTAP	67	144	5
EXTAP	67	192	6
NMTAP	67	216	7
NMTAP	67	264	7
EXTAP	67	288	6
NMTAP	67	336	0
NMTAP	67	336	5
NMTAP	68	0	0
NMTAP	68	24	0
NMTAP	68	48	7
NMTAP	68	72	7
NMTAP	68	96	6
NMTAP	68	120	6
NMTAP	68	144	5
NMTAP	68	168	5
NMTAP	68	192	4
NMTAP	68	216	4
NMTAP	68	240	3
NMTAP	68	264	3
NMTAP	68	288	2
NMTAP	68	312	2
NMTAP	68	336	1
NMTAP	68	360	1
BXTAP	69	0	0
BXTAP	69	96	1
NMTAP	69	96	3
BXTAP	69	192	2
NMTAP	69	192	4
NMTAP	69	240	0
NMTAP	69	240	6
BRSTR	69	288	1
NMSI_	69	288	1	96	48	5
BRSTR	69	288	5
NMSI_	69	288	5	96	48	0
NMSTR	70	0	1
NMSCR	70	0	1	96	48	4
NMTAP	70	0	5
NMTAP	70	96	1
NMSTR	70	96	7
NMSI_	70	96	7	96	48	3
NMTAP	70	144	0
NMSTR	70	192	1
NMSXR	70	192	1	96	144	6
NMTAP	70	192	7
NMTAP	70	288	1
NMSTR	70	288	5
NMSCL	70	288	5	96	48	2
NMTAP	70	336	6
NMTAP	71	0	5
NMTAP	71	96	0
NMTAP	71	96	4
NMTAP	71	192	2
NMTAP	71	192	3
NMTAP	71	240	1
NMTAP	71	288	6
NMTAP	71	288	7
NMTAP	71	336	5
NMTAP	72	0	0
NMTAP	72	0	4
NMTAP	72	48	2
NMTAP	72	72	3
NMSTR	72	96	1
NMSI_	72	96	1	96	48	7
NMTAP	72	120	3
NMTAP	72	144	2
NMSTR	72	192	1
NMSI_	72	192	1	96	48	3
NMTAP	72	192	4
NMTAP	72	240	5
NMTAP	72	264	5
NMSTR	72	288	1
NMSXR	72	288	1	96	96	5
NMTAP	72	312	6
NMTAP	72	336	6
BRTAP	73	0	1
NMTAP	73	96	4
NMTAP	73	192	3
NMTAP	73	192	7
NMTAP	73	264	1
NMTAP	73	264	5
NMSTR	73	288	1
NMSI_	73	288	1	96	48	4
NMSTR	73	288	5
NMSI_	73	288	5	96	48	0
NMTAP	73	336	0
NMTAP	73	336	4
NMTAP	74	0	1
NMSTR	74	0	5
NMSCL	74	0	5	96	48	2
NMSTR	74	96	1
NMSCL	74	96	1	96	48	6
NMTAP	74	96	5
NMTAP	74	144	0
NMTAP	74	192	1
EXSTR	74	192	5
NMSLR	74	192	5	96	96	4
EXSTR	74	288	1
NMSI_	74	288	1	96	48	3
NMTAP	74	288	5
NMTAP	74	336	2
NMTAP	75	0	1
CNSI_	75	0	4	0	48	0
NMTAP	75	96	3
NMTAP	75	96	7
NMTAP	75	192	4
NMTAP	75	192	5
NMTAP	75	240	6
NMTAP	75	288	0
NMTAP	75	288	1
NMTAP	75	336	2
NMTAP	76	0	3
NMTAP	76	0	7
NMTAP	76	48	5
NMTAP	76	72	4
NMSTR	76	96	6
NMSI_	76	96	6	96	48	0
NMTAP	76	120	4
NMTAP	76	144	5
NMTAP	76	192	3
NMSTR	76	192	6
NMSI_	76	192	6	96	48	4
NMTAP	76	240	2
NMTAP	76	264	2
NMSTR	76	288	6
BRSXL	76	288	6	96	96	2
NMTAP	76	312	1
NMTAP	76	336	1
BRTAP	77	0	6
NMTAP	77	96	3
NMTAP	77	192	0
NMTAP	77	192	1
NMTAP	77	216	0
NMTAP	77	216	1
NMTAP	77	264	6
NMTAP	77	264	7
NMTAP	77	288	6
NMTAP	77	288	7
NMSTR	78	0	2
NMSI_	78	0	2	96	48	5
NMHLD	78	0	4	576
EXTAP	78	192	5
EXTAP	78	240	5
EXTAP	78	288	5
EXTAP	78	336	5
BRHLD	79	0	5	96
NMSTR	79	192	5
NMSI_	79	192	5	96	48	0
NMTAP	79	208	6
NMTAP	79	224	7
NMTAP	79	240	0
NMTAP	79	256	1
NMTAP	79	272	2
BRTAP	79	288	3
BRTAP	79	288	5
EXTAP	80	0	3
EXTAP	80	0	7
NMTAP	80	48	6
NMTAP	80	72	4
NMTAP	80	120	1
NMTAP	80	144	3
NMTAP	80	192	0
NMTAP	80	192	1
NMTAP	80	240	3
NMSTR	80	240	4
NMSI_	80	240	4	96	48	0
NMTAP	80	288	6
NMTAP	80	288	7
NMTAP	80	336	3
NMTAP	80	336	4
NMTAP	81	0	2
NMSTR	81	48	1
NMSXL	81	48	1	96	120	5
NMTAP	81	72	0
NMTAP	81	120	0
NMTAP	81	144	1
NMTAP	81	192	6
NMTAP	81	216	6
NMTAP	81	264	7
NMSTR	81	288	7
NMSCL	81	288	7	96	48	4
NMSCR	81	288	7	96	48	2
NMTAP	81	336	0
NMTAP	81	336	6
EXSTR	82	0	7
NMSI_	82	0	7	96	48	2
EXSTR	82	96	3
NMSI_	82	96	3	96	48	7
NMTAP	82	96	7
CNSLL	82	144	2	0	48	6
NMTAP	82	144	4
NMTAP	82	192	3
CNSI_	82	192	6	0	48	4
NMSTR	82	288	1
BRSI_	82	288	1	96	48	7
NMSTR	82	288	5
BRSI_	82	288	5	96	48	3
NMTAP	82	336	2
NMTAP	82	336	6
NMSTR	83	0	1
NMSV_	83	0	1	96	48	4
NMSTR	83	0	5
NMSI_	83	0	5	96	48	0
NMTAP	83	96	1
NMTAP	83	96	5
NMTAP	83	192	1
NMTAP	83	204	2
NMTAP	83	216	3
NMTAP	83	228	4
NMTAP	83	240	5
NMTAP	83	252	6
NMTAP	83	264	7
NMTAP	83	276	0
BRTAP	83	288	1
BRTAP	83	288	5
NMTAP	84	0	3
NMTAP	84	0	7
NMTAP	84	48	2
NMTAP	84	48	6
NMTAP	84	72	2
NMTAP	84	72	6
NMTAP	84	120	1
NMTAP	84	120	5
NMTAP	84	144	1
NMTAP	84	144	5
NMTAP	84	192	0
NMTAP	84	216	6
NMTAP	84	240	2
NMTAP	84	264	4
NMTAP	84	288	1
NMTAP	84	312	7
NMTAP	84	336	3
NMTAP	84	360	5
NMTAP	85	0	2
NMSTR	85	0	6
NMSV_	85	0	6	96	48	3
NMTAP	85	48	3
NMTAP	85	48	7
NMSTR	85	96	2
NMSCL	85	96	2	96	48	7
NMTAP	85	96	6
NMTAP	85	144	1
NMTAP	85	192	2
NMSTR	85	192	5
BRSI_	85	192	5	96	48	1
NMTAP	85	240	6
NMSTR	85	288	0
NMSI_	85	288	0	96	48	4
NMTAP	85	288	5
CNSI_	85	336	1	0	48	6
BXTAP	86	0	0
CNSI_	86	0	6	0	48	3
NMTTP	86	24	0	C	1	M1

T_REC_TAP	505
T_REC_BRK	14
T_REC_XTP	17
T_REC_BXX	6
T_REC_HLD	44
T_REC_XHO	0
T_REC_BHO	5
T_REC_BXH	0
T_REC_STR	57
T_REC_BST	2
T_REC_XST	20
T_REC_XBS	1
T_REC_TTP	59
T_REC_THO	0
T_REC_SLD	79
T_REC_BSL	4
T_REC_ALL	813
T_NUM_TAP	658
T_NUM_BRK	32
T_NUM_HLD	44
T_NUM_SLD	79
T_NUM_ALL	813
T_JUDGE_TAP	681
T_JUDGE_HLD	161
T_JUDGE_SLD	83
T_JUDGE_ALL	925
TTM_EACHPAIRS	172
TTM_SCR_TAP	329000
TTM_SCR_BRK	83200
TTM_SCR_HLD	44000
TTM_SCR_SLD	118500
TTM_SCR_ALL	574700
TTM_SCR_S	554400
TTM_SCR_SS	571500
TTM_RAT_ACV	10055

