VERSION	0.00.00	1.04.00
FES_MODE	0
BPM_DEF	160.000	160.000	160.000	160.000
MET_DEF	4	4
RESOLUTION	384
CLK_DEF	384
COMPATIBLE_CODE	MA2

BPM	0	0	160.000
MET	0	0	4	4

BXHLD	2	0	2	768
BXHLD	2	0	4	384
NMHLD	4	0	3	192
NMHLD	4	192	4	192
NMTAP	5	0	5
NMTAP	5	192	3
NMHLD	5	192	5	960
NMTTP	6	0	4	E	0	M1
NMTTP	6	96	3	E	0	M1
NMTTP	6	192	2	E	0	M1
NMTTP	6	288	1	E	0	M1
NMTTP	7	0	0	E	0	M1
NMTTP	7	96	7	E	0	M1
NMTTP	7	192	6	E	0	M1
NMTTP	7	288	5	E	0	M1
NMTTP	8	0	4	E	0	M1
NMTTP	8	96	3	E	0	M1
NMTTP	8	192	2	E	0	M1
NMTTP	8	288	1	E	0	M1
NMTTP	9	0	0	B	0	M1
NMTTP	9	0	7	B	0	M1
NMTTP	9	96	1	B	0	M1
NMTTP	9	96	6	B	0	M1
NMTHO	9	192	0	192	C	1	M1
NMTTP	9	192	2	B	0	M1
NMTTP	9	192	5	B	0	M1
BXSTR	10	0	7
NMSCL	10	0	7	96	288	4
NMSTR	11	0	0
NMSCR	11	0	0	96	288	3
NMSTR	12	0	7
NMSI_	12	0	7	96	288	4
NMSTR	13	0	0
NMSI_	13	0	0	96	288	3
NMHLD	14	0	4	384
NMTTP	14	192	4	B	0	M1
NMTTP	14	192	5	B	0	M1
NMHLD	15	0	3	480
NMTTP	15	192	2	B	0	M1
NMTTP	15	192	3	B	0	M1
NMHLD	16	0	5	96
NMHLD	16	192	2	96
NMHLD	16	192	4	96
NMSTR	17	0	1
NMSI_	17	0	1	96	144	4
NMSTR	17	0	5
NMSI_	17	0	5	96	144	0
NMTAP	18	0	3
NMTAP	18	0	7
NMTAP	18	96	3
NMTAP	18	96	7
NMTAP	18	192	3
NMTAP	18	192	6
NMTAP	18	288	3
NMTAP	18	288	6
NMTAP	19	0	3
NMTAP	19	0	5
NMTAP	19	96	3
NMHLD	19	96	5	192
NMTAP	19	192	4
NMTAP	19	240	4
NMTAP	19	288	4
NMTAP	20	0	3
NMTAP	20	0	4
NMTAP	20	96	3
NMTAP	20	96	4
NMTAP	20	192	4
NMTAP	20	192	6
NMTAP	20	288	4
NMTAP	20	288	6
NMTAP	21	0	2
NMTAP	21	0	4
NMTAP	21	96	2
NMTAP	21	96	4
NMTAP	21	192	1
NMTAP	21	240	1
NMTAP	21	288	1
EXTAP	21	288	3
NMTAP	22	0	2
NMTAP	22	48	2
NMTAP	22	96	4
NMTAP	22	144	4
NMTAP	22	192	3
NMTAP	22	240	3
NMTAP	22	288	3
NMTAP	22	336	3
NMTAP	23	0	4
NMTAP	23	48	4
NMTAP	23	96	2
NMTAP	23	144	2
NMTAP	23	192	6
NMTAP	23	240	6
NMTAP	23	288	6
NMTAP	23	336	6
NMTAP	24	0	1
NMTAP	24	24	7
NMTAP	24	48	1
NMTAP	24	72	7
NMTAP	24	96	1
NMTAP	24	120	7
NMTAP	24	144	1
NMTAP	24	168	7
NMTAP	24	192	1
NMTAP	24	216	7
NMTAP	24	240	1
NMTAP	24	264	7
NMSTR	24	288	1
NMSCR	24	288	1	96	288	7
BXTAP	26	0	0
BXHLD	26	0	4	576
EXTAP	27	0	0
EXTAP	27	96	1
EXSTR	27	192	2
NMSI_	27	192	2	96	48	4
BXTAP	28	0	7
NMTAP	28	96	3
NMTAP	28	96	5
NMTAP	28	144	2
NMHLD	28	192	1	96
NMTAP	28	288	0
NMTAP	29	0	6
NMTAP	29	48	6
NMTAP	29	96	4
NMTAP	29	144	5
NMSTR	29	192	3
NMSI_	29	192	3	96	48	6
BXTAP	30	0	7
NMTAP	30	96	2
NMTAP	30	96	4
NMTAP	30	144	5
NMHLD	30	192	6	96
NMTAP	30	288	7
NMTAP	31	0	0
NMTAP	31	0	1
NMTAP	31	48	0
NMTAP	31	48	1
NMTAP	31	96	0
NMHLD	31	96	1	96
EXTAP	31	192	3
EXTAP	31	288	3
EXTAP	31	288	5
BXTAP	32	0	7
NMTAP	32	96	2
NMTAP	32	96	4
NMTAP	32	144	5
NMHLD	32	192	6	96
NMTAP	32	288	7
NMTAP	33	0	1
NMTAP	33	48	1
NMTAP	33	96	3
NMTAP	33	144	2
NMSTR	33	192	4
NMSI_	33	192	4	96	48	1
BRSTR	34	0	0
BRSSL	34	0	0	96	192	4
NMTAP	35	0	5
NMTAP	35	48	4
NMSTR	35	96	3
NMSCL	35	96	3	96	96	0
NMHLD	35	192	6	192
EXTAP	36	0	7
NMTAP	36	96	2
EXTAP	36	96	4
NMTAP	36	192	0
EXTAP	36	192	1
NMTAP	36	288	3
EXTAP	36	288	5
NMTAP	37	0	6
EXTAP	37	0	7
NMTAP	37	96	2
EXTAP	37	96	3
NMTAP	37	192	0
EXTAP	37	192	1
NMTAP	37	288	4
EXTAP	37	288	6
EXTAP	37	336	4
NMTAP	37	336	6
NMTAP	38	0	4
EXTAP	38	0	6
EXTAP	38	96	2
NMTAP	38	96	3
EXTAP	38	192	0
NMTAP	38	192	1
EXTAP	38	288	6
NMTAP	38	288	7
NMTAP	38	336	6
EXTAP	38	336	7
EXTAP	39	0	6
NMTAP	39	0	7
EXTAP	39	96	0
EXTAP	39	96	5
EXTAP	39	192	2
EXTAP	39	216	3
EXTAP	39	264	3
BXTAP	39	288	2
NMHLD	40	0	1	48
NMHLD	40	0	4	48
NMHLD	40	96	2	48
NMHLD	40	96	3	48
NMHLD	40	192	3	48
NMHLD	40	192	6	48
NMHLD	40	288	4	48
NMHLD	40	288	5	48
NMHLD	41	0	2	48
NMHLD	41	0	3	48
NMHLD	41	96	0	48
NMHLD	41	96	1	48
NMHLD	41	192	4	48
NMHLD	41	192	5	48
NMHLD	41	288	6	48
NMHLD	41	288	7	48
BRTAP	42	0	0
BRTAP	42	0	5
BRTAP	42	96	1
BRTAP	42	96	7
BRTAP	42	144	1
BRTAP	42	144	7
BRSTR	42	192	1
BRSI_	42	192	1	96	48	5
BRTAP	42	192	7
EXTAP	43	0	7
NMTAP	43	96	0
NMTAP	43	96	6
NMHLD	43	192	1	96
NMSTR	43	192	5
NMSI_	43	192	5	96	48	3
NMTAP	44	0	1
NMHLD	44	96	0	144
NMTAP	44	96	1
NMTAP	44	240	2
NMTAP	44	288	2
NMTAP	45	0	7
NMTAP	45	96	0
NMHLD	45	96	6	192
NMTAP	45	240	7
NMTAP	45	288	7
NMTAP	46	0	0
NMTAP	46	0	5
NMTAP	46	96	0
NMSTR	46	96	5
NMSCL	46	96	5	96	96	2
NMTAP	46	240	1
NMTAP	46	288	1
NMTAP	47	0	2
NMTAP	47	96	0
NMHLD	47	96	1	144
NMTAP	47	240	0
NMTAP	47	288	1
NMTAP	47	288	7
NMTAP	48	0	5
NMHLD	48	96	6	144
NMTAP	48	96	7
NMTAP	48	240	0
NMTAP	48	288	1
NMTAP	48	288	7
NMTAP	49	0	2
NMTAP	49	96	0
NMHLD	49	96	1	144
NMTAP	49	240	7
NMTAP	49	288	0
NMTAP	49	288	6
NMSTR	50	0	4
NMSCR	50	0	4	96	96	7
NMSTR	50	192	1
NMSCR	50	192	1	96	96	4
BRTAP	51	0	6
NMTAP	51	96	7
NMTAP	51	192	0
NMTAP	51	288	1
NMHLD	52	0	2	1344
NMTTP	52	192	2	B	0	M1
NMTTP	52	192	3	B	0	M1
NMTTP	53	0	0	B	0	M1
NMTTP	53	0	1	B	0	M1
NMTTP	53	192	0	E	0	M1
NMTTP	53	288	0	C	0	M1
NMTTP	54	0	4	E	0	M1
NMTTP	54	192	2	B	0	M1
NMTTP	54	192	3	B	0	M1
NMTHO	55	0	0	192	C	0	M1
NMHLD	56	0	0	96
NMHLD	56	96	1	96
NMHLD	56	192	2	96
NMHLD	56	288	3	96
NMHLD	57	0	4	96
NMHLD	57	96	5	96
NMHLD	57	192	6	96
NMHLD	57	288	7	96
NMTAP	58	0	6
NMTAP	58	48	5
NMTAP	58	96	4
NMTAP	58	144	3
NMTAP	58	192	2
NMTAP	58	240	1
NMSTR	58	288	0
NMSI_	58	288	0	96	48	4
BRHLD	59	0	7	384
NMTTP	60	0	3	B	0	M1
NMTTP	60	0	4	B	0	M1
NMTTP	60	0	4	E	1	M1
BRTAP	61	0	0
BRTAP	61	0	7
BRTAP	61	96	0
BRTAP	61	96	7
BRTAP	61	192	3
BRTAP	61	192	4
BRSTR	61	288	1
NMSI_	61	288	1	96	48	3
BRTAP	61	288	6
NMSTR	62	0	0
NMSI_	62	0	0	96	48	4
NMSTR	62	96	1
NMSI_	62	96	1	96	48	5
NMSTR	62	192	0
NMSI_	62	192	0	96	48	6
NMSTR	62	288	1
NMSI_	62	288	1	96	48	3
NMSTR	63	0	0
NMSI_	63	0	0	96	48	4
NMSTR	63	96	1
NMSI_	63	96	1	96	48	5
NMTAP	63	192	0
NMTAP	63	288	7
NMTAP	63	336	7
NMTAP	64	0	0
BRSTR	64	0	6
NMSI_	64	0	6	96	48	4
NMSTR	64	96	7
NMSI_	64	96	7	96	48	3
NMSTR	64	192	6
NMSI_	64	192	6	96	48	2
NMSTR	64	288	7
NMSI_	64	288	7	96	48	1
NMSTR	65	0	6
NMSI_	65	0	6	96	48	4
NMSTR	65	96	7
NMSI_	65	96	7	96	48	3
NMTAP	65	192	6
BRTAP	65	288	2
BRTAP	65	288	4
BRSTR	66	0	1
NMSI_	66	0	1	96	48	4
BRSTR	66	96	7
NMSI_	66	96	7	96	48	2
BRTAP	66	192	3
BXTAP	66	288	1
BRTAP	66	288	7
BRTAP	66	336	1
BXTAP	66	336	7
BXTAP	67	0	2
BRSTR	67	0	6
NMSI_	67	0	6	96	48	3
BRSTR	67	96	0
NMSI_	67	96	0	96	48	5
BRTAP	67	192	7
BXTAP	67	288	6
BRTAP	67	288	7
BRTAP	67	336	6
BXTAP	67	336	7
BXTAP	68	0	6
BRTAP	68	0	7
NMTAP	68	96	1
NMTAP	68	96	6
NMTAP	68	144	1
NMTAP	68	144	6
EXTAP	68	192	0
EXTAP	68	216	7
EXTAP	68	264	7
EXTAP	68	288	0
EXTAP	68	336	0
BRTAP	69	0	0
BRTAP	69	96	1
BRHLD	69	192	2	96
NMSTR	69	192	4
BRSCR	69	192	4	96	48	7
NMTAP	70	0	0
BXTAP	70	0	1
NMTAP	70	96	2
BXTAP	70	96	4
BXTAP	70	192	5
NMTAP	70	192	6
BXTAP	70	288	0
NMTAP	70	288	1
NMTAP	71	0	4
BXTAP	71	0	6
BXTAP	71	96	2
NMTAP	71	96	3
BXTAP	71	192	0
NMTAP	71	192	1
BXTAP	71	288	6
NMTAP	71	288	7
NMTAP	71	336	6
BXTAP	71	336	7
BXSTR	72	0	6
NMSI_	72	0	6	96	48	3
NMTAP	72	0	7
BRSTR	72	96	2
NMSI_	72	96	2	96	48	7
BRSTR	72	192	5
NMSI_	72	192	5	96	48	0
BRSTR	72	288	1
NMSI_	72	288	1	96	48	4
BXTAP	73	0	7
BXTAP	73	96	7
BXHLD	73	192	3	72
NMHLD	73	192	6	72
EXTAP	73	288	3
BXTAP	73	288	6
BXTAP	74	0	4
NMTAP	74	0	5
BXTAP	74	96	1
NMTAP	74	96	2
BXTAP	74	192	5
NMTAP	74	192	7
NMTAP	74	288	1
BXTAP	74	288	2
NMTAP	75	0	4
BXTAP	75	0	6
BXTAP	75	96	2
NMTAP	75	96	3
NMTAP	75	192	6
BXTAP	75	192	7
NMTAP	75	288	0
BXTAP	75	288	1
BXTAP	75	336	0
NMTAP	75	336	1
NMTAP	76	0	0
BXSTR	76	0	1
NMSI_	76	0	1	96	48	4
BRSTR	76	96	7
NMSI_	76	96	7	96	48	2
BRSTR	76	192	3
NMSI_	76	192	3	96	48	6
BRSTR	76	288	5
NMSI_	76	288	5	96	48	0
BRTAP	77	0	1
NMTAP	77	96	2
BXTAP	77	96	7
EXTAP	77	192	1
EXTAP	77	216	0
EXTAP	77	264	0
EXSTR	77	288	2
NMSCR	77	288	2	96	288	0
NMTTP	78	0	0	C	1	M1
NMHLD	79	0	7	192
NMTAP	79	192	0
NMTAP	79	240	1
NMTAP	79	240	6
BRTAP	79	288	2
BRTAP	79	288	5
BXTAP	80	0	1
NMTAP	80	24	0
NMTAP	80	48	1
EXTAP	80	96	2
BXTAP	80	96	7
BXTAP	80	192	6
NMTAP	80	216	7
NMTAP	80	240	6
BXTAP	80	288	0
EXTAP	80	288	5
BXTAP	81	0	2
NMTAP	81	24	3
NMTAP	81	48	2
BXTAP	81	96	5
NMTAP	81	120	4
NMTAP	81	144	5
BXTAP	81	192	2
NMTAP	81	216	3
NMTAP	81	240	2
NMTAP	81	288	1
BXTAP	81	288	4
BRTAP	82	0	1
NMTAP	82	24	0
NMTAP	82	48	1
NMTAP	82	96	2
BRTAP	82	96	7
NMTAP	82	144	3
NMTAP	82	144	6
BRTAP	82	192	5
NMTAP	82	216	4
NMTAP	82	240	5
NMTAP	82	264	4
BRTAP	82	288	5
BRTAP	83	0	6
NMTAP	83	24	7
NMTAP	83	48	6
BRTAP	83	96	0
BRTAP	83	96	5
NMTAP	83	144	1
NMTAP	83	144	4
BRTAP	83	192	2
NMTAP	83	216	3
NMTAP	83	240	2
NMTAP	83	264	3
BRTAP	83	288	2
NMTAP	84	0	5
NMTAP	84	48	5
NMTAP	84	96	1
NMTAP	84	144	1
NMTAP	84	192	7
NMTAP	84	216	0
NMTAP	84	240	7
NMTAP	84	264	0
NMTAP	84	288	6
NMTAP	84	312	1
NMTAP	84	336	6
NMTAP	84	360	1
BRSTR	85	0	5
NMSI_	85	0	5	96	48	0
BRSTR	85	96	4
NMSI_	85	96	4	96	48	1
BRSTR	85	192	6
NMSCL	85	192	6	96	48	3
BRSTR	85	288	2
BRSF_	85	288	2	96	48	6

T_REC_TAP	210
T_REC_BRK	38
T_REC_XTP	38
T_REC_BXX	41
T_REC_HLD	47
T_REC_XHO	0
T_REC_BHO	2
T_REC_BXH	4
T_REC_STR	26
T_REC_BST	18
T_REC_XST	2
T_REC_XBS	3
T_REC_TTP	35
T_REC_THO	2
T_REC_SLD	45
T_REC_BSL	4
T_REC_ALL	515
T_NUM_TAP	311
T_NUM_BRK	110
T_NUM_HLD	49
T_NUM_SLD	45
T_NUM_ALL	515
T_JUDGE_TAP	411
T_JUDGE_HLD	208
T_JUDGE_SLD	49
T_JUDGE_ALL	668
TTM_EACHPAIRS	111
TTM_SCR_TAP	155500
TTM_SCR_BRK	286000
TTM_SCR_HLD	49000
TTM_SCR_SLD	67500
TTM_SCR_ALL	558000
TTM_SCR_S	530600
TTM_SCR_SS	547000
TTM_RAT_ACV	10201

