VERSION	0.00.00	1.04.00
FES_MODE	0
BPM_DEF	190.000	190.000	190.000	190.000
MET_DEF	4	4
RESOLUTION	384
CLK_DEF	384
COMPATIBLE_CODE	MA2

BPM	0	0	190.000
MET	0	0	4	4

NMSTR	1	0	0
NMSCR	1	0	0	96	480	3
NMSTR	2	0	7
NMSCL	2	0	7	96	480	4
NMTAP	3	0	3
NMHLD	3	192	3	192
NMTAP	4	192	2
NMTAP	4	192	5
NMSTR	5	0	7
NMSCL	5	0	7	96	480	4
NMSTR	6	0	0
NMSCR	6	0	0	96	480	3
NMTAP	7	0	4
NMTAP	7	192	5
NMHLD	8	0	4	192
NMHLD	8	0	5	192
NMTAP	8	288	3
NMTAP	8	288	6
NMTAP	9	0	4
NMHLD	9	0	5	336
NMTAP	9	96	2
NMTAP	9	192	0
NMTAP	9	288	6
NMHLD	9	336	6	384
NMTAP	10	96	3
NMTAP	10	192	1
NMTAP	10	288	7
NMHLD	10	336	7	384
NMTAP	11	96	4
NMTAP	11	192	2
NMTAP	11	288	0
NMTAP	11	336	0
NMTTP	12	48	2	E	0	M1
NMTTP	12	96	6	E	0	M1
NMTTP	12	144	0	C	0	M1
EXTAP	12	192	1
EXTAP	12	192	6
NMTTP	12	240	5	E	0	M1
NMTTP	12	288	3	E	0	M1
NMTTP	12	336	4	E	0	M1
EXHLD	13	0	2	336
EXTAP	13	0	3
NMTAP	13	96	5
NMTAP	13	192	7
NMTAP	13	288	1
NMHLD	13	336	1	384
NMTAP	14	96	4
NMTAP	14	192	6
NMTAP	14	288	0
NMHLD	14	336	0	384
NMTAP	15	96	3
NMTAP	15	192	5
NMTAP	15	288	7
NMTAP	15	336	7
NMTTP	16	48	6	B	0	M1
NMTTP	16	48	7	E	0	M1
NMTTP	16	96	2	B	0	M1
NMTTP	16	96	3	E	0	M1
NMTTP	16	144	4	B	0	M1
NMTTP	16	144	5	E	0	M1
NMTTP	16	192	0	B	0	M1
NMTTP	16	192	1	E	0	M1
NMTTP	16	240	6	E	0	M1
NMTTP	16	288	2	E	0	M1
NMTTP	16	336	0	C	0	M1
BRSTR	17	0	2
NMSCR	17	0	2	96	480	5
BRSTR	17	0	5
NMSCR	17	0	5	96	480	0
CNSLR	18	192	0	0	384	4
CNSLR	18	192	5	0	384	1
CNSLR	19	192	1	0	96	5
CNSLR	19	192	4	0	384	0
NMHLD	21	0	1	96
NMTAP	21	48	3
NMTAP	21	96	4
NMHLD	21	144	1	96
NMTAP	21	192	3
NMTAP	21	240	4
NMHLD	21	288	2	96
NMTAP	21	336	4
NMTAP	22	0	5
NMHLD	22	48	2	96
NMTAP	22	96	4
NMTAP	22	144	5
NMHLD	22	192	3	96
NMTAP	22	240	5
NMTAP	22	288	6
NMTAP	22	336	7
NMHLD	23	0	0	96
NMTAP	23	48	1
NMTAP	23	96	1
NMHLD	23	144	2	96
NMTAP	23	192	7
NMTAP	23	240	7
NMHLD	23	288	6	96
NMTAP	23	336	3
NMTAP	24	0	3
NMHLD	24	48	4	96
NMTAP	24	96	5
NMTAP	24	144	5
NMTAP	24	192	3
NMTAP	24	192	6
NMTAP	24	240	2
NMSTR	24	288	1
NMSI_	24	288	1	96	48	5
NMTAP	24	288	7
BRTAP	25	0	1
BRTAP	25	0	3
NMTAP	25	96	4
NMHLD	25	192	5	96
NMHLD	25	240	4	48
NMHLD	25	336	3	96
NMHLD	26	0	4	48
NMHLD	26	96	6	96
NMHLD	26	144	5	48
NMHLD	26	240	2	96
NMHLD	26	288	3	48
NMTAP	27	0	4
NMTAP	27	48	3
NMTAP	27	96	1
NMTAP	27	144	2
NMHLD	27	192	3	96
NMHLD	27	240	2	48
NMHLD	27	336	1	96
NMHLD	28	0	2	48
NMHLD	28	96	4	96
NMHLD	28	144	3	48
NMTAP	28	240	0
NMTAP	28	288	1
NMTAP	28	336	2
NMHLD	29	0	3	144
NMTAP	29	0	4
NMTAP	29	48	5
NMHLD	29	96	6	192
NMTAP	29	192	5
NMHLD	29	240	5	192
NMTAP	29	336	7
NMHLD	30	0	7	192
NMTAP	30	96	0
NMHLD	30	144	0	144
NMTAP	30	240	6
NMTAP	30	288	6
NMTAP	31	0	3
NMHLD	31	0	4	144
NMTAP	31	48	2
NMHLD	31	96	1	192
NMTAP	31	192	2
NMHLD	31	240	2	192
NMTAP	31	336	0
NMHLD	32	0	0	192
NMTAP	32	96	7
NMHLD	32	144	7	192
NMTAP	32	240	1
NMTAP	32	288	2
NMTAP	32	336	3
NMTAP	33	0	4
NMTAP	33	0	6
NMSTR	33	96	6
NMSI_	33	96	6	96	36	4
NMTAP	33	168	7
NMTAP	33	192	6
NMSTR	33	240	1
NMSI_	33	240	1	96	36	3
NMTAP	33	312	0
NMTAP	33	336	1
NMTAP	34	0	5
NMSTR	34	96	7
NMSI_	34	96	7	96	36	5
NMTAP	34	168	0
NMTAP	34	192	7
NMSTR	34	240	3
NMSI_	34	240	3	96	36	1
NMTAP	34	312	4
NMTAP	34	336	3
NMTAP	35	0	6
NMSTR	35	96	5
NMSI_	35	96	5	96	36	3
NMTAP	35	168	6
NMTAP	35	192	5
NMSTR	35	240	1
NMSI_	35	240	1	96	36	7
NMTAP	35	312	2
NMTAP	35	336	1
NMTAP	36	0	5
NMTAP	36	48	6
NMTAP	36	72	7
NMTAP	36	96	6
NMTAP	36	144	1
NMTAP	36	168	0
NMTAP	36	192	1
NMTAP	36	240	2
NMTAP	36	240	3
NMTAP	36	288	4
NMTAP	36	288	5
NMTAP	36	336	1
NMTAP	36	336	6
NMTAP	37	0	0
NMTAP	37	0	7
NMTAP	37	48	0
NMTAP	37	96	0
NMTAP	37	96	1
NMTAP	37	144	1
NMTAP	37	192	1
NMTAP	37	192	2
NMTAP	37	240	2
NMTAP	37	288	2
NMTAP	37	288	3
NMTAP	37	336	3
NMTAP	38	0	3
NMTAP	38	0	4
NMTAP	38	48	4
NMTAP	38	96	4
NMTAP	38	96	5
NMTAP	38	144	5
NMTAP	38	192	5
NMTAP	38	192	6
NMTAP	38	240	6
NMTAP	38	288	6
NMTAP	38	288	7
NMTAP	38	336	7
NMTAP	39	0	0
NMTAP	39	0	7
NMTAP	39	48	1
NMTAP	39	72	3
NMTAP	39	96	2
NMTAP	39	120	4
NMTAP	39	144	1
NMTAP	39	168	5
NMTAP	39	192	2
NMTAP	39	216	6
NMTAP	39	240	3
NMTAP	39	264	7
NMSTR	39	288	4
BRSUL	39	288	4	96	144	7
NMSTR	39	312	0
NMSUL	39	312	0	96	120	3
NMTAP	39	336	5
NMTAP	39	360	1
CNSCR	40	144	3	0	96	6
CNSCR	40	144	7	0	96	2
NMSTR	41	0	1
NMSI_	41	0	1	96	48	4
NMSTR	41	0	5
NMSI_	41	0	5	96	48	0
BRTAP	41	96	1
BRTAP	41	96	5
NMTAP	41	192	3
NMTAP	41	192	7
NMTAP	41	216	6
NMTAP	41	240	5
NMTAP	41	264	3
NMTAP	41	288	2
NMTAP	41	312	1
NMTAP	41	336	5
NMTAP	41	360	4
NMTAP	42	0	3
NMTAP	42	24	1
NMTAP	42	48	0
NMTAP	42	72	7
NMHLD	42	96	2	24
NMHLD	42	96	6	24
NMHLD	42	144	3	24
NMHLD	42	144	7	24
NMTAP	42	192	0
NMTAP	42	192	4
NMTAP	42	216	5
NMTAP	42	240	6
NMTAP	42	264	0
NMTAP	42	288	1
NMTAP	42	312	2
NMTAP	42	336	6
NMTAP	42	360	7
NMTAP	43	0	0
NMTAP	43	24	2
NMTAP	43	48	3
NMTAP	43	72	4
NMHLD	43	96	1	24
NMHLD	43	96	5	24
NMHLD	43	144	0	24
NMHLD	43	144	4	24
NMTAP	43	192	7
NMHLD	43	216	7	48
NMTAP	43	264	5
NMHLD	43	288	5	48
NMTAP	43	336	3
NMHLD	43	360	3	48
NMTAP	44	24	1
NMHLD	44	48	1	48
NMSTR	44	96	0
NMSI_	44	96	0	96	48	5
NMTAP	44	144	1
NMTAP	44	144	7
CNSI_	44	240	5	0	48	7
CNSI_	44	288	7	0	48	3
NMTTP	45	0	3	B	0	M1
NMTTP	45	0	3	E	0	M1
NMTTP	45	0	4	B	0	M1
NMTTP	45	0	5	E	0	M1
NMTTP	45	5	2	B	0	M1
NMTTP	45	6	5	B	0	M1
NMTTP	45	11	1	B	0	M1
NMTTP	45	12	6	B	0	M1
NMTTP	45	17	1	E	0	M1
NMTTP	45	18	7	E	0	M1
BXTAP	45	24	0
BXSTR	45	24	7
NMSCL	45	24	7	96	648	1
NMHLD	45	192	0	96
NMHLD	45	336	0	96
NMHLD	46	96	0	96
NMHLD	46	240	0	96
CNSCR	47	0	1	0	576	6
NMTAP	47	0	7
NMTAP	47	96	7
NMHLD	47	192	0	96
NMHLD	47	336	1	96
NMHLD	48	96	2	96
NMTAP	48	240	3
NMTAP	48	240	5
NMTTP	48	288	5	E	0	M1
NMTTP	48	300	4	E	0	M1
NMTTP	48	312	3	E	0	M1
NMTTP	48	324	2	E	0	M1
NMTTP	48	336	1	E	0	M1
NMTTP	48	348	0	E	0	M1
NMTTP	48	360	7	E	0	M1
NMTTP	48	372	6	E	0	M1
BXSTR	49	0	1
NMSI_	49	0	1	96	48	3
NMTTP	49	0	5	E	0	M1
NMSTR	49	96	5
NMSI_	49	96	5	96	48	7
NMTAP	49	144	5
NMSTR	49	192	0
NMSI_	49	192	0	96	48	6
NMTAP	49	240	0
CNSI_	49	240	7	0	48	4
NMSTR	49	336	3
NMSI_	49	336	3	96	48	7
CNSI_	49	336	6	0	48	1
NMTAP	50	0	3
NMSTR	50	96	0
NMSI_	50	96	0	96	48	2
NMTAP	50	144	0
NMSTR	50	192	6
NMSI_	50	192	6	96	48	4
CNSI_	50	240	2	0	48	7
NMTAP	50	240	6
CNSI_	50	288	7	0	48	3
NMSTR	51	0	1
NMSI_	51	0	1	96	48	7
NMTAP	51	0	6
NMSTR	51	96	5
NMSI_	51	96	5	96	48	3
NMTAP	51	144	5
NMSTR	51	192	0
NMSI_	51	192	0	96	48	2
NMTAP	51	240	0
CNSI_	51	240	3	0	48	6
CNSI_	51	336	2	0	48	7
NMTAP	51	336	4
NMTAP	52	0	4
CNSI_	52	0	7	0	48	3
NMTAP	52	96	5
NMTAP	52	112	6
NMTAP	52	128	7
NMTAP	52	144	3
NMTAP	52	160	2
NMTAP	52	176	1
NMSTR	52	192	0
NMSI_	52	192	0	96	36	3
NMSTR	52	192	7
NMSI_	52	192	7	96	36	4
BRTAP	52	288	0
BRTAP	52	288	7
NMTAP	53	0	1
NMSTR	53	0	6
NMSI_	53	0	6	96	48	4
NMSTR	53	96	2
NMSI_	53	96	2	96	48	0
NMTAP	53	144	2
NMSTR	53	192	7
NMSI_	53	192	7	96	48	1
CNSI_	53	240	0	0	48	3
NMTAP	53	240	7
CNSI_	53	336	1	0	48	6
NMSTR	53	336	4
NMSI_	53	336	4	96	48	0
NMTAP	54	0	4
NMSTR	54	96	7
NMSI_	54	96	7	96	48	5
NMTAP	54	144	7
NMSTR	54	192	1
NMSI_	54	192	1	96	48	3
NMTAP	54	240	1
CNSI_	54	240	5	0	48	0
CNSI_	54	288	0	0	48	4
BRSTR	55	0	0
NMSI_	55	0	0	96	48	2
BRSTR	55	0	7
NMSI_	55	0	7	96	48	5
NMTAP	55	96	0
NMTAP	55	96	7
NMTAP	55	192	3
NMTAP	55	192	4
NMSTR	55	240	3
NMSSR	55	240	3	96	96	7
NMSTR	55	240	4
NMSSL	55	240	4	96	96	0
NMTAP	55	288	2
NMTAP	55	288	5
BRTAP	55	336	3
BRTAP	55	336	4
CNSCL	56	48	0	0	48	7
CNSCR	56	48	7	0	48	0
CNSSL	56	96	0	0	96	4
CNSSR	56	96	7	0	96	3
NMTTP	56	192	3	A	0	M1
NMTTP	56	192	4	A	0	M1
NMTTP	56	192	4	D	1	M1
NMSTR	57	0	6
NMSI_	57	0	6	96	48	0
NMTAP	57	48	4
NMTAP	57	96	4
NMTAP	57	144	4
NMSTR	57	192	2
NMSI_	57	192	2	96	48	0
NMTAP	57	240	4
NMTAP	57	288	4
NMTAP	57	336	4
NMSTR	58	0	6
NMSCR	58	0	6	96	48	0
NMTAP	58	48	4
NMTAP	58	96	4
NMTAP	58	144	4
NMSTR	58	192	2
NMSCL	58	192	2	96	48	0
NMTAP	58	240	4
NMTAP	58	288	4
NMTAP	58	336	4
NMHLD	59	0	6	88
NMTAP	59	48	4
NMTAP	59	96	4
NMTTP	59	96	7	D	0	M1
NMTTP	59	104	7	A	0	M1
NMTTP	59	112	0	D	0	M1
NMTTP	59	120	0	A	0	M1
NMTAP	59	144	4
NMHLD	59	192	2	88
NMTAP	59	240	4
NMTTP	59	288	2	D	0	M1
NMTAP	59	288	4
NMTTP	59	296	1	A	0	M1
NMTTP	59	304	1	D	0	M1
NMTTP	59	312	0	A	0	M1
NMTAP	59	336	4
NMHLD	60	0	6	48
NMHLD	60	48	5	48
NMHLD	60	96	4	48
NMHLD	60	144	3	48
NMHLD	60	192	2	48
NMHLD	60	240	1	48
NMSTR	60	288	0
NMSUL	60	288	0	96	120	3
NMSTR	60	336	7
NMSCL	60	336	7	96	72	3
EXTAP	61	192	2
EXTAP	61	192	6
NMSTR	61	240	4
NMSCR	61	240	4	96	48	7
NMTAP	61	288	4
NMTAP	61	336	4
NMTAP	62	0	2
NMSTR	62	48	4
NMSCL	62	48	4	96	48	1
NMTAP	62	96	4
NMTAP	62	144	4
NMTAP	62	192	6
NMSTR	62	240	4
NMSCR	62	240	4	96	264	2
NMTAP	62	288	4
NMHLD	62	336	4	480
CNSUR	63	216	2	0	216	3
NMTAP	64	240	3
NMTAP	64	240	5
NMTAP	64	288	1
NMTAP	64	288	4
NMTAP	64	336	3
NMTAP	64	336	6
BRTAP	65	0	2
BRTAP	65	0	7
NMTAP	65	48	0
NMHLD	65	72	1	48
NMTAP	65	120	7
NMTAP	65	168	6
NMTAP	65	192	6
NMTAP	65	240	5
NMTAP	65	264	4
NMTAP	65	288	5
NMTAP	65	312	4
NMTAP	65	336	5
NMTAP	66	0	2
NMTAP	66	0	3
NMTAP	66	48	1
NMTAP	66	72	3
NMTAP	66	96	2
NMTAP	66	120	4
NMTAP	66	144	3
NMTAP	66	168	5
NMHLD	66	192	4	48
NMTAP	66	240	6
NMTAP	66	264	3
NMTAP	66	288	7
NMTAP	66	312	2
NMTAP	66	336	0
NMTAP	66	360	1
NMTAP	67	0	7
NMTAP	67	24	2
NMTAP	67	48	7
NMHLD	67	72	2	48
NMTAP	67	120	3
NMTAP	67	168	4
NMTAP	67	192	4
NMTAP	67	240	6
NMTAP	67	264	7
NMTAP	67	288	6
NMTAP	67	312	7
NMTAP	67	336	5
NMTAP	68	0	3
NMTAP	68	24	4
NMTAP	68	48	3
NMTAP	68	72	4
NMTAP	68	96	2
NMTAP	68	120	1
NMTAP	68	144	0
NMTAP	68	168	7
NMTAP	68	192	3
NMTAP	68	216	2
NMTAP	68	240	1
NMTAP	68	264	0
NMTAP	68	288	4
NMTAP	68	312	3
NMTAP	68	336	2
NMTAP	68	360	1
BXTAP	69	0	0
BXTAP	69	0	5
NMTAP	69	48	7
NMHLD	69	72	6	48
NMTAP	69	120	0
NMTAP	69	168	1
NMTAP	69	192	1
NMTAP	69	240	2
NMTAP	69	264	3
NMTAP	69	288	2
NMTAP	69	312	3
NMTAP	69	336	2
NMTAP	70	0	4
NMTAP	70	0	5
NMTAP	70	48	6
NMTAP	70	72	4
NMTAP	70	96	5
NMTAP	70	120	3
NMTAP	70	144	4
NMTAP	70	168	2
NMHLD	70	192	3	48
NMTAP	70	240	1
NMTAP	70	264	4
NMTAP	70	288	0
NMTAP	70	312	5
NMTAP	70	336	7
NMTAP	70	360	6
NMTAP	71	0	0
NMTAP	71	24	5
NMTAP	71	48	0
NMHLD	71	72	5	48
NMTAP	71	120	4
NMTAP	71	168	3
NMTAP	71	192	3
NMTAP	71	240	1
NMTAP	71	264	0
NMTAP	71	288	1
NMTAP	71	312	0
NMTAP	71	336	2
NMTAP	72	0	4
NMTAP	72	24	3
NMTAP	72	48	4
NMTAP	72	72	3
NMTAP	72	96	4
NMTAP	72	120	5
NMTAP	72	144	6
NMTAP	72	168	7
NMTAP	72	192	0
NMTAP	72	192	4
NMTAP	72	216	3
NMTAP	72	240	2
NMTAP	72	264	1
NMTAP	72	288	0
NMTAP	72	288	4
NMTAP	72	312	5
NMTAP	72	336	6
NMTAP	72	360	7
BXSTR	73	0	0
NMSI_	73	0	0	96	48	5
BXSTR	73	0	4
NMSI_	73	0	4	96	48	1
NMTAP	73	240	1
NMTAP	73	252	0
NMHLD	73	288	2	48
NMHLD	73	336	3	48
NMSTR	74	0	2
NMSCR	74	0	2	96	96	5
NMSTR	74	96	5
NMSCR	74	96	5	96	96	0
NMSTR	74	192	0
NMSCR	74	192	0	96	96	3
NMSTR	74	288	3
NMSXR	74	288	3	96	192	4
NMHLD	75	0	5	192
NMTAP	75	240	6
NMTAP	75	252	7
NMHLD	75	288	5	48
NMHLD	75	336	4	48
NMSTR	76	0	5
NMSV_	76	0	5	96	96	0
NMSTR	76	96	0
NMSCL	76	96	0	96	144	4
NMSTR	76	192	1
NMSV_	76	192	1	96	48	4
EXTAP	77	0	1
NMSTR	77	0	3
BRSI_	77	0	3	96	48	6
NMTAP	77	48	4
NMTAP	77	96	3
NMTAP	77	96	5
NMSTR	77	192	4
BRSI_	77	192	4	96	48	1
EXTAP	77	192	6
NMTAP	77	240	3
NMTAP	77	288	2
NMTAP	77	288	4
EXTAP	78	0	1
NMSTR	78	0	3
BRSI_	78	0	3	96	48	7
NMTAP	78	48	2
NMTAP	78	48	4
NMTAP	78	96	3
NMTAP	78	96	5
NMSTR	78	192	4
BRSI_	78	192	4	96	48	0
EXTAP	78	192	6
NMTAP	78	240	3
NMTAP	78	240	5
NMTAP	78	288	2
NMTAP	78	288	4
EXTAP	79	0	1
NMSTR	79	0	3
BRSI_	79	0	3	96	48	0
NMTAP	79	48	2
NMTAP	79	48	4
BRTAP	79	96	3
NMTAP	79	96	5
NMTAP	79	144	6
NMSTR	79	192	4
BRSI_	79	192	4	96	48	7
EXTAP	79	192	6
NMTAP	79	240	3
NMTAP	79	240	5
NMTAP	79	288	2
BRTAP	79	288	4
NMTAP	79	336	1
EXTAP	80	0	1
EXTAP	80	0	6
NMTAP	80	48	2
NMTAP	80	64	3
NMTAP	80	80	4
NMTAP	80	96	5
NMTAP	80	112	6
NMTAP	80	128	7
NMTAP	80	144	0
NMTAP	80	160	1
NMTAP	80	176	2
NMSTR	80	192	3
NMSF_	80	192	3	96	48	7
EXTAP	80	288	3
NMTHO	81	0	0	768	C	1	M1
NMTTP	81	0	1	B	0	M1
NMTTP	81	0	2	B	0	M1
NMTTP	81	0	2	E	0	M1
NMTTP	81	0	4	B	0	M1
NMTTP	81	0	5	B	0	M1
NMTTP	81	0	5	E	0	M1
BXSTR	83	0	7
BRSXR	83	0	7	96	192	5
CNSXR	83	288	5	0	192	3
EXHLD	84	0	1	192
CNSXR	84	96	3	0	192	1
CNSXR	84	288	1	0	384	7
EXHLD	85	0	0	192
CNSXL	85	288	7	0	480	1
EXHLD	86	0	7	192
EXTAP	87	0	0
CNSXL	87	0	1	0	384	3
EXTAP	87	192	0
EXHLD	88	0	1	192
CNSXL	88	0	3	0	384	5
NMTHO	89	0	0	384	C	0	M1
NMTTP	89	0	3	B	0	M1
NMTTP	89	0	4	B	0	M1
CNSXL	89	0	5	0	384	7
BRTAP	90	192	0
BRTAP	90	192	7
NMSTR	91	0	1
NMSCR	91	0	1	96	384	5
NMTAP	91	0	6
NMTTP	91	192	0	E	0	M1
NMTTP	91	192	7	B	0	M1
NMTTP	91	192	7	A	0	M1
NMSTR	92	0	5
NMSUL	92	0	5	96	384	7
NMTTP	92	192	6	B	0	M1
NMTTP	92	192	6	A	0	M1
NMTTP	92	192	7	E	0	M1
NMSTR	93	0	7
NMSCR	93	0	7	96	288	3
NMTTP	93	192	5	B	0	M1
NMTTP	93	192	5	A	0	M1
NMTTP	93	192	6	E	0	M1
NMTAP	94	0	4
NMTTP	94	48	3	E	0	M1
NMTTP	94	48	5	E	0	M1
NMTAP	94	144	2
NMTAP	94	144	5
NMTTP	94	192	2	E	0	M1
NMTTP	94	192	6	E	0	M1
NMTAP	94	288	1
NMTAP	94	288	6
NMTAP	95	0	2
NMSTR	95	0	3
NMSCR	95	0	3	96	384	7
NMTTP	95	192	0	B	0	M1
NMTTP	95	192	0	E	0	M1
NMTTP	95	192	0	A	0	M1
NMSTR	96	0	7
NMSUR	96	0	7	96	288	4
EXTAP	96	96	0
EXTAP	96	192	1
EXTAP	96	288	2
EXTAP	97	0	3
NMTAP	97	96	2
NMTAP	97	128	3
NMTAP	97	160	1
NMTAP	97	192	5
NMTAP	97	224	4
NMTAP	97	256	6
NMTAP	97	288	1
NMTAP	97	320	0
NMTAP	97	352	2
NMTAP	98	0	3
NMTAP	98	0	7
NMTAP	98	32	6
NMTAP	98	64	5
NMTAP	98	96	4
NMTAP	98	128	3
NMTAP	98	160	2
NMTAP	98	192	1
NMTAP	98	192	5
NMTAP	98	224	4
NMTAP	98	256	3
NMTAP	98	288	2
NMTAP	98	320	1
NMTAP	98	352	0
BXSTR	99	0	5
NMSCR	99	0	5	96	192	1
BXTAP	99	0	7
NMTTP	99	96	3	E	0	M1
NMTTP	99	144	4	E	0	M1
NMTTP	99	192	5	E	0	M1
EXTAP	99	288	6
EXSTR	99	336	6
NMSCR	99	336	6	96	240	2
NMTTP	100	48	3	E	0	M1
NMTTP	100	96	4	E	0	M1
NMTTP	100	144	5	E	0	M1
NMTTP	100	192	6	E	0	M1
EXTAP	100	288	7
EXSTR	100	336	7
NMSCR	100	336	7	96	240	3
NMTTP	101	48	4	E	0	M1
NMTTP	101	96	5	E	0	M1
NMTTP	101	144	6	E	0	M1
NMTTP	101	192	7	E	0	M1
EXTAP	101	288	0
EXTAP	101	336	0
NMTTP	102	48	2	E	0	M1
NMTTP	102	96	6	E	0	M1
NMTTP	102	144	0	C	0	M1
BXTAP	102	192	1
BXTAP	102	192	6
NMTTP	102	240	5	E	0	M1
NMTTP	102	288	3	E	0	M1
NMTTP	102	336	4	E	0	M1
BXSTR	103	0	2
NMSCL	103	0	2	96	192	6
BXTAP	103	0	3
NMTTP	103	96	5	E	0	M1
NMTTP	103	144	4	E	0	M1
NMTTP	103	192	3	E	0	M1
EXTAP	103	288	1
EXSTR	103	336	1
NMSCL	103	336	1	96	240	5
NMTTP	104	48	5	E	0	M1
NMTTP	104	96	4	E	0	M1
NMTTP	104	144	3	E	0	M1
NMTTP	104	192	2	E	0	M1
EXTAP	104	288	0
EXSTR	104	336	0
NMSCL	104	336	0	96	240	4
NMTTP	105	48	4	E	0	M1
NMTTP	105	96	3	E	0	M1
NMTTP	105	144	2	E	0	M1
NMTTP	105	192	1	E	0	M1
EXTAP	105	288	7
EXTAP	105	336	7
NMTTP	106	48	6	E	0	M1
NMTTP	106	96	2	E	0	M1
NMTTP	106	144	0	C	0	M1
BXTAP	106	192	1
BXTAP	106	192	6
NMTTP	106	240	2	A	0	M1
NMTTP	106	240	3	E	0	M1
NMTTP	106	288	5	E	0	M1
NMTTP	106	288	5	A	0	M1
NMTTP	106	336	4	E	0	M1
NMTTP	106	336	4	D	0	M1
BXTAP	107	0	0
BXTAP	107	0	6
NMSTR	107	48	2
NMSI_	107	48	2	96	36	0
NMTAP	107	72	4
NMTAP	107	96	3
NMTAP	107	144	2
NMSTR	107	192	5
NMSI_	107	192	5	96	36	3
NMTAP	107	216	7
NMTAP	107	240	6
NMTAP	107	288	5
NMSTR	107	336	1
NMSI_	107	336	1	96	36	3
NMTAP	107	360	7
NMTAP	108	0	0
NMTAP	108	48	1
NMSTR	108	96	6
NMSI_	108	96	6	96	36	0
NMTAP	108	120	4
NMTAP	108	144	5
NMTAP	108	192	6
NMTAP	108	240	1
NMTAP	108	288	2
NMTAP	108	336	3
NMTAP	109	0	4
NMTAP	109	0	6
NMSTR	109	48	5
NMSI_	109	48	5	96	36	7
NMTAP	109	72	3
NMTAP	109	96	4
NMTAP	109	144	5
NMSTR	109	192	2
NMSI_	109	192	2	96	36	4
NMTAP	109	216	0
NMTAP	109	240	1
NMTAP	109	288	2
NMSTR	109	336	7
NMSI_	109	336	7	96	36	5
NMSTR	110	0	7
NMSI_	110	0	7	96	36	1
EXSTR	110	48	7
NMSI_	110	48	7	96	36	4
EXSTR	110	96	7
NMSI_	110	96	7	96	36	2
EXSTR	110	144	7
NMSI_	110	144	7	96	36	3
EXTAP	110	192	7
EXTAP	110	240	7
EXTAP	110	288	0
EXTAP	110	336	1
EXTAP	110	336	6
BRTAP	111	0	0
NMTAP	111	24	1
NMTAP	111	48	2
NMTAP	111	72	3
BRTAP	111	96	6
NMTAP	111	120	7
NMTAP	111	144	0
NMTAP	111	168	1
BRTAP	111	192	4
NMTAP	111	216	5
NMTAP	111	240	6
NMTAP	111	264	7
BRTAP	111	288	2
NMTAP	111	312	3
NMTAP	111	336	4
NMTAP	111	360	5
BRTAP	112	0	7
NMTAP	112	24	0
NMTAP	112	48	1
NMTAP	112	72	2
BRTAP	112	96	5
NMTAP	112	120	6
NMTAP	112	144	7
NMTAP	112	168	0
BRTAP	112	192	3
NMTAP	112	216	4
NMTAP	112	240	5
NMTAP	112	264	6
BRTAP	112	288	1
NMTAP	112	312	2
NMTAP	112	336	3
NMTAP	112	360	4
BRTAP	113	0	0
NMTAP	113	24	4
BRTAP	113	48	0
NMTAP	113	72	5
BRTAP	113	96	0
NMTAP	113	120	6
BRTAP	113	144	0
NMTAP	113	168	7
BRTAP	113	192	0
NMTAP	113	216	1
BRTAP	113	240	0
NMTAP	113	264	2
BRTAP	113	288	0
NMTAP	113	312	3
BRTAP	113	336	0
NMTAP	113	360	4
BRSTR	114	0	0
NMSV_	114	0	0	96	48	3
NMSV_	114	0	0	96	48	5
CNSI_	114	144	3	0	48	1
CNSI_	114	144	5	0	48	7
CNSI_	114	192	1	0	48	4
CNSI_	114	192	7	0	48	4
BRHLD	114	288	2	88
BRHLD	114	288	6	88
NMTTP	115	0	2	E	0	M1
NMTTP	115	0	6	E	0	M1
NMTTP	115	8	1	B	0	M1
NMTTP	115	8	5	B	0	M1
NMTTP	115	12	0	C	1	M1
NMTTP	115	16	0	B	0	M1
NMTTP	115	16	4	B	0	M1
NMTTP	115	24	0	E	0	M1
NMTTP	115	24	0	D	0	M1
NMTTP	115	24	4	E	0	M1
NMTTP	115	24	4	D	0	M1
NMHLD	119	0	2	672
NMHLD	119	0	4	96
NMHLD	119	144	5	96
NMHLD	119	288	6	96
NMHLD	120	48	7	96
NMTAP	120	192	0
NMHLD	120	288	0	860
NMHLD	121	0	3	96
NMHLD	121	144	4	96
NMHLD	121	288	5	96
NMHLD	122	48	6	96
NMTAP	122	192	7
NMHLD	122	288	7	92
NMTTP	123	0	1	D	0	M1
NMTTP	123	0	7	D	0	M1
NMTTP	123	4	1	A	0	M1
NMTTP	123	4	6	A	0	M1
NMTTP	123	8	2	D	0	M1
NMTTP	123	8	6	D	0	M1
NMTTP	123	12	2	A	0	M1
NMTTP	123	12	5	A	0	M1
NMTTP	123	16	3	D	0	M1
NMTTP	123	16	5	D	0	M1
NMTTP	123	20	3	A	0	M1
NMTTP	123	20	4	A	0	M1
NMTTP	123	24	4	D	1	M1

T_REC_TAP	460
T_REC_BRK	30
T_REC_XTP	33
T_REC_BXX	11
T_REC_HLD	91
T_REC_XHO	5
T_REC_BHO	2
T_REC_BXH	0
T_REC_STR	70
T_REC_BST	5
T_REC_XST	7
T_REC_XBS	7
T_REC_TTP	132
T_REC_THO	2
T_REC_SLD	82
T_REC_BSL	8
T_REC_ALL	945
T_NUM_TAP	702
T_NUM_BRK	63
T_NUM_HLD	98
T_NUM_SLD	82
T_NUM_ALL	945
T_JUDGE_TAP	755
T_JUDGE_HLD	288
T_JUDGE_SLD	90
T_JUDGE_ALL	1133
TTM_EACHPAIRS	90
TTM_SCR_TAP	351000
TTM_SCR_BRK	163800
TTM_SCR_HLD	98000
TTM_SCR_SLD	123000
TTM_SCR_ALL	735800
TTM_SCR_S	707650
TTM_SCR_SS	729500
TTM_RAT_ACV	10086

