VERSION	0.00.00	1.04.00
FES_MODE	0
BPM_DEF	190.000	190.000	190.000	190.000
MET_DEF	4	4
RESOLUTION	384
CLK_DEF	384
COMPATIBLE_CODE	MA2

BPM	0	0	190.000
MET	0	0	4	4

NMSTR	1	0	3
NMSI_	1	0	3	96	384	0
NMSTR	2	0	4
NMSI_	2	0	4	96	384	7
NMSTR	3	0	0
NMSI_	3	0	0	96	384	3
NMSTR	4	0	7
NMSI_	4	0	7	96	384	4
NMHLD	5	0	3	1536
NMTTP	6	0	4	E	0	M1
NMTTP	6	192	0	C	0	M1
NMTTP	7	0	0	E	0	M1
NMTTP	7	192	0	C	0	M1
NMTTP	8	0	4	E	0	M1
NMTTP	8	192	3	B	0	M1
NMTTP	8	192	4	B	0	M1
NMTHO	9	0	0	2688	C	0	M1
NMTTP	10	0	3	B	0	M1
NMTTP	10	0	3	E	0	M1
NMTTP	10	192	2	E	0	M1
NMTTP	11	0	0	B	0	M1
NMTTP	11	0	1	E	0	M1
NMTTP	12	0	6	B	0	M1
NMTTP	12	0	7	E	0	M1
NMTTP	12	192	0	E	0	M1
NMTTP	13	0	1	B	0	M1
NMTTP	13	0	1	E	0	M1
NMTTP	14	0	3	B	0	M1
NMTTP	14	0	3	E	0	M1
NMTTP	14	192	2	E	0	M1
NMTTP	14	192	2	D	0	M1
NMTTP	15	0	0	B	0	M1
NMTTP	15	0	1	E	0	M1
NMTTP	15	192	0	E	0	M1
NMTTP	15	192	0	D	0	M1
NMTTP	16	0	6	B	0	M1
NMTTP	16	0	7	E	0	M1
NMSTR	17	0	0
NMSXL	17	0	0	96	672	3
NMHLD	17	0	6	384
NMSTR	19	0	5
NMSXL	19	0	5	96	672	0
NMSTR	21	0	2
NMSXL	21	0	2	96	672	5
NMSTR	23	0	7
NMSSR	23	0	7	96	480	3
NMTAP	25	0	2
NMTAP	25	0	3
NMTAP	25	96	2
NMTAP	25	96	3
NMTAP	25	192	2
NMTAP	25	192	3
NMTAP	25	288	2
NMTAP	25	288	3
NMTAP	26	0	1
NMTAP	26	0	3
NMTAP	26	96	1
NMTAP	26	96	3
NMTAP	26	192	1
NMTAP	26	192	3
NMTAP	26	288	1
NMTAP	26	288	3
NMTAP	27	0	0
NMTAP	27	0	3
NMTAP	27	96	0
NMTAP	27	96	3
NMTAP	27	192	0
NMTAP	27	192	3
NMTAP	27	288	0
NMTAP	27	288	3
NMTAP	28	0	3
NMTAP	28	0	7
NMTAP	28	96	3
NMTAP	28	96	7
NMTAP	28	192	3
NMTAP	28	192	7
NMTAP	28	288	3
NMTAP	28	288	7
NMTAP	29	0	3
NMTAP	29	0	6
NMTAP	29	96	3
NMTAP	29	96	6
NMTAP	29	192	3
NMTAP	29	192	7
NMTAP	29	288	3
NMTAP	29	288	7
NMTAP	30	0	0
NMTAP	30	0	3
NMTAP	30	96	0
NMTAP	30	96	3
NMHLD	30	192	1	96
NMTAP	30	192	3
NMTAP	30	288	3
NMHLD	31	0	2	96
NMTAP	31	0	3
NMTAP	31	96	3
NMTAP	31	192	3
NMHLD	31	192	4	96
NMTAP	31	288	3
NMHLD	32	0	2	96
NMTAP	32	0	3
NMTAP	32	96	3
NMTAP	32	192	3
NMTAP	32	192	4
NMTAP	32	288	3
NMTAP	33	0	3
NMTTP	33	0	4	B	0	M1
NMTTP	33	0	5	E	0	M1
NMTAP	33	96	3
NMTAP	33	192	3
NMTTP	33	192	6	E	0	M1
NMTAP	33	288	3
NMTAP	34	0	3
NMTTP	34	0	7	B	0	M1
NMTTP	34	0	7	E	0	M1
NMTAP	34	96	3
NMTTP	34	192	0	C	0	M1
NMTAP	34	192	3
NMTAP	34	288	3
NMTTP	35	0	0	B	0	M1
NMTTP	35	0	1	E	0	M1
NMTAP	35	0	3
NMTAP	35	96	3
NMTTP	35	192	0	C	0	M1
NMTAP	35	192	3
NMTAP	35	288	3
NMTTP	36	0	1	B	0	M1
NMTTP	36	0	2	B	0	M1
NMTTP	36	0	2	E	0	M1
NMTAP	36	0	3
NMTAP	36	96	3
NMTTP	36	192	0	B	0	M1
NMTTP	36	192	0	E	0	M1
NMTAP	36	192	3
NMTTP	36	192	7	B	0	M1
NMTAP	36	288	3
NMTAP	37	0	3
NMTAP	37	0	6
NMTAP	37	48	5
NMTAP	37	96	3
NMTAP	37	96	4
NMTAP	37	192	3
NMTAP	37	192	4
NMTAP	37	288	3
NMTAP	37	288	4
NMTAP	38	0	2
NMTAP	38	0	3
NMTAP	38	96	1
NMTAP	38	96	3
NMTAP	38	192	0
NMTAP	38	192	3
NMTAP	38	288	0
NMTAP	38	288	3
NMTAP	39	0	1
NMHLD	39	0	3	336
NMTAP	39	48	1
NMTAP	39	96	1
NMTAP	39	144	1
NMTAP	39	192	1
NMTAP	39	240	1
NMTAP	39	288	1
NMSTR	39	336	1
NMSUR	39	336	1	96	240	3
NMSTR	41	0	4
BRSI_	41	0	4	96	48	7
NMHLD	41	192	0	72
NMHLD	41	264	6	72
NMHLD	41	336	0	72
NMHLD	42	24	6	72
NMTAP	42	96	7
NMTAP	42	144	7
NMTAP	42	192	0
NMTAP	42	192	6
NMHLD	42	264	1	72
NMHLD	42	336	7	72
NMHLD	43	24	1	72
NMTAP	43	96	0
NMTAP	43	144	0
NMTAP	43	192	1
NMTAP	43	192	7
NMHLD	43	264	6	72
EXTAP	43	336	0
EXTAP	44	48	1
EXTAP	44	48	5
NMTAP	44	96	1
NMTAP	44	96	5
NMTAP	44	144	1
NMTAP	44	144	5
BRTAP	44	192	1
BRTAP	44	192	5
NMSTR	44	288	2
BRSCL	44	288	2	96	768	4
NMTAP	44	288	4
NMTTP	45	0	0	C	1	M1
NMHLD	47	0	7	576
NMHLD	48	0	3	192
NMTAP	48	288	3
NMTAP	48	288	7
BRSTR	49	0	1
NMSI_	49	0	1	96	48	5
BRTAP	49	0	5
NMSTR	49	96	6
NMSI_	49	96	6	96	48	0
NMTAP	49	192	4
NMTAP	49	288	3
NMSTR	50	0	2
NMSI_	50	0	2	96	48	6
NMTAP	50	0	4
NMSTR	50	96	5
NMSI_	50	96	5	96	48	3
NMTAP	50	192	0
NMTAP	50	240	0
NMTAP	50	288	0
NMTAP	51	0	2
NMSTR	51	0	6
NMSI_	51	0	6	96	48	2
NMSTR	51	96	3
NMSI_	51	96	3	96	48	5
NMTAP	51	192	0
NMTAP	51	288	7
NMSTR	52	0	0
NMSI_	52	0	0	96	48	4
NMSTR	52	0	6
NMSI_	52	0	6	96	48	3
BRTAP	52	192	2
BRTAP	52	192	5
BRTAP	53	0	0
BRSTR	53	0	6
NMSI_	53	0	6	96	48	2
NMSTR	53	96	1
NMSI_	53	96	1	96	48	7
NMTAP	53	192	3
NMTAP	53	288	4
NMTAP	54	0	3
NMSTR	54	0	5
NMSI_	54	0	5	96	48	1
NMSTR	54	96	2
NMSI_	54	96	2	96	48	4
NMTAP	54	192	7
NMTAP	54	288	6
NMHLD	55	0	1	192
NMTAP	55	0	5
NMTAP	55	96	3
NMTAP	55	144	3
NMHLD	55	192	3	192
NMTAP	55	288	5
NMTAP	55	336	5
NMHLD	56	0	5	192
NMTAP	56	96	7
NMTAP	56	144	7
NMSTR	56	192	7
NMSI_	56	192	7	96	48	3
NMHLD	57	0	2	48
NMHLD	57	96	2	48
NMHLD	57	192	2	48
NMHLD	57	192	4	48
NMHLD	57	288	2	48
NMHLD	57	288	4	48
NMHLD	58	0	2	48
NMHLD	58	0	3	48
NMHLD	58	96	2	48
NMHLD	58	96	3	48
NMHLD	58	192	1	48
NMHLD	58	192	2	48
NMHLD	58	288	1	48
NMHLD	58	288	2	48
NMHLD	59	0	0	48
NMHLD	59	0	2	48
NMHLD	59	96	0	48
NMHLD	59	96	2	48
NMHLD	59	192	2	48
NMHLD	59	192	7	48
NMTAP	59	288	2
NMTAP	59	288	7
NMTAP	60	0	6
NMTAP	60	48	5
NMTAP	60	96	4
NMTAP	60	144	3
NMTAP	60	192	2
NMTAP	60	240	1
NMSTR	60	288	0
NMSI_	60	288	0	96	48	3
NMSI_	60	288	0	96	48	5
BXTAP	61	192	3
EXHLD	61	192	5	192
NMTAP	61	288	7
NMHLD	62	0	4	192
NMTAP	62	96	7
NMHLD	62	192	3	192
NMTAP	62	288	0
BRHLD	63	0	2	480
NMTAP	64	192	2
NMTAP	64	240	2
NMTAP	64	288	2
NMTAP	64	336	2
BRTAP	65	0	4
NMTAP	65	48	4
NMTAP	65	96	3
NMTAP	65	144	5
NMTAP	65	192	2
NMTAP	65	240	2
NMTAP	65	288	3
NMTAP	65	336	1
NMTAP	66	0	5
NMTAP	66	48	4
NMTAP	66	96	3
NMTAP	66	144	2
NMTAP	66	192	6
NMTAP	66	240	5
NMTAP	66	288	4
NMTAP	66	336	3
NMTAP	67	0	2
NMTAP	67	48	2
NMTAP	67	96	3
NMTAP	67	144	1
NMTAP	67	192	5
NMTAP	67	240	5
NMTAP	67	288	4
NMTAP	67	336	6
NMTAP	68	0	2
NMTAP	68	48	2
NMTAP	68	96	5
NMTAP	68	144	5
NMTAP	68	192	3
NMTAP	68	216	4
NMTAP	68	240	3
NMTAP	68	264	4
BRTAP	68	288	3
NMTAP	69	0	6
NMTAP	69	48	5
NMTAP	69	96	4
NMTAP	69	144	5
NMTAP	69	192	3
NMTAP	69	240	2
NMTAP	69	288	1
NMTAP	69	336	2
NMTAP	70	0	7
NMTAP	70	48	6
NMTAP	70	96	5
NMTAP	70	144	6
NMTAP	70	192	0
NMTAP	70	240	1
NMTAP	70	288	2
NMTAP	70	336	1
NMTAP	71	0	4
NMTAP	71	48	5
NMTAP	71	96	0
NMTAP	71	144	1
NMTAP	71	192	7
NMTAP	71	240	6
NMTAP	71	288	3
NMTAP	71	336	3
NMTAP	72	0	2
NMTAP	72	0	4
NMTAP	72	48	2
NMTAP	72	48	4
NMTAP	72	96	1
NMTAP	72	96	5
NMTAP	72	144	1
NMTAP	72	144	5
NMTAP	72	192	0
NMTAP	72	216	6
NMTAP	72	240	0
NMTAP	72	264	6
NMTAP	72	288	0
NMTAP	72	312	6
NMTAP	72	336	0
NMTAP	72	360	6
BXSTR	73	0	0
NMSV_	73	0	0	96	144	1
CNSLR	73	240	1	0	144	5
NMSTR	74	0	7
NMSV_	74	0	7	96	96	6
CNSLL	74	192	6	0	192	2
NMSTR	75	0	1
NMSV_	75	0	1	96	96	2
CNSLR	75	192	2	0	192	6
NMTAP	76	0	7
NMTAP	76	96	6
NMSTR	76	192	5
NMSI_	76	192	5	96	48	3
NMTAP	76	288	2
NMTAP	77	0	1
NMTAP	77	48	1
NMTAP	77	96	0
NMHLD	77	96	2	96
NMTAP	77	192	3
NMTAP	77	240	3
NMHLD	77	288	2	96
NMTAP	77	288	4
NMTAP	78	0	5
NMTAP	78	48	5
NMTAP	78	96	4
NMHLD	78	96	6	96
NMTAP	78	192	7
NMTAP	78	240	7
NMHLD	78	288	0	96
NMTAP	78	288	6
NMTAP	79	0	7
NMTAP	79	48	6
NMHLD	79	96	5	96
NMTAP	79	192	7
NMTAP	79	240	0
NMHLD	79	288	1	96
NMTAP	80	0	3
NMTAP	80	48	3
NMTAP	80	96	2
NMTAP	80	96	3
NMTAP	80	144	3
NMTAP	80	144	4
NMTAP	80	192	4
BRSTR	80	192	5
NMSI_	80	192	5	96	48	0
BRSTR	80	288	1
NMSI_	80	288	1	96	48	4
BRHLD	81	0	7	1152
NMTTP	83	0	0	C	1	M1
NMTTP	83	0	3	B	0	M1
NMTTP	83	0	4	B	0	M1
NMTTP	83	0	4	E	0	M1
NMHLD	84	0	0	192
NMHLD	84	192	1	192
NMHLD	85	0	2	192
NMTHO	85	192	0	576	C	0	M1
NMHLD	87	0	0	192
NMHLD	87	192	7	192
NMHLD	88	0	6	192
NMHLD	88	192	5	192
NMTHO	89	0	0	384	C	0	M1
NMTTP	90	0	0	B	0	M1
NMTTP	90	0	0	E	0	M1
NMTTP	90	0	7	B	0	M1
NMTTP	90	192	1	B	0	M1
NMTTP	90	192	2	B	0	M1
NMTTP	90	192	2	E	0	M1
NMTTP	90	192	5	B	0	M1
NMTTP	90	192	6	B	0	M1
NMTTP	90	192	6	E	0	M1
NMSTR	91	0	3
NMSCL	91	0	3	96	96	0
NMSTR	91	96	4
NMSCR	91	96	4	96	96	7
NMTAP	91	288	0
NMSTR	92	0	1
NMSCR	92	0	1	96	96	4
NMSTR	92	96	0
NMSCL	92	96	0	96	96	5
NMTAP	92	288	4
NMSTR	93	0	4
NMSCL	93	0	4	96	96	1
NMSTR	93	96	5
NMSCR	93	96	5	96	96	0
NMTAP	93	288	1
NMTAP	94	0	0
NMSTR	94	96	7
NMSCL	94	96	7	96	96	4
NMSCR	94	96	7	96	96	2
NMSTR	95	0	3
NMSUL	95	0	3	96	96	7
NMTAP	95	96	5
NMSTR	95	192	6
NMSUL	95	192	6	96	96	2
NMTAP	95	288	0
NMSTR	96	0	1
NMSUL	96	0	1	96	96	5
NMTAP	96	96	3
NMSTR	96	192	4
NMSUL	96	192	4	96	96	0
NMTAP	96	288	6
BRHLD	97	0	7	192
NMTAP	97	192	0
NMTAP	97	288	0
NMTAP	97	288	7
NMTAP	97	336	1
NMTAP	97	336	6
EXTAP	98	0	2
EXTAP	98	0	5
NMTAP	98	96	3
NMTAP	98	144	3
NMTAP	98	192	2
NMSTR	98	192	4
BRSI_	98	192	4	96	48	2
NMSTR	98	288	1
NMSCL	98	288	1	96	1152	4
NMTAP	102	0	3
NMTAP	102	192	3
NMHLD	103	0	3	96
NMHLD	103	0	4	96
NMHLD	103	192	4	96
NMHLD	103	192	5	96
NMHLD	104	0	5	96
NMHLD	104	0	6	96
NMHLD	104	192	6	96
NMHLD	104	192	7	96
NMHLD	105	0	0	96
NMHLD	105	0	7	96
NMHLD	105	192	0	96
NMHLD	105	192	1	96
NMHLD	106	0	1	96
NMHLD	106	0	2	96
NMHLD	106	192	2	96
NMHLD	106	192	3	96
NMTAP	107	0	1
NMTAP	107	48	1
NMTAP	107	96	3
NMTAP	107	144	3
NMTAP	107	192	5
NMTAP	107	240	5
NMTAP	107	288	3
NMTAP	107	336	3
NMTAP	108	0	1
NMTAP	108	48	1
NMTAP	108	96	7
NMTAP	108	144	7
NMTAP	108	192	5
NMTAP	108	240	5
NMTAP	108	288	7
NMTAP	108	336	7
NMTAP	109	0	1
NMTAP	109	48	1
NMTAP	109	96	3
NMTAP	109	144	3
NMTAP	109	192	5
NMTAP	109	240	5
NMTAP	109	288	7
NMTAP	109	336	7
NMTAP	110	0	0
NMTAP	110	48	0
NMTAP	110	96	2
NMTAP	110	144	2
NMTAP	110	192	4
NMTAP	110	240	4
NMTAP	110	288	6
NMTAP	110	336	6
NMTAP	111	0	4
NMTAP	111	48	2
NMTAP	111	96	4
NMTAP	111	144	6
NMTAP	111	192	4
NMTAP	111	240	2
NMTAP	111	288	4
NMTAP	111	336	6
NMTAP	112	0	0
NMTAP	112	48	2
NMTAP	112	96	0
NMTAP	112	144	6
NMTAP	112	192	0
NMTAP	112	240	2
NMTAP	112	288	0
NMTAP	112	336	6
NMTAP	113	0	0
NMTAP	113	24	7
NMTAP	113	48	0
NMTAP	113	72	7
NMTAP	113	96	0
NMTAP	113	120	7
NMTAP	113	144	0
NMTAP	113	168	7
NMTAP	113	192	1
NMTAP	113	216	6
NMTAP	113	240	1
NMTAP	113	264	6
NMTAP	113	288	1
NMTAP	113	312	6
NMTAP	113	336	1
NMTAP	113	360	6
NMHLD	114	0	2	192
NMSTR	114	192	3
NMSI_	114	192	3	96	48	0
BRSTR	114	288	1
BRSI_	114	288	1	96	48	6
NMHLD	115	0	7	2208
NMHLD	119	0	4	96
NMHLD	119	144	4	96
NMHLD	119	288	4	96
NMHLD	120	48	4	96
NMHLD	120	192	4	96
NMHLD	121	0	3	96
NMHLD	121	144	3	96
NMTAP	121	288	2
NMHLD	121	288	4	96
NMTAP	122	48	2
NMHLD	122	48	4	96
NMTAP	122	192	1
NMSTR	122	192	5
NMSI_	122	192	5	96	48	3
NMSTR	122	288	0
BRSI_	122	288	0	96	48	3
BRSI_	122	288	0	96	48	5

T_REC_TAP	328
T_REC_BRK	8
T_REC_XTP	5
T_REC_BXX	1
T_REC_HLD	82
T_REC_XHO	1
T_REC_BHO	3
T_REC_BXH	0
T_REC_STR	42
T_REC_BST	5
T_REC_XST	0
T_REC_XBS	1
T_REC_TTP	56
T_REC_THO	3
T_REC_SLD	45
T_REC_BSL	6
T_REC_ALL	586
T_NUM_TAP	431
T_NUM_BRK	24
T_NUM_HLD	86
T_NUM_SLD	45
T_NUM_ALL	586
T_JUDGE_TAP	446
T_JUDGE_HLD	385
T_JUDGE_SLD	51
T_JUDGE_ALL	882
TTM_EACHPAIRS	90
TTM_SCR_TAP	215500
TTM_SCR_BRK	62400
TTM_SCR_HLD	86000
TTM_SCR_SLD	67500
TTM_SCR_ALL	431400
TTM_SCR_S	416150
TTM_SCR_SS	429000
TTM_RAT_ACV	10055

