VERSION	0.00.00	1.04.00
FES_MODE	0
BPM_DEF	190.000	190.000	190.000	190.000
MET_DEF	4	4
RESOLUTION	384
CLK_DEF	384
COMPATIBLE_CODE	MA2

BPM	0	0	190.000
MET	0	0	4	4

NMSTR	9	0	1
NMSI_	9	0	1	96	288	4
NMSTR	11	0	6
NMSI_	11	0	6	96	288	3
NMSTR	13	0	1
NMSCR	13	0	1	96	288	4
NMSTR	15	0	6
NMSCL	15	0	6	96	288	3
NMTAP	17	0	1
NMTAP	17	96	1
NMTAP	17	192	1
NMTAP	18	0	2
NMTAP	18	96	2
NMTAP	18	192	2
NMTAP	19	0	3
NMTAP	19	96	3
NMTAP	19	192	3
NMTAP	20	0	4
NMTAP	20	0	5
NMTAP	20	192	4
NMTAP	20	192	5
NMTAP	21	0	6
NMTAP	21	96	6
NMTAP	21	192	6
NMTAP	22	0	5
NMTAP	22	96	5
NMTAP	22	192	5
NMTAP	23	0	4
NMTAP	23	96	4
NMTAP	23	192	4
NMTAP	24	0	2
NMTAP	24	0	3
NMTAP	24	192	2
NMTAP	24	192	3
NMTAP	25	0	1
NMTAP	25	96	1
NMTAP	25	192	0
NMTAP	25	192	1
NMTAP	26	0	2
NMTAP	26	96	2
NMTAP	26	192	2
NMTAP	26	192	3
NMTAP	27	0	4
NMTAP	27	96	4
NMTAP	27	192	4
NMTAP	27	192	5
NMTAP	28	0	6
NMTAP	28	0	7
NMTAP	28	96	6
NMTAP	28	96	7
NMTAP	28	192	6
NMTAP	28	192	7
NMTAP	29	0	6
NMTAP	29	96	6
NMTAP	29	192	6
NMTAP	29	192	7
NMTAP	30	0	5
NMTAP	30	96	5
NMTAP	30	192	4
NMTAP	30	192	5
NMTAP	31	0	3
NMTAP	31	96	3
NMTAP	31	192	2
NMTAP	31	192	3
NMTAP	32	0	0
NMTAP	32	0	1
NMTAP	32	96	0
NMTAP	32	96	1
NMTAP	32	192	0
NMTAP	32	192	1
NMTTP	33	0	1	B	0	L1
NMTTP	33	96	2	B	0	L1
NMTTP	33	192	3	B	0	L1
NMTTP	34	0	6	B	0	L1
NMTTP	34	96	5	B	0	L1
NMTTP	34	192	4	B	0	L1
NMTTP	35	0	1	B	0	L1
NMTTP	35	96	2	B	0	L1
NMTTP	35	192	3	B	0	L1
NMTTP	35	288	4	B	0	L1
NMTTP	36	0	0	C	0	L1
NMTTP	37	0	7	B	0	L1
NMTTP	37	96	6	B	0	L1
NMTTP	37	192	4	B	0	L1
NMTTP	37	192	5	B	0	L1
NMTTP	38	0	0	B	0	L1
NMTTP	38	96	1	B	0	L1
NMTTP	38	192	2	B	0	L1
NMTTP	38	192	3	B	0	L1
NMTTP	39	0	6	B	0	L1
NMTTP	39	96	5	B	0	L1
NMTTP	39	192	4	B	0	L1
NMTTP	39	288	3	B	0	L1
NMTTP	40	0	0	C	0	L1
BXTAP	41	0	1
NMTAP	41	96	1
NMTAP	41	192	1
NMTAP	41	288	0
NMTAP	41	288	1
NMTAP	42	0	2
NMTAP	42	96	2
NMTAP	42	192	2
NMTAP	42	288	2
NMTAP	42	288	3
NMTAP	43	0	4
NMTAP	43	96	4
NMTAP	43	192	4
NMTAP	43	288	4
NMTAP	43	288	5
NMTAP	44	0	6
NMTAP	44	96	6
NMTAP	44	192	6
NMTAP	44	192	7
NMHLD	45	0	5	192
NMTAP	45	192	4
NMHLD	46	0	2	192
NMTAP	46	192	3
NMHLD	47	0	5	192
NMTAP	47	192	4
NMHLD	48	0	2	192
NMTAP	48	192	3
BRTAP	49	0	2
NMTAP	49	48	2
NMTAP	49	96	2
NMTAP	49	192	1
NMTAP	49	288	1
NMTAP	50	0	0
NMTAP	50	48	0
NMTAP	50	96	0
NMTAP	50	192	6
NMTAP	50	192	7
NMTAP	51	0	5
NMTAP	51	48	5
NMTAP	51	96	5
NMTAP	51	192	6
NMTAP	51	288	6
NMTAP	52	0	7
NMTAP	52	48	7
NMTAP	52	96	7
NMTAP	52	192	0
NMTAP	52	192	1
NMTAP	53	0	1
NMTAP	53	48	1
NMTAP	53	96	1
NMTAP	53	192	2
NMTAP	53	288	2
NMTAP	54	0	3
NMTAP	54	48	3
NMTAP	54	96	3
NMTAP	54	192	4
NMTAP	54	192	5
NMTAP	55	0	6
NMTAP	55	48	6
NMTAP	55	96	6
NMTAP	55	192	5
NMTAP	55	288	5
NMTAP	56	0	4
NMTAP	56	48	4
NMTAP	56	96	4
NMTAP	56	192	2
NMTAP	56	192	3
NMTAP	57	0	1
NMTAP	57	96	1
NMTAP	57	192	0
NMTAP	57	192	1
NMTAP	57	288	0
NMTAP	57	288	1
NMTAP	58	0	2
NMTAP	58	96	2
NMTAP	58	192	2
NMTAP	58	192	3
NMTAP	58	288	2
NMTAP	58	288	3
NMTAP	59	0	4
NMTAP	59	96	4
NMTAP	59	192	4
NMTAP	59	192	5
NMTAP	59	288	4
NMTAP	59	288	5
NMTAP	60	0	6
NMTAP	60	0	7
NMTAP	60	96	6
NMTAP	60	96	7
NMTAP	60	192	6
NMTAP	60	192	7
NMTAP	61	0	6
NMTAP	61	96	6
NMTAP	61	192	6
NMTAP	61	192	7
NMTAP	61	288	6
NMTAP	61	288	7
NMTAP	62	0	5
NMTAP	62	96	5
NMTAP	62	192	4
NMTAP	62	192	5
NMTAP	62	288	4
NMTAP	62	288	5
NMTAP	63	0	3
NMTAP	63	96	3
NMTAP	63	192	2
NMTAP	63	192	3
NMTAP	63	288	2
NMTAP	63	288	3
NMTAP	64	0	0
NMTAP	64	0	1
NMTAP	64	96	0
NMTAP	64	96	1
NMTAP	64	192	0
NMTAP	64	192	1
NMTAP	65	0	2
NMTAP	65	48	2
NMTAP	65	96	2
NMTAP	65	192	0
NMTAP	65	192	1
NMTAP	65	288	0
NMTAP	65	288	1
NMTAP	66	0	7
NMTAP	66	48	7
NMTAP	66	96	7
NMTAP	66	192	6
NMTAP	66	192	7
NMTAP	67	0	5
NMTAP	67	48	5
NMTAP	67	96	5
NMTAP	67	192	6
NMTAP	67	192	7
NMTAP	67	288	6
NMTAP	67	288	7
NMTAP	68	0	0
NMTAP	68	48	0
NMTAP	68	96	0
NMTAP	68	192	0
NMTAP	68	192	1
NMTAP	69	0	1
NMTAP	69	48	1
NMTAP	69	96	1
NMTAP	69	192	2
NMTAP	69	192	3
NMTAP	69	288	2
NMTAP	69	288	3
NMTAP	70	0	4
NMTAP	70	48	4
NMTAP	70	96	4
NMTAP	70	192	4
NMTAP	70	192	5
NMTAP	71	0	6
NMTAP	71	48	6
NMTAP	71	96	6
NMTAP	71	192	4
NMTAP	71	192	5
NMTAP	71	288	4
NMTAP	71	288	5
NMTAP	72	0	3
NMTAP	72	48	3
NMTAP	72	96	3
NMTAP	72	192	2
NMTAP	72	192	3
NMSTR	73	0	1
NMSI_	73	0	1	96	288	4
NMTAP	74	192	5
NMSTR	75	0	6
NMSI_	75	0	6	96	288	3
NMTAP	76	192	2
NMSTR	77	0	1
NMSI_	77	0	1	96	288	5
NMTAP	78	192	6
NMSTR	79	0	6
NMSXL	79	0	6	96	672	3
NMHLD	83	0	2	384
NMHLD	84	0	3	384
NMHLD	85	0	4	384
NMTAP	86	0	5
NMHLD	87	0	5	384
NMHLD	88	0	4	384
NMHLD	89	0	3	384
NMTAP	90	0	2
NMTAP	91	0	1
NMTAP	91	96	1
NMTAP	91	192	0
NMTAP	91	192	1
NMTAP	92	0	2
NMTAP	92	96	2
NMTAP	92	192	2
NMTAP	92	192	3
NMTAP	93	0	4
NMTAP	93	96	4
NMTAP	93	192	4
NMTAP	93	192	5
NMTAP	94	0	6
NMTAP	94	0	7
NMTAP	94	96	6
NMTAP	94	96	7
NMTAP	94	192	6
NMTAP	94	192	7
NMTAP	95	0	6
NMTAP	95	96	6
NMTAP	95	192	6
NMTAP	95	192	7
NMTAP	96	0	5
NMTAP	96	96	5
NMTAP	96	192	4
NMTAP	96	192	5
NMTAP	97	0	3
NMTAP	97	96	3
NMTAP	97	192	2
NMTAP	97	192	3
NMTAP	98	0	0
NMTAP	98	0	1
NMTAP	98	96	0
NMTAP	98	96	1
NMTAP	98	192	0
NMTAP	98	192	1
NMTAP	99	0	1
NMTAP	99	96	1
NMTAP	99	192	1
NMTAP	99	288	1
NMTAP	100	0	2
NMTAP	100	96	2
NMTAP	100	192	2
NMTAP	100	288	2
NMTAP	101	0	3
NMTAP	101	96	3
NMTAP	101	192	3
NMTAP	101	288	3
NMTAP	102	0	4
NMTAP	102	0	5
NMTAP	103	0	6
NMTAP	103	96	6
NMTAP	103	192	6
NMTAP	103	288	6
NMTAP	104	0	5
NMTAP	104	96	5
NMTAP	104	192	5
NMTAP	104	288	5
NMTAP	105	0	4
NMTAP	105	96	4
NMTAP	105	192	4
NMTAP	105	288	4
NMTAP	106	0	2
NMTAP	106	0	3
NMTAP	107	0	2
NMTAP	107	48	2
NMTAP	107	96	2
NMTAP	107	192	0
NMTAP	107	192	1
NMTAP	107	240	0
NMTAP	107	240	1
NMTAP	107	288	0
NMTAP	107	288	1
NMTAP	108	0	7
NMTAP	108	48	7
NMTAP	108	96	7
NMTAP	108	192	6
NMTAP	108	192	7
NMTAP	109	0	5
NMTAP	109	48	5
NMTAP	109	96	5
NMTAP	109	192	6
NMTAP	109	192	7
NMTAP	109	240	6
NMTAP	109	240	7
NMTAP	109	288	6
NMTAP	109	288	7
NMTAP	110	0	0
NMTAP	110	48	0
NMTAP	110	96	0
NMTAP	110	192	0
NMTAP	110	192	1
NMTAP	111	0	1
NMTAP	111	48	1
NMTAP	111	96	1
NMTAP	111	192	2
NMTAP	111	192	3
NMTAP	111	240	2
NMTAP	111	240	3
NMTAP	111	288	2
NMTAP	111	288	3
NMTAP	112	0	4
NMTAP	112	48	4
NMTAP	112	96	4
NMTAP	112	192	4
NMTAP	112	192	5
NMTAP	113	0	6
NMTAP	113	48	6
NMTAP	113	96	6
NMTAP	113	192	4
NMTAP	113	192	5
NMTAP	113	240	4
NMTAP	113	240	5
NMTAP	113	288	4
NMTAP	113	288	5
NMTAP	114	0	3
NMTAP	114	48	3
NMTAP	114	96	3
NMTAP	114	192	2
NMTAP	114	192	3
NMHLD	115	0	2	192
NMHLD	115	192	3	192
NMHLD	116	0	4	192
NMTAP	116	192	5
NMHLD	117	0	5	192
NMHLD	117	192	4	192
NMHLD	118	0	3	192
NMTAP	118	192	2
NMTTP	119	0	1	B	0	L1
NMTTP	119	96	2	B	0	L1
NMTTP	119	192	3	B	0	L1
NMTTP	120	0	6	B	0	L1
NMTTP	120	96	5	B	0	L1
NMTTP	120	192	4	B	0	L1
NMTTP	121	0	1	B	0	L1
NMTTP	121	96	2	B	0	L1
NMTTP	121	192	3	B	0	L1
NMTTP	121	288	4	B	0	L1
NMTTP	122	0	5	B	0	L1
NMTTP	122	96	6	B	0	L1
NMTHO	122	192	0	192	C	1	L1

T_REC_TAP	346
T_REC_BRK	1
T_REC_XTP	0
T_REC_BXX	1
T_REC_HLD	16
T_REC_XHO	0
T_REC_BHO	0
T_REC_BXH	0
T_REC_STR	8
T_REC_BST	0
T_REC_XST	0
T_REC_XBS	0
T_REC_TTP	36
T_REC_THO	1
T_REC_SLD	8
T_REC_BSL	0
T_REC_ALL	417
T_NUM_TAP	390
T_NUM_BRK	2
T_NUM_HLD	17
T_NUM_SLD	8
T_NUM_ALL	417
T_JUDGE_TAP	392
T_JUDGE_HLD	92
T_JUDGE_SLD	8
T_JUDGE_ALL	492
TTM_EACHPAIRS	84
TTM_SCR_TAP	195000
TTM_SCR_BRK	5200
TTM_SCR_HLD	17000
TTM_SCR_SLD	12000
TTM_SCR_ALL	229200
TTM_SCR_S	222150
TTM_SCR_SS	229000
TTM_RAT_ACV	10008

