VERSION	0.00.00	1.04.00
FES_MODE	0
BPM_DEF	150.000	150.000	225.000	150.000
MET_DEF	4	4
RESOLUTION	384
CLK_DEF	384
COMPATIBLE_CODE	MA2

BPM	0	0	150.000
BPM	16	0	225.000
BPM	28	0	150.000
BPM	51	192	225.000
BPM	60	192	150.000
MET	0	0	4	4
MET	16	0	4	3
MET	28	0	4	4
MET	29	0	4	2
MET	29	192	4	4
MET	51	192	4	3
MET	60	192	4	4

BXSTR	1	0	0
BRSCR	1	0	0	96	192	7
NMTTP	1	0	3	B	0	M1
NMTTP	1	0	4	B	0	M1
NMTTP	1	0	4	E	1	M1
NMTAP	2	0	1
NMTAP	2	32	3
NMTAP	2	64	2
NMTAP	2	96	6
NMTAP	2	128	4
NMTAP	2	160	5
NMTAP	2	192	2
NMTAP	2	224	3
NMTAP	2	256	1
NMTAP	2	288	5
NMTAP	2	320	4
NMTAP	2	352	6
NMSTR	3	0	2
NMSI_	3	0	2	96	48	4
NMTAP	3	96	2
NMSTR	3	96	6
NMSI_	3	96	6	96	48	0
NMSTR	3	192	1
NMSI_	3	192	1	96	48	5
NMTAP	3	192	6
NMTAP	3	288	1
NMSTR	3	288	7
NMSCL	3	288	7	96	288	0
NMHLD	4	0	7	288
BXHLD	5	0	1	64
BXHLD	5	0	3	64
BXHLD	5	96	3	64
BXHLD	5	96	4	64
BXHLD	5	192	4	64
BXHLD	5	192	6	64
BXHLD	5	288	0	64
BXHLD	5	288	7	64
NMSTR	6	0	1
NMSCR	6	0	1	96	96	4
NMTAP	6	0	6
NMSTR	6	192	5
NMSCR	6	192	5	96	96	0
NMSTR	7	0	1
NMSI_	7	0	1	96	48	4
EXTAP	7	192	3
EXTAP	7	192	6
NMTAP	7	288	5
NMTAP	7	320	5
NMTAP	7	352	4
NMHLD	8	0	5	96
NMTAP	8	96	3
NMTAP	8	128	3
NMTAP	8	160	4
NMHLD	8	192	2	96
NMTAP	8	288	4
NMTAP	8	320	3
NMTAP	8	352	5
NMSTR	9	0	4
NMSI_	9	0	4	96	32	2
NMSTR	9	96	6
NMSI_	9	96	6	96	32	4
NMTAP	9	288	1
NMTAP	9	320	1
NMTAP	9	352	3
NMHLD	10	0	2	96
NMHLD	10	96	3	96
NMTAP	10	192	4
NMTAP	10	256	4
NMTAP	10	320	3
NMTAP	10	320	5
NMSTR	11	0	2
NMSI_	11	0	2	96	48	0
NMSTR	11	0	6
NMSI_	11	0	6	96	48	4
NMSTR	11	192	1
NMSI_	11	192	1	96	48	3
NMSTR	11	192	5
NMSI_	11	192	5	96	48	7
NMTAP	12	0	6
NMTAP	12	32	4
NMTAP	12	64	5
NMTAP	12	96	3
NMTAP	12	128	4
NMTAP	12	160	3
NMSTR	12	192	5
NMSI_	12	192	5	96	48	2
NMTAP	12	288	1
NMSTR	13	0	1
NMSI_	13	0	1	96	48	4
NMTAP	13	96	5
NMTAP	13	192	3
NMHLD	13	192	6	96
NMHLD	13	288	4	96
NMSTR	14	0	3
NMSI_	14	0	3	96	48	5
NMTAP	14	96	2
NMTAP	14	192	4
NMTAP	14	192	6
NMTAP	14	256	5
NMTAP	14	320	3
NMTAP	14	320	4
NMTAP	15	0	1
NMTAP	15	0	3
NMTAP	15	64	2
NMTAP	15	128	3
NMTAP	15	128	4
BRTAP	15	192	1
BRTAP	15	192	6
NMTAP	16	0	0
NMTAP	16	0	7
NMTAP	16	96	1
NMTAP	16	144	1
NMTAP	16	192	0
NMHLD	16	288	0	192
NMHLD	16	288	1	96
NMHLD	17	192	2	192
NMHLD	17	192	7	96
NMHLD	18	96	0	96
NMHLD	18	96	1	192
NMHLD	19	0	6	192
NMHLD	19	0	7	96
NMHLD	19	288	0	96
NMHLD	19	288	5	192
NMHLD	20	192	6	96
NMHLD	20	192	7	96
NMTAP	21	0	5
EXTAP	21	96	3
EXTAP	21	96	4
EXTAP	21	192	2
EXTAP	21	192	5
NMTAP	22	0	0
NMTAP	22	0	7
NMTAP	22	96	1
NMTAP	22	144	1
NMTAP	22	192	0
NMTAP	22	288	0
NMTAP	22	288	7
NMTAP	23	0	6
NMTAP	23	48	6
NMTAP	23	96	7
NMTAP	23	192	0
NMTAP	23	192	7
NMTAP	23	288	1
NMTAP	23	336	0
NMTAP	24	0	1
NMTAP	24	96	0
NMTAP	24	96	7
NMTAP	24	192	6
NMTAP	24	240	7
NMTAP	24	288	6
NMTAP	25	0	0
NMTAP	25	0	7
NMTAP	25	96	1
NMTAP	25	144	0
NMTAP	25	192	2
NMTAP	25	288	0
NMTAP	25	288	7
NMTAP	26	0	6
NMTAP	26	48	7
NMTAP	26	96	5
NMTAP	26	192	0
NMTAP	26	192	7
NMTAP	26	288	1
NMTAP	26	336	0
NMTAP	27	0	2
NMSTR	27	96	3
NMSI_	27	96	3	96	96	0
NMSTR	27	96	4
NMSI_	27	96	4	96	96	7
EXHLD	28	0	0	64
EXHLD	28	0	1	64
EXHLD	28	96	6	64
EXHLD	28	96	7	64
BXSTR	28	192	3
NMSCL	28	192	3	96	192	7
NMTAP	28	192	4
EXHLD	29	192	6	64
EXHLD	29	192	7	64
EXHLD	29	288	0	64
EXHLD	29	288	1	64
NMTAP	30	0	3
BXHLD	30	0	4	384
EXSTR	30	96	5
NMSCR	30	96	5	96	192	2
BXSTR	31	192	2
NMSI_	31	192	2	96	48	7
BXTAP	31	192	4
NMTAP	31	256	3
NMTAP	31	288	2
EXTAP	32	0	3
EXSTR	32	0	5
NMSI_	32	0	5	96	48	0
NMTAP	32	64	4
NMTAP	32	96	5
BRSTR	32	192	1
NMSI_	32	192	1	96	48	5
NMSTR	32	288	0
NMSI_	32	288	0	96	48	4
NMTAP	32	288	1
NMTAP	33	0	0
NMSTR	33	0	7
NMSI_	33	0	7	96	48	3
NMSTR	33	96	6
NMSXR	33	96	6	96	96	0
NMTAP	33	96	7
BRTAP	33	192	0
BRTAP	33	192	6
NMTAP	33	288	2
NMTAP	33	352	1
NMTAP	34	0	0
NMSTR	34	0	2
NMSCL	34	0	2	96	96	6
NMSTR	34	96	6
BRSCR	34	96	6	96	96	2
BRTAP	34	192	2
NMSTR	34	288	4
NMSI_	34	288	4	96	48	0
NMTAP	34	352	3
NMTAP	35	0	4
NMTAP	35	96	1
NMTAP	35	96	7
NMTAP	35	160	2
NMTAP	35	160	6
BRHLD	35	192	2	96
BRHLD	35	192	6	96
NMTAP	35	352	4
NMTAP	35	352	5
NMTAP	36	0	4
NMTAP	36	0	5
NMSTR	36	64	3
NMSI_	36	64	3	96	64	6
NMTAP	36	64	4
NMTAP	36	128	2
NMTAP	36	128	3
BRTAP	36	192	1
CNSI_	36	224	6	0	32	4
NMHLD	36	288	0	64
NMTAP	36	352	4
NMHLD	37	0	4	64
NMTAP	37	64	2
NMTAP	37	128	1
NMTAP	37	128	5
NMSTR	37	192	0
NMSI_	37	192	0	96	48	4
NMSTR	37	192	6
NMSI_	37	192	6	96	48	4
NMTAP	37	224	0
NMTAP	37	224	6
BRTAP	37	288	0
BRTAP	37	288	6
NMSTR	38	0	1
NMSI_	38	0	1	96	48	3
NMSTR	38	0	7
NMSI_	38	0	7	96	48	3
NMTAP	38	32	1
NMTAP	38	32	7
BRTAP	38	96	1
BRTAP	38	96	7
NMSTR	38	192	0
NMSI_	38	192	0	96	48	4
NMSTR	38	192	6
NMSI_	38	192	6	96	48	4
NMTAP	38	224	0
NMTAP	38	224	6
NMSTR	38	288	0
NMSI_	38	288	0	96	48	2
NMSTR	38	288	6
NMSI_	38	288	6	96	48	2
BRTAP	39	0	0
BRTAP	39	0	6
NMSTR	39	192	2
NMSLL	39	192	2	96	96	4
NMTAP	39	192	6
NMSTR	39	288	4
NMSI_	39	288	4	96	32	2
NMTAP	40	0	7
NMSTR	40	96	1
NMSI_	40	96	1	96	48	4
NMSTR	40	96	5
NMSI_	40	96	5	96	48	0
BRTAP	40	192	1
BRTAP	40	192	5
NMSTR	40	288	2
NMSI_	40	288	2	96	48	7
NMSTR	40	288	6
NMSI_	40	288	6	96	48	3
BRTAP	41	0	2
BRTAP	41	0	6
NMSTR	41	192	5
NMSCL	41	192	5	96	96	2
NMSTR	42	192	2
NMSCR	42	192	2	96	96	5
NMTAP	43	96	6
NMTAP	43	128	6
NMTAP	43	160	4
NMHLD	43	192	5	96
NMTAP	43	288	3
NMTAP	43	320	3
NMTAP	43	352	4
NMHLD	44	0	2	96
NMTAP	44	96	4
NMTAP	44	128	3
NMTAP	44	160	5
NMSTR	44	192	4
NMSI_	44	192	4	96	48	2
NMSTR	44	288	6
NMSI_	44	288	6	96	48	4
NMTAP	45	0	1
NMTAP	45	96	2
NMTAP	45	128	2
NMTAP	45	160	4
NMHLD	45	192	3	96
NMHLD	45	288	5	96
NMTAP	46	0	4
NMTAP	46	64	4
NMTAP	46	128	3
NMTAP	46	128	5
NMSTR	46	192	3
NMSI_	46	192	3	96	48	1
NMSTR	46	192	5
NMSI_	46	192	5	96	48	3
BRTAP	47	0	1
BRTAP	47	0	3
BRTAP	47	64	3
BRTAP	47	64	4
BRTAP	47	128	4
BRTAP	47	128	6
NMSTR	47	192	5
NMSI_	47	192	5	96	48	2
NMTAP	47	256	3
NMTAP	47	320	1
NMSTR	48	0	1
NMSI_	48	0	1	96	48	4
NMTAP	48	64	3
NMTAP	48	128	5
NMSTR	48	192	6
NMSI_	48	192	6	96	64	3
NMSTR	48	256	3
NMSI_	48	256	3	96	48	5
NMTAP	48	320	2
NMSTR	49	0	1
NMSI_	49	0	1	96	64	4
NMSTR	49	64	4
NMSI_	49	64	4	96	48	2
NMTAP	49	128	5
NMTAP	49	192	6
NMHLD	49	288	0	96
NMTAP	49	288	7
NMHLD	50	0	1	64
NMHLD	50	64	2	64
NMHLD	50	128	3	64
NMHLD	50	192	4	64
NMHLD	50	256	5	64
NMHLD	50	320	6	64
BRTAP	51	0	7
NMHLD	51	192	0	160
EXTAP	51	352	7
EXTAP	52	0	0
NMTAP	52	96	1
NMHLD	52	96	6	192
NMTTP	52	192	0	E	0	M1
NMTTP	52	288	7	E	0	M1
NMHLD	53	0	1	192
NMTTP	53	96	1	E	0	M1
NMTTP	53	192	2	E	0	M1
NMHLD	53	288	6	192
NMTTP	54	0	7	E	0	M1
NMTTP	54	96	6	E	0	M1
NMHLD	54	192	1	192
NMTTP	54	288	0	B	0	M1
NMTTP	55	0	2	B	0	M1
NMHLD	55	96	6	192
NMTTP	55	192	7	B	0	M1
NMTTP	55	192	7	A	0	M1
NMTTP	55	288	5	B	0	M1
NMTTP	55	288	5	A	0	M1
NMHLD	56	0	2	288
NMTTP	56	96	1	E	0	M1
NMTTP	56	96	1	D	0	M1
NMTTP	56	192	2	E	0	M1
NMTTP	56	192	2	D	0	M1
NMTTP	56	288	3	E	0	M1
NMTTP	56	288	3	D	0	M1
EXTAP	57	48	1
EXTAP	57	48	5
BRTAP	57	192	2
NMTAP	57	192	3
NMTAP	57	336	4
BRTAP	57	336	5
NMTAP	58	96	6
BRTAP	58	96	7
BRTAP	58	240	0
NMTAP	58	240	1
NMTAP	59	0	0
NMSTR	59	0	1
NMSXL	59	0	1	96	480	0
NMHLD	60	192	7	192
NMTTP	61	0	0	E	0	M1
BXSTR	61	192	2
BRSCL	61	192	2	96	48	7
BXTAP	61	192	4
NMTAP	61	256	3
NMTAP	61	288	2
EXTAP	62	0	3
EXSTR	62	0	5
BRSCR	62	0	5	96	48	0
NMTAP	62	64	4
NMTAP	62	96	5
BRSTR	62	192	1
NMSI_	62	192	1	96	48	5
NMTAP	62	288	1
NMSTR	62	288	3
NMSI_	62	288	3	96	48	7
NMTAP	63	0	3
NMSTR	63	0	4
NMSI_	63	0	4	96	48	0
NMTAP	63	96	4
NMSTR	63	96	6
NMSXR	63	96	6	96	96	0
BRTAP	63	192	2
BRTAP	63	192	6
NMTAP	63	352	1
NMTAP	64	0	0
NMSTR	64	0	2
NMSLL	64	0	2	96	96	6
NMSTR	64	96	6
BRSLR	64	96	6	96	96	2
BRTAP	64	192	2
NMSTR	64	288	5
NMSV_	64	288	5	96	48	0
NMTAP	64	352	3
NMTAP	65	0	5
NMTAP	65	96	1
NMTAP	65	96	7
NMTAP	65	160	2
NMTAP	65	160	6
BRHLD	65	192	2	96
BRHLD	65	192	6	96
NMTAP	65	352	4
NMTAP	65	352	5
NMTAP	66	0	4
NMTAP	66	0	5
NMSTR	66	64	3
NMSUR	66	64	3	96	96	5
NMTAP	66	64	4
NMTAP	66	128	2
NMTAP	66	128	3
BRTAP	66	192	1
NMHLD	66	288	0	64
NMTAP	66	352	4
NMHLD	67	0	4	64
NMTAP	67	64	2
NMTAP	67	128	1
NMTAP	67	128	5
NMSTR	67	192	0
NMSI_	67	192	0	96	48	4
NMSTR	67	192	6
NMSI_	67	192	6	96	48	4
NMTAP	67	224	0
NMTAP	67	224	6
BRTAP	67	288	0
BRTAP	67	288	6
NMSTR	68	0	1
NMSI_	68	0	1	96	48	3
NMSTR	68	0	7
NMSI_	68	0	7	96	48	3
NMTAP	68	32	1
NMTAP	68	32	7
BRTAP	68	96	1
BRTAP	68	96	7
NMSTR	68	192	0
NMSI_	68	192	0	96	48	4
NMSTR	68	192	6
NMSI_	68	192	6	96	48	4
NMTAP	68	224	0
NMTAP	68	224	6
NMSTR	68	288	0
NMSI_	68	288	0	96	48	2
NMSTR	68	288	6
NMSI_	68	288	6	96	48	2
BRTAP	69	0	0
BRTAP	69	0	6
NMSTR	69	192	0
NMSUR	69	192	0	96	96	4
NMTAP	69	192	4
NMSTR	70	0	7
NMSUL	70	0	7	96	96	3
NMSTR	70	192	1
NMSUR	70	192	1	96	96	5
NMSTR	71	0	6
NMSUL	71	0	6	96	96	2
NMSTR	71	192	0
NMSUL	71	192	0	96	192	7
NMSTR	72	192	4
NMSUL	72	192	4	96	192	3
NMHLD	73	192	2	96
NMTAP	73	288	4
NMTAP	73	320	3
NMTAP	73	352	4
NMTAP	74	0	2
NMTAP	74	32	3
NMTAP	74	64	2
EXTAP	74	96	1
EXTAP	74	96	4
NMSTR	74	192	7
NMSCL	74	192	7	96	48	4
NMTAP	74	256	3
NMSTR	74	288	7
NMSCR	74	288	7	96	48	2
NMTAP	74	352	3
NMSTR	75	0	7
NMSCL	75	0	7	96	48	4
NMTAP	75	64	3
NMTAP	75	96	7
EXSTR	75	192	0
NMSCR	75	192	0	96	48	3
NMTAP	75	256	4
NMSTR	75	288	0
NMSCL	75	288	0	96	48	5
NMTAP	75	352	4
NMSTR	76	0	0
NMSCR	76	0	0	96	48	3
NMTAP	76	64	4
NMTAP	76	96	0
NMSTR	76	192	4
BRSI_	76	192	4	96	48	0
NMSTR	76	192	5
BRSI_	76	192	5	96	48	7
BRTAP	76	288	4
BRTAP	76	288	5
NMSTR	77	0	2
BRSI_	77	0	2	96	48	0
NMSTR	77	0	3
BRSI_	77	0	3	96	48	7
BRTAP	77	96	2
BRTAP	77	96	3
NMSTR	77	192	4
NMSCL	77	192	4	96	96	0
NMTAP	77	192	5
NMSTR	77	288	0
NMSCL	77	288	0	96	96	4
NMSTR	78	0	4
NMSI_	78	0	4	96	48	0
EXHLD	78	192	1	64
NMTAP	78	224	3
NMTAP	78	256	3
NMHLD	78	288	2	64
NMTAP	78	320	4
NMTAP	78	352	4
NMHLD	79	0	3	64
NMTAP	79	32	5
NMTAP	79	64	5
NMHLD	79	96	4	64
NMTAP	79	128	6
NMTAP	79	160	6
NMTAP	79	192	4
NMTAP	79	192	5
NMTAP	79	256	2
NMTAP	79	288	1
NMTAP	79	288	3
NMTAP	79	352	5
NMTAP	80	0	4
NMTAP	80	0	6
NMTAP	80	64	0
NMTAP	80	64	7
BRTAP	80	96	1
BRTAP	80	96	6
NMTTP	80	192	2	B	0	M1
NMTTP	80	192	2	E	0	M1
NMTTP	81	0	3	B	0	M1
NMTTP	81	0	3	E	0	M1
NMTTP	81	192	4	B	0	M1
NMTTP	81	192	4	E	0	M1
NMTTP	82	0	5	B	0	M1
NMTTP	82	0	5	E	0	M1
NMTTP	82	192	2	B	0	M1
NMTTP	82	192	3	E	0	M1
NMTTP	83	0	3	B	0	M1
NMTTP	83	0	4	E	0	M1
NMTTP	83	192	4	B	0	M1
NMTTP	83	192	5	E	0	M1
NMTTP	84	0	5	B	0	M1
NMTTP	84	0	6	E	0	M1
NMTTP	84	192	2	B	0	M1
NMTTP	84	192	2	A	0	M1
NMTTP	85	0	3	B	0	M1
NMTTP	85	0	3	A	0	M1
NMTTP	85	192	4	B	0	M1
NMTTP	85	192	4	A	0	M1
NMTTP	86	0	5	B	0	M1
NMTTP	86	0	5	A	0	M1
NMTTP	86	192	3	D	0	M1
NMTTP	86	256	4	D	0	M1
NMTTP	86	320	5	D	0	M1
NMTTP	87	0	3	E	0	M1
NMTTP	87	64	4	E	0	M1
NMTTP	87	128	5	E	0	M1
NMTAP	87	192	1
NMTAP	87	224	1
NMTAP	87	256	1
NMTAP	87	288	3
NMTAP	87	320	3
NMTAP	87	352	3
NMTAP	88	0	4
NMTAP	88	32	4
NMTAP	88	64	4
NMTAP	88	96	6
NMTAP	88	128	6
NMTAP	88	160	6
NMSTR	88	192	3
BRSF_	88	192	3	96	48	7
NMTTP	88	288	3	A	1	M1
NMTTP	88	288	3	D	0	M1
NMTTP	88	288	4	D	0	M1
BXSTR	89	0	1
BRSI_	89	0	1	96	48	4
BXSTR	89	0	5
BRSI_	89	0	5	96	48	0
BRTAP	89	96	1
BRTAP	89	96	5
BXSTR	89	192	7
NMSCL	89	192	7	96	48	4
NMSTR	89	288	2
NMSCL	89	288	2	96	48	7
NMTAP	89	288	7
NMTAP	90	0	2
NMSTR	90	0	5
NMSCL	90	0	5	96	48	2
NMSTR	90	96	0
NMSI_	90	96	0	96	48	4
NMTAP	90	96	5
BXTAP	90	192	0
BXTAP	90	192	7
NMTAP	90	288	2
NMTAP	90	288	6
NMTAP	90	352	4
NMTAP	91	0	3
NMSTR	91	0	5
NMSCR	91	0	5	96	96	2
NMSTR	91	96	2
BRSCL	91	96	2	96	96	5
NMTTP	91	192	0	E	0	M1
NMTTP	91	192	7	B	1	M1
NMTTP	91	192	7	E	0	M1
NMSTR	91	288	3
NMSI_	91	288	3	96	48	7
NMTAP	91	352	4
NMTAP	92	0	3
NMTAP	92	96	0
NMTAP	92	96	6
NMTAP	92	160	1
NMTAP	92	160	5
BRHLD	92	192	1	96
BRHLD	92	192	5	96
NMTAP	92	352	4
NMTAP	92	352	6
NMTAP	93	0	4
NMTAP	93	0	6
NMSTR	93	64	3
NMSXL	93	64	3	96	128	7
NMTAP	93	64	4
NMTAP	93	128	1
NMTAP	93	128	3
BXTAP	93	192	0
NMHLD	93	288	2	64
NMTAP	93	352	0
NMHLD	94	0	0	64
NMHLD	94	64	7	64
NMTAP	94	128	5
NMSTR	94	192	6
NMSI_	94	192	6	96	48	2
NMSTR	94	192	7
NMSI_	94	192	7	96	48	3
NMTAP	94	224	6
NMTAP	94	224	7
BRTAP	94	288	6
BRTAP	94	288	7
NMSTR	95	0	0
NMSI_	95	0	0	96	48	4
NMSTR	95	0	1
NMSI_	95	0	1	96	48	5
NMTAP	95	32	0
NMTAP	95	32	1
BRTAP	95	96	0
BRTAP	95	96	1
NMSTR	95	192	6
NMSI_	95	192	6	96	48	4
NMSTR	95	192	7
NMSI_	95	192	7	96	48	1
NMTAP	95	224	6
NMTAP	95	224	7
NMSTR	95	288	6
NMSI_	95	288	6	96	48	2
NMSTR	95	288	7
NMSI_	95	288	7	96	48	3
BRTAP	96	0	6
BRTAP	96	0	7
NMTAP	96	192	1
NMTAP	96	192	5
NMSTR	96	288	3
NMSI_	96	288	3	96	48	0
NMSTR	96	288	7
NMSI_	96	288	7	96	48	4
NMTAP	97	0	3
NMTAP	97	0	7
NMSTR	97	96	2
NMSCR	97	96	2	96	48	5
NMSTR	97	96	6
NMSCR	97	96	6	96	48	1
NMTAP	97	192	2
NMSTR	97	192	6
BRSI_	97	192	6	96	48	2
BRTAP	97	288	6
NMTTP	98	0	0	B	0	M1
NMTTP	98	0	0	C	1	M1
NMTTP	98	0	0	A	0	M1
NMTTP	98	0	4	B	0	M1
NMTTP	98	0	4	A	0	M1
NMTAP	98	192	0
NMTAP	98	224	1
NMTAP	98	256	2
NMSTR	98	288	3
NMSCL	98	288	3	96	96	0
NMTAP	98	320	4
NMTAP	98	352	5
NMTAP	99	0	6
NMTAP	99	192	7
NMTAP	99	224	6
NMTAP	99	256	5
NMSTR	99	288	4
NMSCR	99	288	4	96	96	7
NMTAP	99	320	3
NMTAP	99	352	2
NMTAP	100	0	1
NMTAP	100	288	3
NMTAP	100	320	2
NMTAP	100	352	1
NMTAP	101	0	4
NMTAP	101	32	5
NMTAP	101	64	6
NMTAP	101	96	2
NMTAP	101	128	1
NMTAP	101	160	0
NMTAP	101	192	5
NMTAP	101	224	6
NMTAP	101	256	7
NMTTP	101	288	0	C	0	M1

T_REC_TAP	296
T_REC_BRK	52
T_REC_XTP	14
T_REC_BXX	5
T_REC_HLD	49
T_REC_XHO	9
T_REC_BHO	6
T_REC_BXH	9
T_REC_STR	108
T_REC_BST	2
T_REC_XST	4
T_REC_XBS	7
T_REC_TTP	64
T_REC_THO	0
T_REC_SLD	107
T_REC_BSL	14
T_REC_ALL	746
T_NUM_TAP	486
T_NUM_BRK	95
T_NUM_HLD	58
T_NUM_SLD	107
T_NUM_ALL	746
T_JUDGE_TAP	552
T_JUDGE_HLD	184
T_JUDGE_SLD	121
T_JUDGE_ALL	857
TTM_EACHPAIRS	151
TTM_SCR_TAP	243000
TTM_SCR_BRK	247000
TTM_SCR_HLD	58000
TTM_SCR_SLD	160500
TTM_SCR_ALL	708500
TTM_SCR_S	678050
TTM_SCR_SS	699000
TTM_RAT_ACV	10135

