VERSION	0.00.00	1.04.00
FES_MODE	0
BPM_DEF	150.000	150.000	225.000	150.000
MET_DEF	4	4
RESOLUTION	384
CLK_DEF	384
COMPATIBLE_CODE	MA2

BPM	0	0	150.000
BPM	16	0	225.000
BPM	28	0	150.000
BPM	51	192	225.000
BPM	60	192	150.000
MET	0	0	4	4
MET	16	0	4	3
MET	28	0	4	4
MET	29	0	4	2
MET	29	192	4	4
MET	51	192	4	3
MET	60	192	4	4

NMSTR	1	0	3
NMSI_	1	0	3	96	96	0
NMSTR	1	0	4
NMSI_	1	0	4	96	96	7
EXTAP	1	288	0
EXTAP	1	288	7
NMTAP	2	0	1
NMTAP	2	32	0
NMTAP	2	64	1
NMTAP	2	96	0
NMTAP	2	192	6
NMTAP	2	224	7
NMTAP	2	256	6
NMTAP	2	288	7
NMTAP	3	0	0
NMTAP	3	0	5
NMTAP	3	96	3
NMTAP	3	96	4
NMTAP	3	192	2
NMTAP	3	192	6
NMTTP	4	0	5	E	0	M1
NMTTP	4	192	3	E	0	M1
NMTAP	5	0	0
NMTAP	5	0	7
NMTAP	5	96	4
NMTAP	5	96	6
NMTAP	5	192	3
NMTAP	5	192	4
NMSTR	5	288	1
NMSCL	5	288	1	96	288	3
NMTAP	5	288	3
NMSTR	6	288	7
NMSSR	6	288	7	96	192	3
NMTAP	7	288	2
NMHLD	8	0	2	384
NMTAP	8	192	3
NMTAP	8	352	4
NMHLD	9	0	4	384
NMTAP	9	192	3
NMHLD	10	0	2	384
NMTAP	10	192	3
NMTAP	10	352	4
NMTAP	11	0	4
NMTAP	11	96	2
NMTAP	11	96	4
BRTAP	11	192	0
BRTAP	11	192	6
BRTAP	11	288	0
BRTAP	11	288	6
NMTAP	12	0	5
NMTAP	12	64	5
NMTAP	12	96	7
NMTAP	12	160	7
NMTAP	12	192	0
NMTAP	12	288	1
NMTAP	12	288	7
NMTAP	13	0	2
NMTAP	13	64	2
NMTAP	13	96	0
NMTAP	13	160	0
NMTAP	13	192	7
NMTAP	13	288	0
NMTAP	13	288	6
NMTAP	13	352	1
NMTAP	13	352	5
NMSTR	14	0	1
NMSI_	14	0	1	96	48	3
NMSTR	14	0	5
NMSI_	14	0	5	96	48	3
NMTAP	14	192	2
NMTAP	14	192	3
NMTAP	14	256	3
NMTAP	14	256	4
NMTAP	14	320	4
NMTAP	14	320	5
NMTAP	15	0	6
NMTAP	15	0	7
NMTAP	15	64	0
NMTAP	15	64	7
NMTAP	15	128	0
NMTAP	15	128	1
BRTAP	15	192	3
BRTAP	15	192	7
NMTTP	16	96	2	A	0	M1
NMTTP	16	192	3	E	0	M1
NMTTP	16	288	4	E	0	M1
NMTTP	17	0	4	A	0	M1
NMTTP	17	0	5	D	0	M1
NMTTP	17	192	5	A	0	M1
NMTTP	17	288	5	E	0	M1
NMTTP	18	0	4	E	0	M1
NMTTP	18	96	3	A	0	M1
NMTTP	18	96	3	D	0	M1
NMTTP	18	288	1	A	0	M1
NMTTP	19	0	2	E	0	M1
NMTTP	19	96	3	E	0	M1
NMTTP	19	192	3	A	0	M1
NMTTP	19	288	4	A	0	M1
NMTTP	19	288	4	D	0	M1
NMTTP	20	96	6	A	0	M1
NMTTP	20	192	6	E	0	M1
NMTTP	20	288	5	E	0	M1
NMTTP	21	0	4	A	0	M1
NMTTP	21	96	3	A	0	M1
NMTTP	21	96	4	D	0	M1
NMTAP	21	288	1
NMHLD	22	0	1	480
NMTTP	22	96	1	E	0	M1
NMTTP	22	192	2	E	0	M1
NMTTP	22	288	3	E	0	M1
NMTAP	23	96	5
NMHLD	23	192	5	480
NMTTP	23	288	7	E	0	M1
NMTTP	24	0	6	E	0	M1
NMTTP	24	96	5	E	0	M1
NMTAP	24	288	2
NMHLD	25	0	2	480
NMTTP	25	96	3	E	0	M1
NMTTP	25	192	2	E	0	M1
NMTTP	25	288	1	E	0	M1
NMTAP	26	96	6
NMHLD	26	192	6	288
NMTTP	26	288	5	E	0	M1
NMTTP	27	0	6	E	0	M1
NMTTP	27	96	7	E	0	M1
EXTAP	27	240	0
EXTAP	27	240	7
NMTAP	28	0	1
NMTAP	28	32	0
NMTAP	28	64	1
NMTAP	28	96	0
NMTAP	28	192	2
NMSTR	28	192	7
NMSI_	28	192	7	96	96	1
CNSI_	29	0	1	0	96	4
NMTAP	29	192	6
NMTAP	29	224	7
NMTAP	29	256	6
NMTAP	29	288	7
NMTAP	30	0	0
NMTAP	30	0	5
NMSTR	30	96	2
NMSXL	30	96	2	96	192	0
NMTAP	30	96	3
NMTAP	31	0	7
BRSTR	31	192	0
NMSI_	31	192	0	96	48	4
BRSTR	31	192	1
NMSI_	31	192	1	96	48	3
NMSTR	32	0	6
NMSI_	32	0	6	96	48	4
NMSTR	32	0	7
NMSI_	32	0	7	96	48	3
NMTAP	32	192	2
NMTAP	32	192	3
NMTAP	32	288	0
NMTAP	32	288	1
NMTAP	33	0	6
NMTAP	33	0	7
NMSTR	33	96	4
NMSXL	33	96	4	96	192	4
NMSXR	33	96	4	96	192	4
NMTAP	33	96	5
NMTAP	34	96	3
NMTAP	34	96	5
BRTAP	34	192	0
BRTAP	34	192	1
NMTAP	34	352	7
NMTAP	35	0	7
NMSTR	35	96	0
NMSCR	35	96	0	96	96	5
NMTAP	35	96	4
BRTAP	35	192	5
NMTAP	35	352	6
NMTAP	36	0	6
NMTAP	36	96	3
NMSTR	36	96	7
NMSCL	36	96	7	96	96	2
BRTAP	36	192	2
NMTAP	36	352	1
NMTAP	37	0	1
NMTAP	37	96	2
NMTAP	37	96	7
NMHLD	37	192	6	64
NMHLD	37	256	4	64
NMHLD	37	320	5	64
NMHLD	38	0	2	64
NMHLD	38	64	3	64
NMHLD	38	128	1	64
NMHLD	38	192	7	64
NMHLD	38	256	0	64
NMTAP	38	320	6
BRTAP	39	0	1
BRTAP	39	0	5
NMTAP	39	192	4
NMTAP	39	192	6
NMTAP	39	288	0
NMTAP	39	288	7
NMTAP	40	0	1
NMTAP	40	0	3
NMTAP	40	96	2
NMSTR	40	96	3
NMSF_	40	96	3	96	48	7
NMSTR	40	288	4
BRSF_	40	288	4	96	48	0
NMTAP	40	288	5
NMSTR	41	192	6
NMSCL	41	192	6	96	192	3
NMSTR	42	192	1
NMSCR	42	192	1	96	192	4
NMTAP	43	96	5
NMHLD	43	192	5	384
NMTAP	44	0	4
NMTAP	44	160	3
NMHLD	44	192	3	384
NMTAP	45	0	4
NMHLD	45	192	5	384
NMTAP	46	0	4
NMTAP	46	160	3
NMTAP	46	192	3
NMTAP	46	288	3
NMTAP	46	288	5
BRTAP	47	0	1
BRTAP	47	0	7
BRTAP	47	96	1
BRTAP	47	96	7
NMTAP	47	192	2
NMTAP	47	256	2
NMTAP	47	288	0
NMTAP	47	352	0
NMTAP	48	0	1
NMTAP	48	64	1
NMTAP	48	96	6
NMTAP	48	160	6
NMTAP	48	192	7
NMTAP	48	256	7
NMTAP	48	288	5
NMTAP	48	352	5
NMTAP	49	0	2
NMTAP	49	64	2
NMTAP	49	96	3
NMTAP	49	160	3
NMSTR	49	192	0
NMSI_	49	192	0	96	48	4
NMTAP	50	0	3
NMTAP	50	0	5
NMTAP	50	64	2
NMTAP	50	64	4
NMTAP	50	128	1
NMTAP	50	128	3
NMTAP	50	192	0
NMTAP	50	192	4
NMTAP	50	256	1
NMTAP	50	256	5
NMTAP	50	320	2
NMTAP	50	320	6
NMTAP	51	0	3
NMHLD	51	0	7	192
NMTAP	51	192	0
BRTAP	51	336	0
BRTAP	51	336	7
BRTAP	52	0	0
BRTAP	52	0	7
NMHLD	52	96	1	288
NMTAP	52	192	0
NMTAP	52	288	0
NMHLD	53	0	6	288
NMTAP	53	96	7
NMTAP	53	192	7
NMHLD	53	288	2	288
NMTAP	54	0	0
NMTAP	54	96	0
NMHLD	54	192	5	288
NMTAP	54	288	7
NMTAP	55	0	7
NMHLD	55	96	1	288
NMTAP	55	192	3
NMTAP	55	288	3
NMHLD	56	0	6	288
NMTAP	56	96	4
NMTAP	56	192	4
EXTAP	56	288	1
EXTAP	57	48	1
EXTAP	57	48	6
NMTTP	57	192	0	E	1	M1
NMTTP	57	192	0	A	0	M1
NMTTP	57	192	7	A	0	M1
NMTTP	57	336	5	A	0	M1
NMTTP	57	336	6	E	1	M1
NMTTP	57	336	6	A	0	M1
NMTTP	58	96	1	A	0	M1
NMTTP	58	96	2	E	1	M1
NMTTP	58	96	2	A	0	M1
NMTTP	58	240	3	A	0	M1
NMTTP	58	240	4	E	1	M1
NMTTP	58	240	4	A	0	M1
NMTHO	59	0	0	288	C	0	M1
NMHLD	60	192	0	192
NMTAP	61	0	7
BRSTR	61	192	6
NMSCL	61	192	6	96	48	3
BRSTR	61	192	7
NMSI_	61	192	7	96	48	3
NMSTR	62	0	0
NMSI_	62	0	0	96	48	4
NMSTR	62	0	1
NMSCR	62	0	1	96	48	4
NMTAP	62	192	4
NMTAP	62	192	5
NMTAP	62	288	6
NMTAP	62	288	7
NMTAP	63	0	0
NMTAP	63	0	1
NMSTR	63	96	2
NMSV_	63	96	2	96	96	0
NMSTR	63	96	3
NMSCR	63	96	3	96	96	7
NMTAP	64	0	1
NMTAP	64	0	7
NMSTR	64	96	2
NMSI_	64	96	2	96	48	5
NMSTR	64	96	6
NMSI_	64	96	6	96	48	1
NMTAP	64	352	0
NMTAP	65	0	0
NMSTR	65	96	3
NMSCL	65	96	3	96	96	6
NMTAP	65	96	7
BRTAP	65	192	6
NMTAP	65	352	5
NMTAP	66	0	5
NMTAP	66	96	0
NMSTR	66	96	4
NMSCR	66	96	4	96	96	1
BRTAP	66	192	1
NMTAP	66	352	2
NMTAP	67	0	2
NMTAP	67	96	3
NMTAP	67	96	4
NMHLD	67	192	3	64
NMHLD	67	256	2	64
NMHLD	67	320	1	64
NMHLD	68	0	0	64
NMHLD	68	64	7	64
NMHLD	68	128	6	64
NMHLD	68	192	5	64
NMHLD	68	256	4	64
NMTAP	68	320	3
BRTAP	69	0	2
BRTAP	69	0	5
NMHLD	69	192	2	384
NMTTP	70	0	3	E	0	M1
NMHLD	70	192	3	384
NMTTP	71	0	4	E	0	M1
NMHLD	71	192	4	384
NMTTP	72	0	5	E	0	M1
NMHLD	72	192	5	192
NMTAP	73	0	2
NMSTR	73	192	3
NMSXR	73	192	3	96	192	0
NMSTR	73	192	4
NMSXL	73	192	4	96	192	7
BXTAP	74	192	0
NMTAP	74	256	0
NMTAP	74	288	7
NMTAP	74	352	7
NMTAP	75	0	0
NMTAP	75	64	0
NMTAP	75	96	1
NMTAP	75	160	1
NMTAP	75	192	2
NMTAP	75	256	2
NMTAP	75	288	3
NMTAP	75	352	3
NMTAP	76	0	4
NMTAP	76	64	4
NMTAP	76	96	4
NMTAP	76	96	5
NMTAP	76	192	7
NMTAP	76	256	7
NMTAP	76	288	0
NMTAP	76	352	0
NMTAP	77	0	7
NMTAP	77	64	7
NMTAP	77	96	6
NMTAP	77	160	6
NMTAP	77	192	5
NMTAP	77	256	5
NMTAP	77	288	4
NMTAP	77	352	4
NMTAP	78	0	3
NMTAP	78	64	3
NMTAP	78	96	2
NMTAP	78	96	3
NMHLD	78	192	1	64
NMHLD	78	192	4	96
NMHLD	79	0	3	96
NMHLD	79	0	6	64
NMHLD	79	192	2	64
NMHLD	79	192	4	96
NMHLD	80	0	3	96
NMHLD	80	0	5	64
NMHLD	80	192	3	384
NMTAP	80	192	4
NMTTP	81	0	3	E	0	M1
NMHLD	81	192	4	384
NMTTP	82	0	5	E	0	M1
NMHLD	82	192	2	384
NMTTP	83	0	2	E	0	M1
NMHLD	83	192	5	384
NMTTP	84	0	6	E	0	M1
NMHLD	84	192	1	384
NMTTP	85	0	3	E	0	M1
NMHLD	85	192	6	384
NMTTP	86	0	5	E	0	M1
NMTTP	86	192	2	B	0	M1
NMTTP	86	192	2	E	0	M1
NMTTP	86	192	3	E	0	M1
NMTTP	87	0	5	B	0	M1
NMTTP	87	0	5	E	0	M1
NMTTP	87	0	6	E	0	M1
NMTTP	87	192	3	B	0	M1
NMTTP	87	192	4	B	0	M1
NMTTP	87	192	4	E	0	M1
NMTHO	88	0	0	192	C	0	M1
BXTAP	88	288	0
BXTAP	88	288	7
NMSTR	89	0	1
NMSI_	89	0	1	96	48	4
NMSTR	89	0	6
NMSI_	89	0	6	96	48	3
NMTAP	89	192	4
NMTAP	89	192	5
NMTAP	89	288	0
NMTAP	89	288	1
NMTAP	90	0	6
NMTAP	90	0	7
NMTAP	90	96	2
NMSTR	90	96	3
NMSXL	90	96	3	96	192	3
NMSXR	90	96	3	96	192	3
NMSTR	91	96	1
NMSCL	91	96	1	96	192	3
NMTAP	91	96	5
NMTTP	91	192	3	B	0	M1
NMTTP	91	192	4	B	0	M1
NMTTP	91	192	4	E	1	M1
NMTAP	91	352	7
NMTAP	92	0	7
NMSTR	92	96	2
BRSV_	92	96	2	96	48	7
NMSTR	92	96	6
BRSCL	92	96	6	96	48	3
NMTAP	92	352	0
NMTAP	93	0	0
NMSTR	93	96	1
NMSCR	93	96	1	96	48	4
NMSTR	93	96	5
NMSV_	93	96	5	96	48	0
NMTAP	93	352	7
NMTAP	94	0	7
NMTAP	94	96	1
NMTAP	94	96	5
NMHLD	94	192	0	64
NMHLD	94	256	6	64
NMHLD	94	320	4	64
NMHLD	95	0	2	64
NMHLD	95	64	0	64
NMHLD	95	128	6	64
NMHLD	95	192	4	64
NMHLD	95	256	2	64
NMHLD	95	320	0	64
BRTAP	96	0	7
NMTAP	96	192	4
NMTAP	96	192	5
NMTAP	96	288	0
NMTAP	96	288	2
NMTAP	97	0	5
NMTAP	97	0	7
NMTAP	97	96	2
NMSTR	97	96	3
NMSF_	97	96	3	96	48	7
NMSTR	97	288	4
BRSF_	97	288	4	96	48	0
NMTAP	97	288	5
NMSTR	98	192	7
NMSLL	98	192	7	96	192	3
NMSTR	99	192	0
NMSLR	99	192	0	96	192	4
NMSTR	100	288	2
NMSCL	100	288	2	96	96	7
NMSTR	100	288	6
NMSCL	100	288	6	96	96	3
NMSTR	101	192	2
BRSI_	101	192	2	96	48	5
NMSTR	101	192	6
BRSI_	101	192	6	96	48	1

T_REC_TAP	231
T_REC_BRK	25
T_REC_XTP	7
T_REC_BXX	3
T_REC_HLD	61
T_REC_XHO	0
T_REC_BHO	0
T_REC_BXH	0
T_REC_STR	44
T_REC_BST	4
T_REC_XST	0
T_REC_XBS	0
T_REC_TTP	69
T_REC_THO	2
T_REC_SLD	44
T_REC_BSL	6
T_REC_ALL	496
T_NUM_TAP	351
T_NUM_BRK	38
T_NUM_HLD	63
T_NUM_SLD	44
T_NUM_ALL	496
T_JUDGE_TAP	383
T_JUDGE_HLD	280
T_JUDGE_SLD	50
T_JUDGE_ALL	713
TTM_EACHPAIRS	94
TTM_SCR_TAP	175500
TTM_SCR_BRK	98800
TTM_SCR_HLD	63000
TTM_SCR_SLD	66000
TTM_SCR_ALL	403300
TTM_SCR_S	387550
TTM_SCR_SS	399500
TTM_RAT_ACV	10095

