VERSION	0.00.00	1.04.00
FES_MODE	0
BPM_DEF	 82.500	190.000	190.000	 82.500
MET_DEF	4	4
RESOLUTION	384
CLK_DEF	384
COMPATIBLE_CODE	MA2

BPM	0	0	 82.500
BPM	6	96	190.000
MET	0	0	4	4
MET	6	0	4	1
MET	6	96	4	2
MET	6	288	4	4

NMTTP	2	0	1	E	0	M1
NMTTP	2	48	2	E	0	M1
NMTTP	2	96	3	E	0	M1
NMTTP	2	192	2	E	0	M1
NMTTP	2	240	3	E	0	M1
NMTTP	2	288	4	E	0	M1
NMTTP	3	0	3	E	0	M1
NMTTP	3	48	4	E	0	M1
NMTTP	3	96	5	E	0	M1
NMTTP	3	144	6	E	0	M1
NMTTP	3	192	1	B	0	M1
NMTTP	3	192	2	E	0	M1
NMTTP	3	288	5	B	0	M1
NMTTP	3	288	6	E	0	M1
NMTTP	4	0	1	E	0	M1
NMTTP	4	48	2	E	0	M1
NMTTP	4	96	3	E	0	M1
NMTTP	4	144	4	E	0	M1
NMTTP	4	192	5	E	0	M1
NMTTP	4	240	6	E	0	M1
NMTTP	4	288	7	E	0	M1
NMTTP	5	0	2	B	0	M1
NMTTP	5	0	2	E	0	M1
NMTTP	5	96	6	B	0	M1
NMTTP	5	96	6	E	0	M1
NMHLD	5	192	0	264
EXTAP	6	72	7
EXTAP	6	84	7
EXTAP	6	96	0
NMTAP	6	144	1
NMTAP	6	144	6
NMTAP	6	192	2
NMTAP	6	192	5
BRTAP	6	240	0
BRTAP	6	240	7
NMTAP	6	336	1
NMTAP	7	0	0
NMSTR	7	0	1
NMSCR	7	0	1	96	48	4
NMTAP	7	96	5
NMSTR	7	144	5
NMSI_	7	144	5	96	48	2
NMHLD	7	240	1	96
NMTAP	7	336	0
NMTAP	8	0	0
NMTAP	8	48	1
NMTAP	8	96	2
NMTAP	8	96	7
NMTAP	8	144	2
NMSTR	8	144	7
NMSCL	8	144	7	96	48	4
NMHLD	8	240	0	96
NMTAP	8	336	3
NMTAP	9	0	3
NMTAP	9	48	2
NMTAP	9	96	1
NMTAP	9	96	4
NMTAP	9	144	1
NMTAP	9	144	4
NMTAP	9	240	6
NMTAP	9	240	7
NMTAP	9	288	0
NMHLD	9	288	5	288
NMTAP	9	336	1
NMTAP	10	0	2
NMTAP	10	48	3
NMTAP	10	96	4
NMTAP	10	144	6
NMTAP	10	192	7
EXTAP	10	240	0
EXTAP	10	240	4
NMTAP	10	336	6
NMSTR	11	0	6
NMSCL	11	0	6	96	48	3
NMTAP	11	0	7
NMTAP	11	96	2
NMSTR	11	144	2
NMSI_	11	144	2	96	48	5
NMHLD	11	240	6	96
NMTAP	11	336	7
NMTAP	12	0	7
NMTAP	12	48	6
NMTAP	12	96	0
NMTAP	12	96	5
NMSTR	12	144	0
NMSCR	12	144	0	96	48	3
NMTAP	12	144	5
NMHLD	12	240	7	96
NMTAP	12	336	4
NMTAP	13	0	4
NMTAP	13	48	5
NMTAP	13	96	3
NMTAP	13	96	6
NMTAP	13	144	3
NMTAP	13	144	6
NMTAP	13	240	0
NMTAP	13	240	1
NMHLD	13	288	2	192
NMTAP	13	288	7
NMTAP	13	336	6
NMTAP	14	0	5
NMTAP	14	48	4
BRSTR	14	96	3
NMSI_	14	96	3	96	48	7
NMTAP	14	192	0
EXTAP	14	240	0
NMTAP	14	336	2
NMTAP	14	360	2
NMTAP	15	0	3
NMTAP	15	48	1
NMTAP	15	96	7
NMTAP	15	144	0
NMSTR	15	144	6
NMSI_	15	144	6	96	48	3
NMTAP	15	240	6
NMTAP	15	336	2
NMTAP	15	360	2
NMTAP	16	0	3
NMTAP	16	48	1
NMTAP	16	96	7
NMTAP	16	144	0
NMSTR	16	144	6
NMSCL	16	144	6	96	48	3
NMTAP	16	240	6
NMTAP	16	336	2
NMTAP	16	360	2
NMTAP	17	0	3
NMTAP	17	48	0
NMTAP	17	96	1
NMTAP	17	96	7
NMTAP	17	144	1
NMTAP	17	144	7
NMTAP	17	240	4
NMTAP	17	240	5
NMTAP	17	288	3
NMHLD	17	288	6	288
NMTAP	17	336	2
NMTAP	18	0	1
NMTAP	18	48	0
NMTAP	18	96	7
NMTAP	18	144	5
NMTAP	18	192	4
EXTAP	18	240	3
EXTAP	18	240	7
NMTAP	18	336	5
NMTAP	18	360	5
NMTAP	19	0	4
NMTAP	19	48	6
NMTAP	19	96	0
NMSTR	19	144	1
NMSI_	19	144	1	96	48	4
NMTAP	19	144	7
NMTAP	19	240	1
NMTAP	19	336	5
NMTAP	19	360	5
NMTAP	20	0	4
NMTAP	20	48	6
NMTAP	20	96	0
NMSTR	20	144	1
NMSCR	20	144	1	96	48	4
NMTAP	20	144	7
NMTAP	20	240	1
NMTAP	20	336	5
NMTAP	20	360	5
NMTAP	21	0	4
NMTAP	21	48	7
NMTAP	21	96	0
NMTAP	21	96	6
NMTAP	21	144	0
NMTAP	21	144	6
NMTAP	21	240	2
NMTAP	21	240	3
NMTAP	21	288	5
NMTAP	21	320	4
NMTAP	21	352	6
NMTAP	22	0	2
NMTAP	22	32	3
NMTAP	22	64	1
NMTAP	22	96	7
BRHLD	22	144	0	96
BRHLD	22	144	6	96
NMSTR	22	288	1
NMSI_	22	288	1	96	48	4
EXSTR	22	288	5
NMSV_	22	288	5	96	48	0
NMTAP	23	0	1
EXTAP	23	0	5
NMTAP	23	144	6
NMHLD	23	192	6	96
NMHLD	23	288	4	96
NMTAP	24	0	5
NMTAP	24	48	4
NMSTR	24	96	3
NMSCL	24	96	3	96	48	0
NMTAP	24	96	6
NMTAP	24	192	4
EXSTR	24	288	2
NMSV_	24	288	2	96	48	7
NMSTR	24	288	6
NMSI_	24	288	6	96	48	3
EXTAP	25	0	2
NMTAP	25	0	6
NMTAP	25	144	1
NMHLD	25	192	1	96
NMHLD	25	288	3	96
NMTAP	26	0	2
NMTAP	26	48	3
NMTAP	26	96	1
NMSTR	26	96	4
NMSCR	26	96	4	96	48	7
NMTAP	26	192	3
NMSTR	26	288	1
NMSI_	26	288	1	96	48	6
EXSTR	26	288	5
NMSI_	26	288	5	96	48	2
EXTAP	27	0	1
NMTAP	27	0	5
NMTAP	27	144	0
NMSTR	27	192	0
NMSI_	27	192	0	96	48	3
NMTAP	27	240	6
NMHLD	27	288	6	96
NMSTR	28	0	4
NMSI_	28	0	4	96	48	7
NMHLD	28	96	2	96
NMTAP	28	192	0
NMSTR	28	288	1
NMSCR	28	288	1	96	48	4
NMTAP	29	0	5
NMSTR	29	48	6
NMSCR	29	48	6	96	48	1
NMTAP	29	144	2
NMSTR	29	192	3
NMSCR	29	192	3	96	48	6
NMTAP	29	288	7
NMSTR	29	336	0
NMSCR	29	336	0	96	48	3
NMTAP	30	48	4
NMHLD	30	96	5	96
NMTAP	30	192	4
NMTAP	30	240	5
NMTAP	30	288	3
NMTAP	30	288	6
EXTAP	31	0	2
NMTAP	31	24	3
NMTAP	31	48	2
NMTAP	31	96	1
NMTAP	31	96	4
EXTAP	31	192	2
NMTAP	31	192	3
NMTAP	31	240	0
NMHLD	31	288	0	96
EXTAP	32	0	3
NMTAP	32	48	2
NMSTR	32	96	1
NMSI_	32	96	1	96	48	3
NMSTR	32	96	3
NMSI_	32	96	3	96	48	7
EXTAP	32	192	1
NMTAP	32	192	3
NMTAP	32	288	4
NMTAP	32	288	6
EXTAP	33	0	5
NMTAP	33	24	4
NMTAP	33	48	5
NMTAP	33	96	3
NMTAP	33	96	6
NMTAP	33	192	4
EXTAP	33	192	5
NMTAP	33	240	7
NMHLD	33	288	7	96
EXSTR	34	0	4
NMSI_	34	0	4	96	48	0
NMTAP	34	48	4
EXSTR	34	96	6
NMSI_	34	96	6	96	48	3
EXTAP	34	192	6
NMTAP	34	192	7
NMHLD	34	288	2	96
NMTAP	34	288	4
NMTAP	35	0	0
NMTAP	35	24	1
NMTAP	35	48	0
BRSTR	35	96	2
NMSCL	35	96	2	96	192	4
BRTAP	35	96	6
NMSTR	35	288	4
NMSCL	35	288	4	96	96	1
NMSTR	36	0	1
NMSCL	36	0	1	96	96	6
NMSTR	36	96	6
NMSCL	36	96	6	96	96	3
NMTAP	36	192	3
NMHLD	36	288	0	96
NMTAP	37	0	1
NMHLD	37	48	2	96
NMTAP	37	48	7
NMTAP	37	144	3
NMTAP	37	192	1
NMHLD	37	192	4	96
NMTAP	37	288	3
NMTAP	37	336	2
NMTAP	37	336	4
NMTAP	38	0	1
NMSTR	38	0	5
NMSXL	38	0	5	96	384	3
NMTTP	38	96	6	B	1	M1
BRHLD	38	288	1	384
NMHLD	39	288	3	192
NMHLD	40	96	4	192
NMTTP	40	288	7	E	0	M1
NMTTP	41	0	6	E	0	M1
NMTTP	41	96	5	E	0	M1
NMTTP	41	288	6	E	0	M1
NMTTP	42	0	5	E	0	M1
NMTTP	42	96	4	E	0	M1
NMTTP	42	288	5	E	0	M1
NMTTP	43	0	4	E	0	M1
NMTTP	43	96	3	E	0	M1
NMTTP	43	192	2	E	0	M1
NMTTP	43	288	5	B	0	M1
NMTTP	43	288	6	E	0	M1
NMTTP	44	96	1	B	0	M1
NMTTP	44	96	2	E	0	M1
NMTTP	44	288	6	D	0	M1
NMTTP	45	0	5	D	0	M1
NMTTP	45	96	4	D	0	M1
NMTTP	45	192	3	D	0	M1
NMTTP	45	288	2	D	0	M1
NMTAP	46	96	4
NMTAP	46	144	3
NMTAP	46	192	4
NMTAP	46	240	3
NMTAP	46	288	5
NMTAP	46	336	4
NMTAP	47	48	4
NMTAP	47	96	6
NMTAP	47	192	5
NMTAP	47	288	4
NMTAP	48	0	3
NMTAP	48	96	2
NMTAP	48	96	4
NMTAP	48	192	4
NMTAP	48	288	2
NMTAP	48	336	3
NMTAP	49	48	3
NMHLD	49	96	1	192
NMTAP	49	192	2
NMHLD	49	288	3	192
NMTAP	50	0	4
NMTAP	50	96	5
NMTAP	50	192	2
NMTAP	50	192	4
NMTAP	50	240	2
NMTAP	50	240	4
NMSTR	50	288	1
NMSI_	50	288	1	96	48	7
NMTAP	50	288	5
NMTAP	51	0	3
NMTAP	51	96	5
NMTAP	51	144	5
NMTAP	51	192	4
NMTAP	51	192	6
NMTAP	51	288	2
NMTAP	51	336	2
NMTAP	52	0	1
NMTAP	52	0	3
NMSTR	52	96	6
NMSI_	52	96	6	96	48	0
NMTAP	52	192	4
NMTAP	52	288	2
NMTAP	52	288	3
NMTAP	53	0	4
NMTAP	53	0	6
NMTAP	53	48	4
NMTAP	53	48	6
NMSTR	53	144	1
NMSI_	53	144	1	96	48	4
NMSTR	53	144	5
NMSI_	53	144	5	96	48	0
NMTAP	53	240	1
NMTAP	53	240	5
NMTAP	53	336	3
NMTAP	53	336	7
NMHLD	54	0	3	240
NMHLD	54	0	7	240
NMTTP	54	240	3	D	0	M1
NMTTP	54	240	7	D	1	M1
NMTTP	54	248	2	A	0	M1
NMTTP	54	248	6	A	0	M1
NMTTP	54	256	2	D	0	M1
NMTTP	54	256	6	D	0	M1
NMTTP	54	264	1	A	0	M1
NMTTP	54	264	5	A	0	M1
NMTTP	54	272	1	D	1	M1
NMTTP	54	272	5	D	0	M1
EXSTR	54	336	7
NMSI_	54	336	7	96	48	3
EXSTR	55	0	5
NMSI_	55	0	5	96	48	0
EXTAP	55	48	7
EXTAP	55	96	5
NMTAP	55	192	2
NMTAP	55	240	0
NMTAP	55	240	4
EXSTR	55	336	3
NMSI_	55	336	3	96	48	7
EXSTR	56	0	1
NMSI_	56	0	1	96	48	4
EXTAP	56	48	3
EXTAP	56	96	1
NMTAP	56	192	6
NMTAP	56	192	7
NMTAP	56	240	0
NMHLD	56	240	5	96
NMTAP	56	336	4
NMHLD	57	0	3	96
NMTAP	57	0	7
NMTAP	57	96	1
NMSTR	57	144	0
NMSCR	57	144	0	96	144	6
NMTAP	57	192	7
NMTAP	57	240	6
NMTAP	57	336	7
NMSTR	58	0	7
NMSF_	58	0	7	96	48	3
EXTAP	58	96	7
NMTAP	58	192	1
NMTAP	58	192	5
NMTAP	58	240	1
NMHLD	58	240	5	96
NMTAP	58	336	4
EXSTR	59	0	2
NMSI_	59	0	2	96	48	4
EXSTR	59	0	6
NMSI_	59	0	6	96	48	2
EXTAP	59	96	2
EXTAP	59	96	6
NMTAP	59	192	0
NMTAP	59	192	1
NMTAP	59	240	2
NMTAP	59	240	7
EXSTR	59	336	5
NMSI_	59	336	5	96	48	3
EXSTR	60	0	1
NMSI_	60	0	1	96	48	5
EXTAP	60	48	5
EXTAP	60	96	1
NMTAP	60	192	6
NMTAP	60	192	7
NMHLD	60	240	0	96
NMTAP	60	240	5
NMTAP	60	336	3
NMTAP	61	0	2
NMTAP	61	0	4
NMTAP	61	96	4
NMTAP	61	96	5
NMSTR	61	144	2
NMSCL	61	144	2	96	144	4
NMTAP	61	144	6
NMTTP	61	240	0	C	1	M1
NMHLD	62	0	7	96
NMTAP	62	96	4
NMTAP	62	144	4
NMTAP	62	192	3
BRSTR	62	240	1
NMSI_	62	240	1	96	48	4
BRTAP	62	240	5
EXSTR	62	336	4
NMSI_	62	336	4	96	48	2
EXSTR	63	0	6
BRSI_	63	0	6	96	48	3
CNSI_	63	96	2	0	48	7
EXTAP	63	96	6
NMTAP	63	192	1
NMTAP	63	192	5
NMTAP	63	240	1
NMSTR	63	240	5
NMSI_	63	240	5	96	48	3
EXTAP	63	336	2
EXSTR	64	0	0
BRSF_	64	0	0	96	48	4
CNSI_	64	0	3	0	48	6
EXTAP	64	96	0
NMTAP	64	192	1
NMTAP	64	192	7
NMHLD	64	240	2	96
NMTAP	64	240	6
NMTAP	64	336	3
NMTAP	65	0	0
NMHLD	65	0	4	96
NMTAP	65	96	6
NMSTR	65	144	6
NMSCR	65	144	6	96	144	5
EXTAP	65	240	5
EXTAP	65	240	6
NMHLD	66	0	0	96
NMTAP	66	96	4
NMSTR	66	144	2
NMSXR	66	144	2	96	384	7
NMSTR	66	144	6
NMSXR	66	144	6	96	384	3
BRTAP	66	240	2
BRTAP	66	240	6
NMSTR	68	0	1
NMSI_	68	0	1	96	48	4
NMTAP	68	0	4
NMTAP	68	96	1
NMSTR	68	96	6
NMSI_	68	96	6	96	48	2
NMTAP	68	192	0
NMTAP	68	192	6
NMTAP	68	240	0
NMTAP	68	336	2
NMTAP	68	336	3
NMTAP	69	0	1
NMTAP	69	0	4
NMTAP	69	96	3
NMTAP	69	96	7
NMSTR	69	192	0
NMSI_	69	192	0	96	48	4
NMSTR	69	192	1
NMSI_	69	192	1	96	48	4
NMTAP	69	288	0
NMTAP	69	288	1
NMSTR	70	0	6
NMSI_	70	0	6	96	48	3
NMSTR	70	0	7
NMSI_	70	0	7	96	48	3
NMTAP	70	96	6
NMTAP	70	96	7
NMTAP	70	192	1
NMTAP	70	192	5
NMTAP	70	288	2
NMTAP	70	336	2
NMTAP	71	0	4
NMTAP	71	48	3
NMTAP	71	96	4
NMTAP	71	96	5
NMHLD	71	192	6	384
NMTAP	72	0	4
NMTAP	72	96	3
NMHLD	72	192	2	96
NMTAP	72	288	5
NMTAP	72	336	5
NMTAP	73	0	3
NMTAP	73	48	4
NMSTR	73	96	2
NMSI_	73	96	2	96	48	7
NMSTR	73	96	3
NMSI_	73	96	3	96	48	6
BRTAP	73	288	0
BRTAP	73	288	5
NMSTR	74	96	7
NMSI_	74	96	7	96	48	3
NMTAP	74	192	0
NMTAP	74	192	7
NMSTR	74	288	1
NMSCR	74	288	1	96	48	4
NMTAP	75	0	4
NMSTR	75	96	6
NMSCR	75	96	6	96	48	1
NMTAP	75	192	1
NMSTR	75	288	3
NMSCR	75	288	3	96	48	6
NMTAP	76	0	6
NMSTR	76	96	0
NMSCR	76	96	0	96	48	3
NMTAP	76	192	3
NMTAP	76	288	4
NMTAP	76	288	5
NMTAP	77	0	6
NMTAP	77	0	7
NMTAP	77	48	6
NMTAP	77	48	7
NMHLD	77	96	0	96
NMHLD	77	96	5	96
NMTAP	77	288	3
NMTAP	77	288	4
NMTAP	78	0	0
NMTAP	78	0	1
NMTAP	78	48	0
NMTAP	78	48	1
NMHLD	78	96	2	96
NMHLD	78	96	7	96
NMTAP	78	288	5
NMTAP	78	336	5
NMTAP	79	0	3
NMTAP	79	48	4
NMTAP	79	96	2
NMTAP	79	96	3
NMHLD	79	192	1	384
NMTAP	80	0	3
NMTAP	80	96	4
NMHLD	80	192	5	96
NMTAP	80	288	2
NMTAP	80	336	2
NMTAP	81	0	4
NMTAP	81	48	3
NMSTR	81	96	4
NMSI_	81	96	4	96	48	1
NMSTR	81	96	5
NMSI_	81	96	5	96	48	0
BRTAP	81	288	2
BRTAP	81	288	7
NMTAP	82	96	3
NMSTR	82	96	5
NMSI_	82	96	5	96	48	0
NMSTR	82	192	1
NMSI_	82	192	1	96	48	4
NMTAP	82	192	5
NMTAP	82	288	1
NMSTR	82	288	7
NMSI_	82	288	7	96	48	3
NMTAP	83	0	0
NMTAP	83	0	7
NMTAP	83	96	2
NMTAP	83	120	4
NMTAP	83	144	2
NMTAP	83	168	4
NMTAP	83	192	1
NMTAP	83	216	5
NMTAP	83	240	1
NMTAP	83	264	5
BRHLD	83	288	0	192
BXHLD	83	288	6	192
NMTTP	84	240	0	C	1	M1
NMTTP	84	240	1	B	0	M1
NMTTP	84	240	1	A	0	M1
NMTTP	84	240	5	B	0	M1
NMTTP	84	240	5	A	0	M1
NMTAP	84	336	7
NMSTR	85	0	7
NMSI_	85	0	7	96	48	3
NMHLD	85	96	0	96
NMTAP	85	192	4
NMSTR	85	240	4
NMSCR	85	240	4	96	48	7
NMTAP	85	336	0
NMSTR	86	0	0
NMSCR	86	0	0	96	48	3
NMHLD	86	96	6	96
NMTAP	86	192	4
NMTAP	86	224	4
NMTAP	86	256	5
NMHLD	86	288	1	96
NMTAP	87	0	3
NMTAP	87	32	3
NMTAP	87	64	2
NMSTR	87	96	5
NMSCL	87	96	5	96	48	2
NMTAP	87	192	0
NMHLD	87	288	1	48
NMHLD	87	336	3	48
NMHLD	88	0	4	48
NMHLD	88	48	6	48
NMSTR	88	96	0
NMSI_	88	96	0	96	48	4
NMTAP	88	288	3
NMHLD	88	288	5	96
NMTAP	89	0	7
NMTAP	89	48	0
NMTAP	89	48	6
NMHLD	89	96	1	96
NMTAP	89	96	5
NMTAP	89	192	0
NMTAP	89	240	2
NMHLD	89	240	7	96
NMTAP	89	336	5
NMTAP	90	0	3
NMTAP	90	48	1
NMTAP	90	96	6
NMTAP	90	96	7
NMTAP	90	144	5
NMTAP	90	192	0
NMTAP	90	192	1
NMTAP	90	240	2
NMTAP	90	288	6
NMTAP	90	320	4
NMTAP	90	352	5
NMTAP	91	0	1
NMTAP	91	32	3
NMTAP	91	64	2
NMTAP	91	96	7
NMTAP	91	128	5
NMTAP	91	160	6
NMTAP	91	192	0
NMTAP	91	224	2
NMTAP	91	256	1
BRTAP	91	288	7
NMTAP	91	336	4
NMTAP	91	360	4
NMTAP	92	0	5
NMTAP	92	48	3
NMTAP	92	48	6
NMSTR	92	96	1
NMSI_	92	96	1	96	48	4
NMSTR	92	144	5
NMSI_	92	144	5	96	48	0
NMTAP	92	192	1
NMTAP	92	240	5
NMTAP	92	288	2
NMTAP	92	312	2
NMTAP	92	336	3
NMSTR	93	0	0
BRSF_	93	0	0	96	48	4
NMTAP	93	0	4
NMTTP	93	96	0	C	1	M1

T_REC_TAP	377
T_REC_BRK	11
T_REC_XTP	32
T_REC_BXX	0
T_REC_HLD	53
T_REC_XHO	0
T_REC_BHO	4
T_REC_BXH	1
T_REC_STR	64
T_REC_BST	3
T_REC_XST	16
T_REC_XBS	0
T_REC_TTP	62
T_REC_THO	0
T_REC_SLD	80
T_REC_BSL	3
T_REC_ALL	706
T_NUM_TAP	551
T_NUM_BRK	22
T_NUM_HLD	53
T_NUM_SLD	80
T_NUM_ALL	706
T_JUDGE_TAP	565
T_JUDGE_HLD	167
T_JUDGE_SLD	83
T_JUDGE_ALL	815
TTM_EACHPAIRS	130
TTM_SCR_TAP	275500
TTM_SCR_BRK	57200
TTM_SCR_HLD	53000
TTM_SCR_SLD	120000
TTM_SCR_ALL	505700
TTM_SCR_S	488400
TTM_SCR_SS	503500
TTM_RAT_ACV	10043

