VERSION	0.00.00	1.04.00
FES_MODE	0
BPM_DEF	 82.500	190.000	190.000	 82.500
MET_DEF	4	4
RESOLUTION	384
CLK_DEF	384
COMPATIBLE_CODE	MA2

BPM	0	0	 82.500
BPM	6	96	190.000
MET	0	0	4	4
MET	6	0	4	1
MET	6	96	4	2
MET	6	288	4	4

NMTTP	2	0	0	C	0	M1
NMTTP	2	0	1	E	0	M1
NMTTP	2	192	0	C	0	M1
NMTTP	2	192	2	E	0	M1
NMTTP	3	0	3	E	0	M1
NMTTP	3	192	4	E	0	M1
NMTTP	4	0	5	E	0	M1
NMTTP	4	192	0	C	0	M1
NMTTP	4	192	6	E	0	M1
NMTTP	5	0	0	C	0	M1
NMTTP	5	0	7	E	0	M1
NMTHO	5	192	0	192	C	0	M1
BXTAP	6	240	0
BXTAP	6	240	7
EXTAP	6	336	1
EXHLD	7	0	1	864
NMTAP	7	96	0
NMTAP	7	192	0
NMTAP	7	288	2
NMTAP	8	0	2
NMTAP	8	96	3
NMTAP	8	192	3
NMTAP	8	288	2
NMTAP	9	0	2
NMTAP	9	96	0
NMTAP	9	192	0
NMTAP	9	192	1
NMTAP	9	288	2
NMTAP	9	336	2
NMTAP	10	0	0
NMTAP	10	48	0
NMTAP	10	96	1
NMTAP	10	144	1
BXTAP	10	240	0
BXTAP	10	240	7
NMTAP	10	336	6
NMHLD	11	0	6	864
NMTAP	11	96	7
NMTAP	11	192	7
NMTAP	11	288	5
NMTAP	12	0	5
NMTAP	12	96	4
NMTAP	12	192	4
NMTAP	12	288	5
NMTAP	13	0	5
NMTAP	13	96	7
NMTAP	13	192	6
NMTAP	13	192	7
NMTAP	13	288	0
NMTAP	13	336	0
NMSTR	14	0	7
NMSI_	14	0	7	96	48	3
BXTAP	14	240	2
BXTAP	14	240	4
NMTAP	14	336	1
NMHLD	15	0	1	192
NMTAP	15	96	0
NMHLD	15	192	7	192
NMTAP	15	288	0
NMHLD	16	0	2	192
NMTAP	16	96	0
NMHLD	16	192	3	192
NMTAP	16	288	0
NMHLD	17	0	4	96
NMTAP	17	96	7
NMTAP	17	192	4
NMTAP	17	192	5
NMTAP	17	288	2
NMTAP	17	336	2
NMTAP	18	0	3
NMTAP	18	48	3
NMTAP	18	96	1
NMTAP	18	144	1
BRTAP	18	240	0
BRTAP	18	240	7
NMTAP	18	336	6
NMHLD	19	0	6	192
NMTAP	19	96	7
NMHLD	19	192	0	192
NMTAP	19	288	7
NMHLD	20	0	5	96
NMTAP	20	96	7
NMTAP	20	192	0
NMTAP	20	192	6
NMTAP	20	240	0
NMTAP	20	240	6
NMTAP	20	336	1
NMTAP	21	0	0
NMTAP	21	0	1
NMTAP	21	96	6
NMTAP	21	144	6
NMTAP	21	144	7
NMTAP	21	240	0
NMTAP	21	288	0
NMTAP	21	288	7
NMTAP	22	0	3
NMTAP	22	0	4
BRTAP	22	96	1
BRTAP	22	96	6
NMTAP	22	288	2
NMTAP	22	336	2
NMTAP	23	0	3
NMTAP	23	96	4
NMTAP	23	144	4
NMTAP	23	192	3
NMTAP	23	288	1
NMTAP	23	336	1
NMTAP	24	0	3
NMTAP	24	48	3
NMSTR	24	96	2
NMSI_	24	96	2	96	48	4
NMTAP	24	288	5
NMTAP	24	336	5
NMTAP	25	0	4
NMTAP	25	96	3
NMTAP	25	144	3
NMTAP	25	192	4
NMTAP	25	288	6
NMTAP	25	336	6
NMTAP	26	0	4
NMTAP	26	48	4
NMSTR	26	96	5
NMSI_	26	96	5	96	48	3
NMTAP	26	288	1
NMTAP	26	336	1
NMTAP	27	0	3
NMTAP	27	96	6
NMTAP	27	144	6
NMTAP	27	192	4
NMTAP	27	288	2
NMTAP	27	336	2
NMTAP	28	0	0
NMTAP	28	96	5
NMTAP	28	144	5
NMTAP	28	192	7
NMHLD	28	288	0	96
NMHLD	28	288	6	96
NMHLD	29	48	1	96
NMHLD	29	48	5	96
NMSTR	29	192	2
NMSV_	29	192	2	96	192	3
NMSTR	29	192	4
NMSV_	29	192	4	96	192	3
CNSI_	30	96	3	0	96	1
CNSI_	30	96	3	0	96	5
NMTAP	30	288	6
NMTAP	30	336	6
NMTAP	31	0	5
NMTAP	31	0	7
NMTAP	31	96	2
NMTAP	31	144	2
NMTAP	31	192	1
NMTAP	31	192	3
NMTAP	31	288	6
NMTAP	31	336	6
NMTAP	32	0	7
NMTAP	32	48	7
NMSTR	32	96	5
NMSCR	32	96	5	96	48	0
NMTAP	32	288	1
NMTAP	32	336	1
NMTAP	33	0	0
NMTAP	33	0	2
NMTAP	33	96	5
NMTAP	33	144	5
NMTAP	33	192	4
NMTAP	33	192	6
NMTAP	33	288	1
NMTAP	33	336	1
NMTAP	34	0	0
NMTAP	34	48	0
NMSTR	34	96	2
NMSCR	34	96	2	96	48	5
NMHLD	34	288	6	96
NMHLD	35	0	7	96
NMHLD	35	96	0	96
NMHLD	35	192	1	96
NMHLD	35	288	2	96
NMHLD	36	0	3	96
NMTAP	36	96	4
NMTAP	36	192	3
NMTAP	36	192	5
EXSTR	36	288	6
NMSI_	36	288	6	96	48	2
EXSTR	37	48	0
NMSI_	37	48	0	96	48	4
EXSTR	37	192	7
NMSI_	37	192	7	96	48	3
EXSTR	37	336	1
NMSI_	37	336	1	96	48	5
NMTAP	38	96	6
NMTAP	38	192	4
NMTAP	38	192	6
NMTTP	38	288	0	C	1	M1
NMTTP	38	288	3	B	0	M1
NMTTP	38	288	3	A	0	M1
NMTTP	38	288	7	B	0	M1
NMTTP	38	288	7	A	0	M1
NMHLD	42	288	2	384
NMHLD	43	288	3	384
NMHLD	44	288	4	384
NMTAP	45	288	5
NMTAP	46	96	3
NMTAP	46	96	5
NMTAP	46	288	3
NMHLD	46	288	4	384
NMTTP	47	96	6	E	0	M1
NMTAP	47	288	3
NMHLD	48	0	3	288
NMTTP	48	96	2	E	0	M1
NMHLD	48	288	5	384
NMTTP	49	96	0	E	0	M1
NMTAP	49	288	2
NMHLD	50	0	2	96
NMTTP	50	96	0	E	0	M1
NMTAP	50	288	1
NMTAP	51	0	0
NMTAP	51	0	1
NMTAP	51	96	6
NMTAP	51	144	6
NMTAP	51	192	6
NMTAP	51	192	7
NMTAP	51	288	1
NMTAP	52	0	0
NMTAP	52	0	1
NMTAP	52	96	6
NMTAP	52	144	6
NMTAP	52	192	6
NMTAP	52	192	7
NMTAP	52	288	1
NMTAP	52	288	3
NMTAP	53	0	0
NMTAP	53	0	7
NMTAP	53	48	0
NMTAP	53	48	7
NMTAP	53	144	4
NMTAP	53	144	6
NMTAP	53	240	1
NMTAP	53	240	3
NMTAP	53	336	3
NMTAP	53	336	4
NMTAP	54	0	3
NMTAP	54	0	4
NMTAP	54	96	2
NMTAP	54	96	5
NMTAP	54	144	2
NMTAP	54	144	5
BRTAP	54	240	0
BRTAP	54	240	7
NMTAP	54	336	0
NMTAP	54	336	1
NMSTR	55	0	0
NMSI_	55	0	0	96	48	4
NMSTR	55	0	1
NMSI_	55	0	1	96	48	4
NMTAP	55	192	5
NMTAP	55	240	5
NMTAP	55	336	6
NMTAP	55	336	7
NMSTR	56	0	6
NMSI_	56	0	6	96	48	3
NMSTR	56	0	7
NMSI_	56	0	7	96	48	3
NMTAP	56	192	2
NMTAP	56	240	2
NMTAP	56	336	0
NMTAP	56	336	1
NMTAP	57	0	0
NMTAP	57	0	1
NMTAP	57	96	7
NMSTR	57	144	7
NMSCL	57	144	7	96	144	1
NMTTP	57	240	3	B	0	M1
NMTTP	57	240	4	B	0	M1
NMTTP	57	240	4	E	1	M1
NMTAP	58	96	0
NMTAP	58	96	1
NMTAP	58	192	0
NMTAP	58	192	7
NMTAP	58	240	0
NMTAP	58	240	7
NMTAP	58	336	6
NMTAP	58	336	7
NMSTR	59	0	6
NMSI_	59	0	6	96	48	3
NMSTR	59	0	7
NMSI_	59	0	7	96	48	3
NMTAP	59	192	2
NMTAP	59	240	2
NMTAP	59	336	0
NMTAP	59	336	1
NMSTR	60	0	0
NMSI_	60	0	0	96	48	4
NMSTR	60	0	1
NMSI_	60	0	1	96	48	4
NMTAP	60	192	5
NMSTR	60	240	5
NMSCR	60	240	5	96	48	0
NMTAP	60	336	1
NMSTR	61	0	1
NMSCR	61	0	1	96	48	4
NMTAP	61	96	6
NMSTR	61	144	6
NMSXL	61	144	6	96	240	3
BRTAP	61	240	2
NMTAP	62	96	1
NMTAP	62	192	0
NMTAP	62	192	7
NMTAP	62	240	0
NMTAP	62	240	7
NMTAP	62	336	4
NMTAP	62	336	5
NMSTR	63	0	4
NMSI_	63	0	4	96	48	0
NMSTR	63	0	5
NMSI_	63	0	5	96	48	7
NMTAP	63	192	1
NMTAP	63	240	1
NMTAP	63	336	2
NMTAP	63	336	3
NMSTR	64	0	2
NMSI_	64	0	2	96	48	0
NMSTR	64	0	3
NMSI_	64	0	3	96	48	7
NMTAP	64	192	6
NMTAP	64	240	6
NMTAP	64	336	0
NMTAP	64	336	5
NMTAP	65	0	0
NMTAP	65	0	5
NMTAP	65	96	2
NMTAP	65	96	3
NMSTR	65	144	2
NMSCL	65	144	2	96	144	7
NMSTR	65	144	3
NMSCR	65	144	3	96	144	6
NMTAP	66	96	6
NMTAP	66	96	7
NMTAP	66	144	6
NMTAP	66	144	7
BXTAP	66	240	0
BXTAP	66	240	5
NMTAP	66	336	6
NMTAP	66	336	7
NMTAP	67	0	6
NMTAP	67	0	7
NMTAP	67	96	4
NMTAP	67	96	5
NMTAP	67	192	2
NMTAP	67	192	3
NMTAP	67	288	0
NMTAP	67	288	1
NMTAP	68	0	6
NMTAP	68	0	7
NMTAP	68	96	4
NMTAP	68	96	5
NMTAP	68	192	2
NMTAP	68	192	3
NMTAP	68	288	0
NMSTR	68	288	1
NMSI_	68	288	1	96	48	4
NMTAP	69	0	7
NMSTR	69	96	6
NMSI_	69	96	6	96	48	2
NMTAP	69	192	7
NMSTR	69	288	0
NMSF_	69	288	0	96	48	4
BRTAP	70	96	2
BRTAP	70	96	6
NMTAP	70	288	7
NMTAP	71	0	7
NMSTR	71	96	7
NMSCL	71	96	7	96	120	3
NMTAP	72	0	0
NMSTR	72	96	0
NMSLR	72	96	0	96	120	4
NMTAP	73	0	6
NMSTR	73	96	6
NMSCR	73	96	6	96	96	1
NMSTR	73	288	2
NMSCR	73	288	2	96	96	5
NMTAP	74	192	6
NMHLD	74	288	6	96
NMHLD	75	0	7	96
NMHLD	75	96	0	96
NMTAP	75	192	1
NMHLD	75	288	2	96
NMHLD	76	0	0	96
NMHLD	76	96	7	96
NMSTR	76	192	5
NMSCR	76	192	5	96	192	2
NMTAP	77	192	3
NMTAP	77	192	4
NMSTR	77	240	3
NMSXR	77	240	3	96	240	3
NMSTR	77	240	4
NMSXL	77	240	4	96	240	4
NMTAP	78	288	4
NMTAP	79	0	4
NMSTR	79	96	4
NMSCR	79	96	4	96	120	0
NMTAP	80	0	3
NMSTR	80	96	3
NMSLL	80	96	3	96	120	7
NMTAP	81	0	5
NMSTR	81	96	5
NMSCL	81	96	5	96	96	2
NMSTR	81	288	1
NMSCL	81	288	1	96	96	6
NMTAP	82	192	5
NMTAP	82	288	4
NMTAP	82	288	6
NMTAP	83	0	3
NMTAP	83	0	5
NMTAP	83	96	2
NMTAP	83	96	4
NMSTR	83	192	1
NMSXL	83	192	1	96	192	4
NMSTR	83	192	5
NMSXL	83	192	5	96	192	0
BRHLD	84	240	2	96
BRTAP	84	240	6
NMTAP	84	336	0
NMTAP	85	0	0
NMTAP	85	96	1
NMTAP	85	96	7
NMTAP	85	192	6
NMHLD	85	240	6	96
NMTAP	85	336	7
NMTAP	86	0	7
NMTAP	86	96	0
NMTAP	86	96	5
NMTAP	86	192	2
NMHLD	86	240	2	96
NMTAP	86	336	3
NMTAP	87	0	3
NMTAP	87	96	1
NMTAP	87	96	4
NMTAP	87	192	5
NMHLD	87	240	5	96
NMTAP	87	336	4
NMTAP	88	0	4
NMTAP	88	96	3
NMTAP	88	96	6
NMTAP	88	192	1
NMHLD	88	240	1	96
NMTAP	88	336	2
NMTAP	89	0	2
NMTAP	89	96	0
NMTAP	89	96	3
NMTAP	89	192	6
NMHLD	89	240	6	96
NMTAP	89	336	5
NMTAP	90	0	5
NMTAP	90	96	4
NMTAP	90	96	7
NMTAP	90	192	2
NMHLD	90	240	2	96
NMTAP	90	336	0
NMTAP	91	0	0
NMTAP	91	48	3
NMTAP	91	96	3
NMTAP	91	144	5
NMTAP	91	192	5
NMTAP	91	240	7
NMHLD	91	288	7	96
NMTAP	92	0	6
NMTAP	92	96	0
NMTAP	92	96	7
NMTAP	92	144	0
NMTAP	92	144	7
NMTAP	92	192	0
NMTAP	92	192	7
NMHLD	92	240	0	144
NMHLD	92	240	7	144
BRSTR	93	96	2
BRSUR	93	96	2	96	1248	4
BRSTR	93	96	5
BRSUL	93	96	5	96	1248	3
CNSCL	96	288	3	0	1536	4
CNSCR	96	288	4	0	1536	3

T_REC_TAP	297
T_REC_BRK	10
T_REC_XTP	1
T_REC_BXX	8
T_REC_HLD	41
T_REC_XHO	1
T_REC_BHO	1
T_REC_BXH	0
T_REC_STR	41
T_REC_BST	2
T_REC_XST	4
T_REC_XBS	0
T_REC_TTP	23
T_REC_THO	1
T_REC_SLD	45
T_REC_BSL	2
T_REC_ALL	477
T_NUM_TAP	366
T_NUM_BRK	23
T_NUM_HLD	43
T_NUM_SLD	45
T_NUM_ALL	477
T_JUDGE_TAP	386
T_JUDGE_HLD	174
T_JUDGE_SLD	47
T_JUDGE_ALL	607
TTM_EACHPAIRS	93
TTM_SCR_TAP	183000
TTM_SCR_BRK	59800
TTM_SCR_HLD	43000
TTM_SCR_SLD	67500
TTM_SCR_ALL	353300
TTM_SCR_S	340500
TTM_SCR_SS	351000
TTM_RAT_ACV	10065

