VERSION	0.00.00	1.04.00
FES_MODE	0
BPM_DEF	166.000	166.000	166.000	166.000
MET_DEF	4	4
RESOLUTION	384
CLK_DEF	384
COMPATIBLE_CODE	MA2

BPM	0	0	166.000
MET	0	0	4	4

NMTAP	2	0	1
NMTAP	2	0	4
NMTAP	2	48	1
NMTAP	2	48	4
NMTAP	2	96	3
NMTAP	2	120	2
NMHLD	2	168	1	120
NMHLD	2	168	4	120
NMTAP	3	0	3
NMTAP	3	0	6
NMTAP	3	48	3
NMTAP	3	48	6
NMTAP	3	96	4
NMTAP	3	120	5
NMTAP	3	168	3
NMHLD	3	168	6	120
NMSTR	3	288	4
NMSCL	3	288	4	96	192	5
NMTAP	3	336	3
NMHLD	4	0	2	192
NMSTR	4	288	1
NMSI_	4	288	1	96	48	4
NMSTR	4	288	4
NMSI_	4	288	4	96	48	0
NMTAP	5	0	1
NMTAP	5	0	4
NMSTR	5	96	3
NMSI_	5	96	3	96	48	7
NMSTR	5	96	6
NMSI_	5	96	6	96	48	3
NMTAP	5	192	3
NMTAP	5	192	6
NMTAP	5	288	0
NMTAP	5	288	4
NMTAP	6	0	5
NMHLD	6	0	7	72
NMHLD	6	72	0	72
NMTAP	6	144	1
NMHLD	6	192	0	72
NMTAP	6	192	2
NMHLD	6	264	7	72
NMTAP	6	336	6
NMHLD	7	0	5	48
NMHLD	7	0	6	48
NMHLD	7	72	6	48
NMHLD	7	72	7	48
NMTAP	7	144	0
NMTAP	7	144	7
NMHLD	7	192	1	48
NMHLD	7	192	2	48
NMHLD	7	264	0	48
NMHLD	7	264	1	48
NMTAP	7	336	0
NMTAP	7	336	7
NMTAP	8	0	5
NMTAP	8	24	4
NMTAP	8	48	5
NMTAP	8	72	2
NMTAP	8	96	3
NMTAP	8	120	2
NMTAP	8	144	6
NMTAP	8	168	4
NMTAP	8	192	5
NMTAP	8	216	1
NMTAP	8	240	3
NMTAP	8	264	2
NMTAP	8	288	3
NMTAP	8	288	4
NMTAP	8	368	3
NMTAP	9	0	4
NMTAP	9	16	3
NMTAP	9	32	4
NMTAP	9	48	3
NMTAP	9	64	4
NMTAP	9	80	3
NMTAP	9	96	4
NMTAP	9	112	3
NMTAP	9	128	4
NMTAP	9	144	3
NMTAP	9	160	4
NMTAP	9	176	3
NMTAP	9	192	4
NMTAP	9	208	3
NMTAP	9	224	4
EXTAP	9	240	3
EXTAP	9	252	2
EXTAP	9	264	1
EXTAP	9	276	0
EXSTR	9	288	7
NMSV_	9	288	7	96	96	4
EXHLD	10	0	5	672
CNSV_	10	96	4	0	96	1
NMSTR	10	288	1
BRSI_	10	288	1	96	64	3
CNSV_	11	64	3	0	96	4
CNSI_	11	160	4	0	80	6
BRTAP	11	288	7
NMSTR	12	0	0
NMSV_	12	0	0	96	48	3
NMTAP	12	24	7
NMTAP	12	48	1
NMTAP	12	72	0
NMTAP	12	120	2
NMTAP	12	168	2
NMSTR	12	192	4
NMSV_	12	192	4	96	48	7
NMTAP	12	216	3
NMTAP	12	240	5
NMTAP	12	264	4
NMTAP	12	312	6
NMTAP	12	360	6
NMSTR	13	0	0
NMSI_	13	0	0	96	48	4
NMTAP	13	24	7
NMTAP	13	48	1
NMTAP	13	72	0
NMTAP	13	120	2
NMTAP	13	168	2
NMTAP	13	192	6
NMTAP	13	216	6
NMTAP	13	240	4
NMTAP	13	264	5
NMTAP	13	288	2
NMTAP	13	312	2
NMTAP	13	336	3
NMTAP	13	360	1
NMSTR	14	0	7
NMSV_	14	0	7	96	48	4
NMTAP	14	24	0
NMTAP	14	48	6
NMTAP	14	72	7
NMTAP	14	120	5
NMTAP	14	168	5
NMSTR	14	192	3
NMSV_	14	192	3	96	48	0
NMTAP	14	216	4
NMTAP	14	240	2
NMTAP	14	264	3
NMTAP	14	312	1
NMTAP	14	360	1
NMHLD	15	0	0	48
NMHLD	15	0	2	48
NMHLD	15	72	4	48
NMHLD	15	72	5	48
NMHLD	15	144	0	48
NMHLD	15	144	6	48
NMHLD	15	216	1	48
NMHLD	15	216	3	48
NMTAP	15	288	3
NMTAP	15	288	4
NMTAP	15	336	2
NMTAP	15	336	5
NMTAP	16	0	0
NMSTR	16	0	7
NMSF_	16	0	7	96	48	3
BRTAP	16	96	7
NMSTR	16	192	2
NMSI_	16	192	2	96	48	6
NMTAP	16	216	3
NMTAP	16	240	1
NMTAP	16	264	2
NMTAP	16	312	0
NMTAP	16	360	0
NMSTR	17	0	5
NMSI_	17	0	5	96	48	1
NMTAP	17	24	4
NMTAP	17	48	6
NMTAP	17	72	5
NMTAP	17	120	7
NMTAP	17	168	7
NMTAP	17	192	0
NMTAP	17	216	6
NMTAP	17	240	2
NMTAP	17	264	2
NMSTR	17	288	4
NMSI_	17	288	4	96	48	0
NMHLD	18	0	1	192
NMTAP	18	0	4
NMTAP	18	192	3
NMTAP	18	240	0
NMTAP	18	240	4
NMTAP	18	264	0
NMTAP	18	264	4
NMTAP	18	312	2
NMTAP	18	336	3
NMTAP	18	360	2
BRTAP	19	0	1
BRTAP	19	0	4
NMTAP	19	48	4
NMTAP	19	48	5
BRTAP	19	72	3
BRTAP	19	72	6
NMTAP	19	120	0
NMTAP	19	120	7
BRTAP	19	144	1
BRTAP	19	144	6
NMTAP	19	240	3
NMTAP	19	264	4
NMTAP	19	288	3
NMTAP	19	336	0
NMTAP	19	336	6
NMSTR	20	0	1
NMSI_	20	0	1	96	48	4
NMSTR	20	0	5
BRSI_	20	0	5	96	48	0
BRTAP	20	96	1
BRTAP	20	96	5
NMTAP	20	192	3
NMHLD	20	192	7	72
NMTAP	20	264	5
NMHLD	20	288	7	48
NMTAP	20	336	0
NMTAP	21	0	0
NMHLD	21	0	7	72
NMTAP	21	72	6
NMHLD	21	96	7	48
NMTAP	21	144	4
NMSTR	21	192	4
NMSCL	21	192	4	96	48	1
NMSTR	21	192	7
NMSI_	21	192	7	96	48	3
NMHLD	22	0	0	72
NMTAP	22	0	4
NMTAP	22	72	2
NMHLD	22	96	0	48
NMTAP	22	144	7
NMHLD	22	192	0	72
NMTAP	22	192	7
NMTAP	22	264	1
NMHLD	22	288	0	48
NMTAP	22	336	4
NMTAP	23	0	1
NMTAP	23	0	5
NMTAP	23	48	1
NMTAP	23	48	5
NMTAP	23	96	1
NMHLD	23	96	5	96
NMTAP	23	192	0
NMTAP	23	216	7
NMTAP	23	240	6
NMTAP	23	264	5
NMTAP	23	288	0
NMTAP	23	288	4
NMTAP	23	312	3
NMTAP	23	336	2
NMTAP	23	360	1
NMSTR	24	0	0
NMSI_	24	0	0	96	48	3
NMSTR	24	0	4
BRSV_	24	0	4	96	48	7
BRTAP	24	96	0
BRTAP	24	96	4
NMTAP	24	192	2
NMHLD	24	192	6	72
NMTAP	24	264	0
NMHLD	24	288	5	48
NMTAP	24	336	7
NMHLD	25	0	0	72
NMTAP	25	0	5
NMTAP	25	72	7
NMHLD	25	96	2	48
NMTAP	25	144	0
NMTAP	25	192	0
NMSTR	25	192	2
NMSI_	25	192	2	96	48	5
BRSTR	26	0	7
NMSI_	26	0	7	96	24	2
BRSTR	26	72	0
NMSI_	26	72	0	96	24	4
BRSTR	26	144	3
NMSI_	26	144	3	96	24	7
BRSTR	26	216	1
NMSI_	26	216	1	96	24	5
BRTAP	26	288	0
BRHLD	26	336	6	96
BRSTR	27	48	4
NMSI_	27	48	4	96	24	0
BRTAP	27	72	4
BRTAP	27	120	6
BRSTR	27	168	7
NMSI_	27	168	7	96	24	3
BRSTR	27	240	2
NMSI_	27	240	2	96	24	6
BRSTR	27	312	5
NMSI_	27	312	5	96	24	0
BRSTR	28	0	1
NMSI_	28	0	1	96	24	4
BRTAP	28	24	1
BRSTR	28	72	6
NMSI_	28	72	6	96	24	2
BRSTR	28	144	3
NMSI_	28	144	3	96	24	0
BRTAP	28	168	3
BRTAP	28	216	4
BRHLD	28	264	5	72
BRTAP	28	336	1
NMTAP	29	0	0
NMTAP	29	24	4
NMTAP	29	48	0
NMTAP	29	72	4
NMTAP	29	96	0
NMTAP	29	120	4
NMTAP	29	144	0
NMTAP	29	168	4
NMTAP	29	192	1
NMTAP	29	208	2
NMTAP	29	224	3
NMTAP	29	240	6
NMTAP	29	256	5
NMTAP	29	272	4
NMSTR	29	288	0
NMSI_	29	288	0	96	48	4
NMTAP	29	304	1
NMTAP	29	320	2
NMTAP	29	336	7
NMTAP	29	352	6
NMTAP	29	368	5
BRTAP	30	0	0
NMHLD	30	336	0	48
NMTTP	30	336	6	E	0	M1
NMTTP	31	24	2	E	0	M1
NMHLD	31	24	6	48
NMTAP	31	96	1
NMTTP	31	96	5	E	0	M1
NMTTP	31	144	3	E	1	M1
NMTAP	31	144	7
NMTTP	31	336	1	E	1	M1
NMTAP	31	336	5
NMTAP	32	168	2
NMTTP	32	168	7	E	0	M1
NMHLD	32	216	0	120
NMTTP	32	216	5	E	0	M1
NMTAP	32	336	4
NMTAP	32	348	1
NMTAP	32	348	5
NMTAP	32	360	2
NMTAP	32	360	6
NMTAP	32	372	3
NMTAP	32	372	7
BRSTR	33	0	0
NMSLL	33	0	0	96	192	3
BRSTR	33	0	4
NMSLL	33	0	4	96	192	7
NMTAP	34	0	0
NMTAP	34	0	4
NMTTP	34	48	1	E	0	M1
NMTTP	34	72	4	E	0	M1
NMTAP	34	120	0
NMTAP	34	120	4
NMTAP	34	168	1
NMTAP	34	168	3
NMTAP	34	216	1
NMTAP	34	216	3
NMTTP	34	264	2	E	0	M1
NMTTP	34	288	3	E	0	M1
NMTAP	34	336	0
NMTAP	34	336	4
NMTAP	34	360	0
NMTAP	34	360	4
NMTAP	35	48	2
NMTAP	35	48	3
NMTAP	35	96	4
NMTAP	35	96	5
NMTAP	35	144	3
NMTAP	35	144	7
NMTAP	35	168	3
NMTAP	35	168	7
NMTTP	35	216	7	E	0	M1
NMTTP	35	240	4	E	0	M1
NMTAP	35	288	3
NMTAP	35	288	7
NMTAP	35	312	3
NMTAP	35	312	7
NMTTP	35	360	6	E	0	M1
NMTTP	36	0	5	E	0	M1
NMTAP	36	48	4
NMTAP	36	48	6
NMHLD	36	96	6	72
NMHLD	36	168	0	72
NMHLD	36	240	2	72
NMTAP	36	312	4
NMTAP	37	0	4
NMTAP	37	0	6
NMTAP	37	24	4
NMTAP	37	24	6
NMTAP	37	72	3
NMTAP	37	72	5
NMTAP	37	120	2
NMTAP	37	120	4
NMTAP	37	168	3
NMTAP	37	168	5
NMTAP	37	216	4
NMTAP	37	216	6
NMTAP	37	240	4
NMTAP	37	240	6
NMTAP	37	336	3
NMTAP	37	336	7
NMTAP	37	360	3
NMHLD	37	360	7	48
NMTAP	38	24	5
NMHLD	38	48	5	48
NMHLD	38	96	3	48
NMHLD	38	144	1	48
NMHLD	38	192	7	96
NMTAP	38	240	0
NMTAP	38	248	1
NMTAP	38	256	2
NMTAP	38	264	3
NMTAP	38	272	4
NMTAP	38	280	5
BRSTR	38	288	6
NMSI_	38	288	6	96	48	2
BRHLD	39	0	0	672
BRTAP	39	0	6
NMTTP	39	12	0	C	1	M1
NMTAP	40	0	1
NMTAP	40	96	1
NMTAP	40	192	2
NMSTR	40	288	3
NMSI_	40	288	3	96	48	7
BRTAP	41	96	0
NMTAP	41	96	6
NMTAP	41	120	1
NMTAP	41	144	2
NMTAP	41	168	3
NMTAP	41	192	7
NMTAP	41	216	0
NMTAP	41	240	1
NMTAP	41	264	2
NMTAP	41	288	6
NMTAP	41	312	7
NMTAP	41	336	0
NMTAP	41	360	1
NMTAP	42	0	2
NMTAP	42	0	3
NMTAP	42	24	4
NMTAP	42	48	5
NMTAP	42	72	6
NMTAP	42	96	0
NMTAP	42	96	7
NMTAP	42	120	1
NMTAP	42	144	2
NMTAP	42	168	3
NMTAP	42	192	4
NMTAP	42	192	5
NMTAP	42	240	3
NMTAP	42	240	6
NMTAP	42	288	2
NMTAP	42	288	7
NMTAP	42	336	0
NMTAP	42	336	1
NMTAP	43	0	1
NMTAP	43	24	0
NMTAP	43	48	1
NMTAP	43	72	2
NMTAP	43	96	3
NMTAP	43	120	4
NMTAP	43	144	6
NMTAP	43	168	7
NMTAP	43	192	6
NMTAP	43	216	5
NMTAP	43	240	4
NMTAP	43	264	3
NMTAP	43	288	1
NMTAP	43	312	7
NMTAP	43	336	1
NMTAP	43	360	7
NMTAP	44	0	1
NMTAP	44	24	2
NMTAP	44	48	3
NMTAP	44	72	4
NMTAP	44	96	0
NMTAP	44	96	5
NMTAP	44	120	6
NMTAP	44	144	7
NMTAP	44	168	0
NMTAP	44	192	1
NMTAP	44	192	5
NMTAP	44	216	6
NMTAP	44	240	7
NMTAP	44	264	0
NMTAP	44	288	1
NMTAP	44	288	4
NMTAP	44	312	2
NMTAP	44	336	3
NMTAP	44	360	4
NMTAP	45	0	2
NMTAP	45	0	5
NMTAP	45	24	1
NMTAP	45	48	0
NMTAP	45	72	7
NMTAP	45	96	3
NMTAP	45	120	2
NMTAP	45	144	1
NMTAP	45	168	0
NMTAP	45	192	4
NMTAP	45	216	3
NMTAP	45	240	2
NMTAP	45	264	1
NMTAP	45	288	0
NMTAP	45	288	7
NMTAP	45	312	6
NMTAP	45	336	5
NMTAP	45	360	4
NMTAP	46	0	2
NMTAP	46	0	3
NMHLD	46	48	1	48
NMTAP	46	96	0
NMTAP	46	120	0
NMTAP	46	168	1
NMTAP	46	168	7
NMHLD	46	240	5	48
NMHLD	46	288	4	48
NMHLD	46	336	3	48
NMTAP	47	0	2
NMTAP	47	24	2
NMTAP	47	72	1
NMTAP	47	72	3
NMTAP	47	144	5
NMTAP	47	168	5
NMTAP	47	216	4
NMHLD	47	216	6	48
NMTAP	47	264	7
NMTAP	47	288	0
NMTAP	47	312	1
NMTAP	47	336	2
NMTAP	47	360	3
NMTAP	48	0	5
NMTAP	48	24	5
NMTAP	48	48	4
NMTAP	48	72	4
NMSTR	48	96	7
NMSI_	48	96	7	96	24	5
NMSTR	48	192	4
NMSI_	48	192	4	96	48	0
BRTAP	48	192	7
NMSTR	48	288	1
NMSCL	48	288	1	96	144	4
NMSUR	48	288	1	96	144	4
BRTAP	48	288	4
NMTAP	49	192	2
NMHLD	49	192	6	48
NMTTP	49	288	0	E	0	M1
NMTTP	49	288	0	A	0	M1
NMTTP	49	288	0	D	0	M1
NMTTP	49	312	6	E	0	M1
NMTTP	49	312	6	A	0	M1
NMTTP	49	312	6	D	0	M1
NMTTP	49	336	2	E	0	M1
NMTTP	49	336	2	A	0	M1
NMTTP	49	336	2	D	0	M1
NMTTP	49	360	4	E	0	M1
NMTTP	49	360	4	A	0	M1
NMTTP	49	360	4	D	0	M1
NMTTP	50	0	1	E	0	M1
NMTTP	50	24	7	E	0	M1
NMTTP	50	48	3	E	0	M1
NMTTP	50	72	5	E	0	M1
NMTTP	50	96	1	A	0	M1
NMTTP	50	96	2	E	0	M1
NMTTP	50	96	2	D	0	M1
NMTTP	50	120	0	E	0	M1
NMTTP	50	120	0	D	0	M1
NMTTP	50	120	7	A	0	M1
NMTTP	50	144	3	A	0	M1
NMTTP	50	144	4	E	0	M1
NMTTP	50	144	4	D	0	M1
NMTTP	50	168	5	A	0	M1
NMTTP	50	168	6	E	0	M1
NMTTP	50	168	6	D	0	M1
NMSTR	50	192	0
NMSCR	50	192	0	96	48	4
NMTAP	50	240	0
NMTAP	50	288	7
NMTTP	51	0	5	A	0	M1
NMTTP	51	24	5	E	0	M1
NMTTP	51	48	4	E	0	M1
NMTTP	51	72	7	A	0	M1
NMTTP	51	96	7	E	0	M1
NMTTP	51	120	6	E	0	M1
NMTTP	51	144	1	A	0	M1
NMTTP	51	168	1	E	0	M1
NMTTP	51	192	0	E	0	M1
NMTTP	51	216	3	A	0	M1
NMTTP	51	240	3	E	0	M1
NMTTP	51	264	2	E	0	M1
NMTAP	51	288	6
NMTAP	51	312	0
NMTAP	51	336	6
NMTAP	51	360	0
NMSTR	52	0	6
NMSCL	52	0	6	96	48	3
NMTAP	52	72	7
NMTAP	52	144	0
NMSTR	52	192	1
NMSCR	52	192	1	96	48	4
NMTAP	52	264	0
NMTAP	52	336	7
NMHLD	53	0	5	48
NMHLD	53	72	4	48
NMHLD	53	72	6	72
NMHLD	53	192	2	48
NMHLD	53	264	1	72
NMHLD	53	264	3	48
NMHLD	54	0	4	48
NMHLD	54	0	5	48
NMHLD	54	72	3	48
NMHLD	54	72	6	72
NMHLD	54	192	2	48
NMHLD	54	192	3	48
NMTAP	54	264	1
NMTAP	54	264	4
NMTAP	54	336	1
NMTAP	54	336	4
NMTAP	55	0	0
NMTAP	55	24	7
NMTAP	55	48	1
NMTAP	55	72	4
NMTAP	55	96	3
NMTAP	55	120	5
NMTAP	55	144	2
NMTAP	55	168	3
NMTAP	55	192	1
NMTAP	55	216	6
NMTAP	55	240	7
NMTAP	55	264	5
NMTAP	55	288	0
NMTAP	55	312	4
NMTAP	55	336	0
NMTAP	55	360	4
NMTAP	56	0	1
NMTAP	56	24	3
NMTAP	56	48	2
NMTAP	56	72	4
NMTAP	56	96	3
NMTAP	56	120	5
NMTAP	56	144	4
NMTAP	56	168	6
NMTAP	56	192	3
NMTAP	56	192	7
NMTAP	56	216	2
NMTAP	56	216	6
NMTAP	56	240	1
NMTAP	56	240	5
NMTAP	56	264	0
NMTAP	56	264	4
NMTAP	56	288	7
NMTAP	56	312	6
NMTAP	56	336	5
NMTAP	56	360	4
NMTAP	57	0	3
NMSTR	57	0	7
NMSI_	57	0	7	96	24	3
NMSTR	57	96	2
NMSI_	57	96	2	96	24	0
BRTAP	57	96	7
BRTAP	57	168	2
NMSTR	57	168	4
NMSI_	57	168	4	96	24	6
NMSTR	57	240	1
NMSI_	57	240	1	96	24	3
BRTAP	57	240	4
BRTAP	57	312	1
NMSTR	57	312	7
NMSI_	57	312	7	96	24	5
NMSTR	58	0	0
NMSI_	58	0	0	96	24	4
BRTAP	58	0	7
BRTAP	58	72	0
NMSTR	58	72	6
NMSI_	58	72	6	96	24	3
NMSTR	58	144	1
NMSI_	58	144	1	96	24	4
BRTAP	58	144	6
BRTAP	58	216	1
NMTAP	58	216	4
BRTAP	58	288	3
BRTAP	58	288	6
NMSTR	59	0	2
NMSI_	59	0	2	96	24	7
NMTAP	59	12	4
NMTAP	59	24	3
NMTAP	59	36	4
NMTAP	59	48	3
BRTAP	59	96	2
NMSTR	59	96	6
NMSI_	59	96	6	96	24	3
NMSTR	59	168	0
NMSI_	59	168	0	96	24	4
BRTAP	59	168	6
BRTAP	59	240	0
NMSTR	59	240	5
NMSI_	59	240	5	96	24	0
NMSTR	59	312	3
NMSI_	59	312	3	96	24	7
BRTAP	59	312	5
BRTAP	60	0	3
NMSTR	60	0	6
NMSI_	60	0	6	96	24	3
NMSTR	60	72	2
NMSI_	60	72	2	96	24	6
BRTAP	60	72	6
BRTAP	60	144	2
NMSTR	60	144	4
NMSI_	60	144	4	96	24	7
NMTAP	60	216	0
BRTAP	60	216	4
BRTAP	60	288	2
BRTAP	60	288	6
NMSTR	61	0	5
NMSI_	61	0	5	96	24	0
NMTAP	61	16	4
NMTAP	61	32	3
NMTAP	61	48	2
NMSTR	61	96	3
NMSI_	61	96	3	96	24	7
BRTAP	61	96	5
BRTAP	61	168	3
NMSTR	61	168	6
NMSI_	61	168	6	96	24	2
NMSTR	61	240	0
NMSI_	61	240	0	96	24	4
BRTAP	61	240	6
BRTAP	61	312	0
NMSTR	61	312	3
NMSI_	61	312	3	96	24	6
NMSTR	62	0	2
NMSI_	62	0	2	96	24	7
BRTAP	62	0	3
BRTAP	62	72	2
NMSTR	62	72	4
NMSI_	62	72	4	96	24	7
NMTAP	62	144	0
BRTAP	62	144	4
NMHLD	62	192	0	48
NMHLD	62	264	1	48
NMHLD	62	264	7	48
NMTAP	62	336	2
NMTAP	62	336	6
NMTAP	63	0	3
NMTAP	63	0	5
NMHLD	63	48	3	336
NMTAP	63	48	5
NMTAP	64	0	2
NMTAP	64	16	1
NMTAP	64	32	0
NMTAP	64	48	7
NMTAP	64	64	6
NMTAP	64	80	5
NMTAP	64	96	2
NMTAP	64	112	1
NMTAP	64	128	0
NMTAP	64	144	7
NMTAP	64	160	6
NMTAP	64	176	5
NMSTR	64	192	2
NMSI_	64	192	2	96	48	6
NMTAP	64	208	1
NMTAP	64	224	0
NMTAP	64	240	7
NMTAP	64	256	6
NMTAP	64	272	5
BRTAP	64	288	2
BRTAP	64	288	4
NMTAP	65	0	6
NMTAP	65	0	7
NMTAP	65	48	6
NMTAP	65	48	7
NMTAP	65	64	0
NMTAP	65	64	5
NMTAP	65	80	1
NMTAP	65	80	4
NMSTR	65	96	2
NMSI_	65	96	2	96	48	5
NMTAP	65	96	3
NMTAP	65	144	0
NMTAP	65	144	1
NMTAP	65	192	2
NMSTR	65	192	7
NMSI_	65	192	7	96	48	3
NMTAP	65	240	6
NMTAP	65	288	0
NMTAP	65	288	7
NMTAP	65	336	1
NMTAP	66	0	0
NMHLD	66	0	4	48
NMTAP	66	48	7
NMTAP	66	64	0
NMTAP	66	80	1
NMHLD	66	96	2	48
NMTAP	66	144	0
NMTAP	66	160	7
NMTAP	66	176	6
NMHLD	66	192	5	48
NMTAP	66	240	3
NMTAP	66	264	5
NMTAP	66	288	2
NMTAP	66	312	6
NMTAP	66	336	1
NMTAP	66	360	7
NMTAP	67	0	0
NMTAP	67	0	1
NMTAP	67	48	0
NMTAP	67	48	1
NMTAP	67	64	2
NMTAP	67	64	7
NMTAP	67	80	3
NMTAP	67	80	6
NMTAP	67	96	4
NMSTR	67	96	5
NMSLL	67	96	5	96	64	6
NMTAP	67	144	6
NMTAP	67	144	7
NMSTR	67	192	0
NMSI_	67	192	0	96	48	4
NMTAP	67	192	5
NMTAP	67	240	1
NMTAP	67	288	0
NMTAP	67	288	7
NMTAP	67	336	6
NMTAP	68	0	3
NMHLD	68	0	7	48
NMSTR	68	48	4
NMSCR	68	48	4	96	96	3
NMTAP	68	60	3
NMTAP	68	72	2
NMTAP	68	84	1
NMTAP	68	96	0
NMTTP	68	144	0	E	1	M1
BRTAP	68	144	4
NMTAP	68	288	4
NMTAP	68	288	5
NMTAP	68	336	6
NMTAP	69	0	0
NMTAP	69	0	6
NMTAP	69	48	1
NMTAP	69	72	3
NMTAP	69	96	2
NMTAP	69	120	3
NMSTR	69	144	1
NMSCR	69	144	1	96	48	5
NMTAP	69	192	0
NMTAP	69	192	6
NMTTP	69	240	6	D	0	M1
NMTTP	69	256	7	D	0	M1
NMTTP	69	272	0	D	0	M1
NMTTP	69	288	1	D	0	M1
EXTAP	69	336	0
NMTAP	70	0	3
NMTAP	70	0	7
NMTAP	70	48	6
NMTAP	70	72	4
NMTAP	70	96	5
NMTAP	70	120	4
NMSTR	70	144	6
NMSCL	70	144	6	96	48	3
NMTAP	70	192	1
NMTAP	70	192	7
NMTTP	70	240	2	D	0	M1
NMTTP	70	256	1	D	0	M1
NMTTP	70	272	0	D	0	M1
NMTTP	70	288	7	D	0	M1
EXTAP	70	336	7
NMTAP	71	0	0
NMTAP	71	24	3
NMTAP	71	48	2
NMTAP	71	72	2
NMTAP	71	96	7
NMTAP	71	120	4
NMTAP	71	144	5
NMTAP	71	168	5
NMTAP	71	192	0
NMTAP	71	216	7
NMTAP	71	240	1
NMTAP	71	264	4
NMTAP	71	288	2
NMTAP	71	312	6
NMTAP	71	336	3
NMTAP	71	360	5
NMHLD	72	0	2	192
NMTAP	72	0	6
NMTAP	72	48	6
NMTAP	72	96	6
NMTAP	72	144	6
NMTAP	72	192	5
NMTAP	72	204	4
NMTAP	72	216	3
NMTAP	72	228	2
NMTAP	72	240	1
NMTAP	72	252	0
NMTAP	72	264	7
NMTAP	72	276	6
NMTAP	72	288	2
NMTAP	72	288	5
NMTAP	72	300	3
NMTAP	72	312	4
NMTAP	72	324	5
NMTAP	72	336	6
NMTAP	72	348	7
NMTAP	72	360	0
NMTAP	72	372	1
NMSTR	73	0	2
NMSV_	73	0	2	96	48	7
NMSTR	73	0	6
NMSI_	73	0	6	96	48	3
BRTAP	73	96	2
BRTAP	73	96	6
NMTAP	73	192	0
NMTAP	73	192	4
NMTAP	73	240	3
NMTAP	73	256	2
NMTAP	73	272	3
NMTAP	73	288	0
NMTAP	73	336	1
NMTAP	73	336	7
NMTAP	74	0	5
NMTAP	74	24	4
NMTAP	74	48	6
NMTAP	74	72	3
NMTAP	74	96	7
NMTAP	74	120	2
NMTAP	74	144	0
NMTAP	74	168	1
NMTAP	74	192	3
NMTAP	74	216	2
NMTAP	74	240	4
NMTAP	74	264	1
NMTAP	74	288	5
NMTAP	74	312	0
NMTAP	74	336	6
NMTAP	74	360	7
NMSTR	75	0	0
NMSCR	75	0	0	96	48	3
NMSTR	75	0	5
NMSCR	75	0	5	96	48	0
NMTAP	75	48	0
NMTAP	75	48	5
NMTAP	75	192	4
BRTAP	75	192	7
NMTAP	75	200	6
NMTAP	75	208	5
NMTAP	75	216	4
BRTAP	75	264	0
NMTAP	75	264	3
NMTAP	75	272	1
NMTAP	75	280	2
NMTAP	75	288	3
NMTAP	75	336	3
BRTAP	75	336	6
NMTAP	75	344	5
NMTAP	75	352	4
NMTAP	75	360	3
BRTAP	76	24	1
NMTAP	76	24	4
NMTAP	76	32	2
NMTAP	76	40	3
NMTAP	76	48	4
NMTAP	76	96	4
BRSTR	76	96	7
NMSLR	76	96	7	96	48	3
NMTAP	76	104	6
NMTAP	76	112	5
NMTAP	76	120	4
NMTAP	76	192	3
NMTAP	76	192	7
NMHLD	76	264	5	48
NMTAP	76	336	4
NMTAP	76	336	6
NMTAP	77	0	4
NMTAP	77	0	6
NMTAP	77	48	1
NMTAP	77	72	3
NMSTR	77	96	0
NMSI_	77	96	0	96	48	4
NMTAP	77	120	7
NMSTR	77	144	1
NMSI_	77	144	1	96	48	3
EXSTR	77	192	0
NMSI_	77	192	0	96	48	6
EXSTR	77	240	1
NMSI_	77	240	1	96	48	5
NMTTP	77	288	0	A	1	M1
NMTTP	77	336	1	A	1	M1
NMTAP	78	0	7
NMTAP	78	48	6
NMTAP	78	72	4
NMSTR	78	96	7
NMSI_	78	96	7	96	48	3
NMTAP	78	120	0
NMSTR	78	144	6
NMSI_	78	144	6	96	48	4
EXSTR	78	192	7
NMSI_	78	192	7	96	48	1
EXSTR	78	240	6
NMSI_	78	240	6	96	48	2
NMTTP	78	288	7	A	1	M1
NMTTP	78	336	6	A	1	M1
NMTAP	79	0	0
NMTAP	79	48	1
NMSTR	79	72	3
NMSCL	79	72	3	96	120	4
NMTAP	79	120	5
NMTAP	79	144	3
NMTAP	80	0	2
NMTAP	80	24	2
NMTAP	80	48	4
NMTAP	80	72	4
NMTAP	80	96	3
NMTAP	80	120	3
NMTAP	80	144	5
NMTAP	80	168	5
NMTAP	80	192	1
NMTAP	80	216	1
NMTAP	80	240	6
NMTAP	80	264	6
NMTAP	80	288	0
NMTAP	80	312	0
NMTAP	80	336	7
NMTAP	80	360	7
NMTAP	81	0	1
NMTAP	81	12	2
NMTAP	81	24	3
NMTAP	81	48	6
NMTAP	81	72	6
NMTAP	81	96	0
NMTAP	81	120	0
NMTAP	81	144	6
NMTAP	81	156	5
NMTAP	81	168	4
NMTAP	81	192	1
NMTAP	81	216	1
NMTAP	81	240	5
NMTAP	81	264	5
NMTAP	81	288	3
NMTAP	81	300	2
NMTAP	81	312	1
NMTAP	81	324	0
NMTAP	81	336	6
NMTAP	81	360	6
NMHLD	82	0	1	144
NMHLD	82	0	5	144
NMTAP	82	192	1
NMTAP	82	192	5
NMTAP	82	204	2
NMTAP	82	204	6
NMTAP	82	216	3
NMTAP	82	216	7
NMTAP	82	228	0
NMTAP	82	228	4
NMTAP	82	240	5
NMTAP	82	252	6
NMTAP	82	264	7
NMTAP	82	276	0
NMTAP	82	288	1
NMTAP	82	288	5
NMTAP	82	300	2
NMTAP	82	300	6
NMTAP	82	312	3
NMTAP	82	312	7
NMTAP	82	324	0
NMTAP	82	324	4
NMSTR	82	336	5
NMSUL	82	336	5	96	312	3
NMTAP	82	348	6
NMTAP	82	360	7
NMTAP	82	372	0
BRSTR	83	0	1
BRSUL	83	0	1	96	288	7
BRTAP	83	0	5
CNSCL	83	360	3	0	312	7
CNSCL	84	0	7	0	288	3
NMHLD	85	0	0	288
NMSTR	85	0	4
NMSXL	85	0	4	96	192	3
NMSTR	86	0	2
NMSI_	86	0	2	96	48	7
NMSTR	86	0	6
NMSI_	86	0	6	96	48	2
NMTAP	86	96	2
NMTAP	86	96	6
NMSTR	86	192	0
NMSI_	86	192	0	96	48	4
NMSTR	86	192	5
NMSI_	86	192	5	96	48	0
NMTAP	86	288	0
NMTAP	86	288	5
NMHLD	87	0	2	48
NMTAP	87	48	0
NMHLD	87	72	1	48
NMTAP	87	120	7
NMTAP	87	144	0
NMHLD	87	192	5	48
NMTAP	87	240	7
NMHLD	87	264	6	48
NMTAP	87	312	0
NMTAP	87	336	7
NMHLD	88	0	3	48
NMTAP	88	48	0
NMHLD	88	72	1	48
NMTAP	88	120	7
NMTAP	88	144	0
NMHLD	88	192	4	48
NMTAP	88	240	7
NMHLD	88	264	6	48
NMTAP	88	312	0
NMTAP	88	336	7
NMTAP	89	0	1
NMTAP	89	24	3
NMTAP	89	48	2
NMTAP	89	72	6
NMTAP	89	96	4
NMTAP	89	120	5
NMTAP	89	144	0
NMTAP	89	168	3
NMTAP	89	192	2
NMTAP	89	216	7
NMTAP	89	240	4
NMTAP	89	264	5
NMHLD	89	288	0	80
NMTAP	89	368	3
NMTAP	90	0	7
NMTAP	90	16	3
NMTAP	90	32	7
NMTAP	90	48	3
NMTAP	90	64	7
NMTAP	90	80	3
NMTAP	90	96	7
NMTAP	90	112	3
NMTAP	90	128	7
NMTAP	90	144	3
NMTAP	90	160	7
NMTAP	90	176	3
NMTAP	90	192	7
NMTAP	90	208	3
NMTAP	90	224	7
NMTAP	90	240	3
NMTAP	90	256	7
NMTAP	90	272	3
NMTAP	90	288	7
NMTAP	90	304	3
NMTAP	90	320	7
NMTAP	90	336	3
NMTAP	90	352	7
NMTAP	90	368	3
NMTAP	91	0	7
NMTAP	91	16	3
NMTAP	91	32	7
NMTAP	91	48	3
NMTAP	91	64	7
NMTAP	91	80	3
NMTAP	91	96	7
NMTAP	91	112	3
NMTAP	91	128	7
NMTAP	91	144	3
NMTAP	91	160	7
NMTAP	91	176	3
NMTAP	91	192	0
NMTAP	91	216	0
NMTAP	91	240	4
NMTAP	91	264	4
NMTAP	91	288	2
NMTAP	91	312	2
NMTAP	91	336	6
NMTAP	91	360	6
NMHLD	92	0	0	96
BRTAP	92	96	7
NMHLD	92	120	1	0
NMTAP	92	144	7
BRHLD	92	168	1	0
NMTAP	92	192	6
BRHLD	92	216	4	0
NMTAP	92	240	0
NMHLD	92	264	2	0
BRTAP	92	288	4
NMHLD	92	312	0	0
BRTAP	92	336	6
NMHLD	92	360	2	0
BRTAP	93	0	0
NMHLD	93	24	4	0
NMTAP	93	48	6
BRHLD	93	72	0	0
NMTAP	93	96	4
BRHLD	93	120	2	0
NMTAP	93	144	7
NMHLD	93	168	3	0
BRTAP	93	192	5
NMHLD	93	216	1	0
NMTAP	93	240	3
BRHLD	93	264	7	0
NMTAP	93	288	4
NMHLD	93	312	0	0
BRTAP	93	336	4
NMHLD	93	360	0	0
NMTAP	94	48	6
NMTAP	94	48	7
NMTAP	94	72	0
NMTAP	94	72	5
NMTAP	94	120	0
NMTAP	94	120	1
NMTAP	94	144	2
NMTAP	94	144	7
NMTAP	94	192	3
NMTAP	94	192	4
NMTAP	94	216	2
NMTAP	94	216	5
NMHLD	94	264	1	48
NMHLD	94	264	7	48
BRTAP	95	0	0
BRTAP	95	0	2
NMTAP	95	8	3
NMTAP	95	8	7
NMTAP	95	16	4
NMTAP	95	16	6
NMTAP	95	24	5
BRTAP	95	72	5
BRTAP	95	72	7
NMTAP	95	80	0
NMTAP	95	80	4
NMTAP	95	88	1
NMTAP	95	88	3
NMTAP	95	96	2
BRSTR	95	144	0
NMSF_	95	144	0	96	192	4
NMTAP	95	152	1
NMTAP	95	152	7
NMTAP	95	160	2
NMTAP	95	160	6
NMTAP	95	168	3
NMTAP	95	168	5
NMTAP	95	176	4

T_REC_TAP	772
T_REC_BRK	71
T_REC_XTP	6
T_REC_BXX	0
T_REC_HLD	101
T_REC_XHO	1
T_REC_BHO	8
T_REC_BXH	0
T_REC_STR	76
T_REC_BST	17
T_REC_XST	5
T_REC_XBS	0
T_REC_TTP	69
T_REC_THO	0
T_REC_SLD	95
T_REC_BSL	4
T_REC_ALL	1225
T_NUM_TAP	928
T_NUM_BRK	100
T_NUM_HLD	102
T_NUM_SLD	95
T_NUM_ALL	1225
T_JUDGE_TAP	1016
T_JUDGE_HLD	190
T_JUDGE_SLD	99
T_JUDGE_ALL	1305
TTM_EACHPAIRS	210
TTM_SCR_TAP	464000
TTM_SCR_BRK	260000
TTM_SCR_HLD	102000
TTM_SCR_SLD	142500
TTM_SCR_ALL	968500
TTM_SCR_S	929750
TTM_SCR_SS	958500
TTM_RAT_ACV	10104

