VERSION	0.00.00	1.04.00
FES_MODE	0
BPM_DEF	166.000	166.000	166.000	166.000
MET_DEF	4	4
RESOLUTION	384
CLK_DEF	384
COMPATIBLE_CODE	MA2

BPM	0	0	166.000
MET	0	0	4	4

NMTAP	2	0	0
NMTAP	2	0	4
NMHLD	2	48	0	240
NMHLD	2	48	4	240
NMTAP	3	0	2
NMTAP	3	0	6
NMHLD	3	48	2	240
NMHLD	3	48	6	240
NMSTR	4	0	4
NMSXR	4	0	4	96	288	0
NMTAP	4	0	5
EXSTR	5	0	7
NMSI_	5	0	7	96	48	3
EXSTR	5	192	0
NMSI_	5	192	0	96	48	4
EXHLD	6	0	5	72
NMTAP	6	72	4
NMTAP	6	144	3
NMTAP	6	144	6
EXHLD	6	192	2	72
NMTAP	6	264	3
NMTAP	6	336	1
NMTAP	6	336	4
EXHLD	7	0	6	72
NMTAP	7	72	4
NMTAP	7	144	3
NMTAP	7	144	7
EXHLD	7	192	1	72
NMTAP	7	264	3
NMTAP	7	336	0
NMTAP	7	336	4
EXHLD	8	0	6	72
NMTAP	8	72	4
NMTAP	8	144	3
NMTAP	8	144	7
NMHLD	8	192	3	384
NMSTR	8	192	7
NMSCL	8	192	7	96	192	0
NMTTP	9	192	0	C	1	M1
NMHLD	10	0	2	384
NMHLD	10	0	7	384
NMSTR	11	192	3
NMSI_	11	192	3	96	48	0
NMSTR	11	192	4
NMSI_	11	192	4	96	48	7
BXSTR	12	0	1
NMSCL	12	0	1	96	48	6
BXTAP	12	0	6
NMSTR	12	96	5
NMSI_	12	96	5	96	48	2
NMSTR	12	192	7
NMSI_	12	192	7	96	48	3
NMTAP	12	288	4
NMTAP	12	336	4
NMSTR	13	0	4
NMSI_	13	0	4	96	48	7
NMSTR	13	96	0
NMSI_	13	96	0	96	48	3
NMTAP	13	192	5
NMTAP	13	240	5
NMTAP	13	288	4
NMTAP	13	288	6
NMTAP	14	0	1
NMSTR	14	0	6
NMSI_	14	0	6	96	48	1
NMSTR	14	96	2
NMSI_	14	96	2	96	48	5
NMSTR	14	192	0
NMSI_	14	192	0	96	48	4
NMTAP	14	288	3
NMTAP	14	336	3
EXTAP	15	0	5
EXTAP	15	72	2
EXTAP	15	72	3
EXTAP	15	144	4
EXTAP	15	144	6
EXTAP	15	216	1
EXTAP	15	216	3
BXTAP	15	288	0
BXTAP	15	288	7
NMTAP	16	0	4
NMTAP	16	0	5
BXTAP	16	96	0
BXSTR	16	96	2
NMSI_	16	96	2	96	48	5
NMSTR	16	192	4
NMSI_	16	192	4	96	48	0
NMTAP	16	288	7
NMTAP	16	336	7
NMSTR	17	0	7
NMSI_	17	0	7	96	48	4
NMSTR	17	96	5
NMSI_	17	96	5	96	48	2
NMTAP	17	192	0
NMTAP	17	240	0
NMTAP	17	288	1
NMTAP	17	288	7
NMHLD	18	0	5	96
NMHLD	18	0	7	96
NMHLD	18	192	2	96
NMHLD	18	192	4	96
BRTAP	19	0	0
BRTAP	19	0	1
BRTAP	19	72	3
BRTAP	19	72	4
BRTAP	19	144	6
BRSTR	19	144	7
NMSCR	19	144	7	96	48	2
NMTAP	20	0	3
NMTAP	20	0	4
BXTAP	20	96	0
BXTAP	20	96	6
NMHLD	20	192	1	72
NMHLD	20	264	2	72
NMTAP	20	336	3
NMHLD	21	0	6	72
NMHLD	21	72	5	72
NMTAP	21	144	4
NMTAP	21	192	3
NMTAP	21	192	4
NMTAP	21	288	0
NMTAP	21	288	7
NMTAP	22	0	0
NMHLD	22	0	2	72
NMTAP	22	72	4
NMTAP	22	144	5
NMHLD	22	192	5	72
NMTAP	22	192	7
NMTAP	22	264	3
NMTAP	22	336	2
NMSTR	23	0	0
NMSI_	23	0	0	96	48	4
NMHLD	23	0	2	72
NMTAP	23	192	3
NMTAP	23	216	5
NMTAP	23	240	3
NMTAP	23	264	5
NMTAP	23	288	3
NMTAP	24	0	3
NMTAP	24	0	4
BXTAP	24	96	1
BXTAP	24	96	7
NMHLD	24	192	6	72
NMHLD	24	264	4	72
NMTAP	24	336	3
NMHLD	25	0	3	72
NMHLD	25	72	1	72
NMTAP	25	144	0
NMTAP	25	192	0
NMTAP	25	288	0
NMTAP	25	288	7
EXTAP	26	0	4
EXTAP	26	0	6
NMTAP	26	72	4
NMTAP	26	72	6
NMTAP	26	144	1
NMTAP	26	144	3
NMTAP	26	216	1
NMTAP	26	216	3
EXTAP	26	288	0
EXTAP	26	288	6
EXSTR	26	336	0
NMSCR	26	336	0	96	144	7
EXHLD	26	336	6	384
NMTAP	27	336	0
NMTAP	27	360	7
NMTAP	28	0	0
NMTAP	28	24	7
NMTAP	28	48	0
NMTAP	28	72	7
NMTAP	28	96	0
NMTAP	28	120	7
NMTAP	28	144	0
NMTAP	28	168	7
NMTAP	28	192	1
NMTAP	28	216	6
NMTAP	28	240	1
NMTAP	28	264	6
NMTAP	28	288	1
NMTAP	28	312	6
NMTAP	28	336	1
NMTAP	28	360	6
NMSTR	29	0	2
NMSI_	29	0	2	96	48	5
NMSTR	29	96	1
NMSI_	29	96	1	96	48	6
NMSTR	29	192	7
NMSI_	29	192	7	96	48	2
NMSI_	29	192	7	96	48	4
NMTTP	30	0	2	B	0	M1
NMTTP	30	0	2	E	0	M1
NMTTP	30	0	2	A	0	M1
NMTTP	30	0	3	B	0	M1
NMTTP	30	0	3	E	0	M1
NMTTP	30	0	3	A	0	M1
NMTAP	30	336	0
NMTAP	30	336	2
NMTAP	31	24	1
NMTAP	31	24	4
NMTAP	31	96	3
NMTAP	31	96	6
NMTAP	31	144	3
NMTAP	31	144	6
NMTTP	31	336	4	B	0	M1
NMTTP	31	336	4	A	0	M1
NMTTP	31	336	5	B	0	M1
NMTTP	31	336	5	E	0	M1
NMTTP	31	336	5	A	0	M1
NMTTP	31	336	6	E	0	M1
NMTAP	32	168	6
NMTAP	32	168	7
NMTAP	32	216	6
NMTAP	32	216	7
NMTTP	33	0	0	C	1	M1
BXHLD	33	0	0	288
NMTTP	33	0	3	B	0	M1
NMTTP	33	0	4	B	0	M1
EXTAP	34	0	1
EXTAP	34	0	7
NMTAP	34	96	2
NMHLD	34	96	5	120
NMTAP	34	168	3
NMTAP	34	216	3
NMTAP	34	288	4
NMTAP	34	288	6
NMTAP	34	360	5
NMHLD	34	360	7	120
NMTAP	35	48	0
NMTAP	35	96	0
NMTAP	35	168	0
NMHLD	35	168	1	72
NMTAP	35	240	3
EXTAP	35	312	1
EXTAP	35	312	7
EXTAP	36	0	1
EXTAP	36	0	7
NMTAP	36	96	3
NMTAP	36	96	5
NMTAP	36	168	1
NMTAP	36	168	4
NMTAP	36	240	3
NMTAP	36	240	6
NMTAP	36	312	0
NMTAP	36	312	7
BRTAP	37	0	0
BRTAP	37	0	1
EXTAP	37	72	7
EXTAP	37	120	6
EXTAP	37	168	5
EXTAP	37	216	4
EXTAP	37	216	5
EXTAP	37	240	4
EXTAP	37	240	5
BRTAP	37	336	6
BRTAP	37	336	7
EXTAP	38	24	0
EXTAP	38	24	5
EXTAP	38	96	1
EXTAP	38	96	4
EXSTR	38	144	1
NMSCR	38	144	1	96	144	6
EXTAP	38	144	4
BXTAP	39	0	0
NMTTP	40	0	2	E	0	M1
NMTTP	40	96	4	E	0	M1
NMTTP	40	192	6	E	0	M1
NMSTR	40	288	7
NMSI_	40	288	7	96	48	3
BXTAP	41	96	2
NMTAP	41	120	4
NMTAP	41	144	2
NMTAP	41	168	4
NMTAP	41	192	2
NMTAP	41	216	4
NMTAP	41	240	2
NMTAP	41	264	4
NMTAP	41	288	2
NMTAP	41	312	4
NMTAP	41	336	2
NMTAP	41	360	4
NMTAP	42	0	3
NMTAP	42	24	5
NMTAP	42	48	3
NMTAP	42	72	5
NMTAP	42	96	3
NMTAP	42	120	5
NMTAP	42	144	3
NMTAP	42	168	5
NMTTP	42	192	2	E	0	M1
NMTTP	42	240	0	E	0	M1
NMTTP	42	288	6	E	0	M1
NMTAP	43	0	1
NMTAP	43	24	3
NMTAP	43	48	1
NMTAP	43	72	3
NMTAP	43	96	1
NMTAP	43	144	6
NMTAP	43	168	4
NMTAP	43	192	6
NMTAP	43	216	4
NMTAP	43	240	6
NMTAP	43	288	1
NMTAP	43	312	3
NMTAP	43	336	1
NMTAP	43	360	3
NMHLD	44	0	1	96
NMTAP	44	48	0
NMHLD	44	96	6	96
NMTAP	44	144	7
NMSTR	44	192	1
NMSI_	44	192	1	96	48	4
NMTAP	45	0	5
NMTAP	45	24	3
NMTAP	45	48	5
NMTAP	45	72	3
NMTAP	45	96	5
NMTAP	45	120	3
NMTAP	45	144	5
NMTAP	45	168	3
NMTAP	45	192	6
NMTAP	45	216	4
NMTAP	45	240	6
NMTAP	45	264	4
NMTAP	45	288	6
NMTAP	45	312	4
NMTAP	45	336	6
NMTAP	45	360	4
NMHLD	46	0	7	96
NMTAP	46	48	5
NMTAP	46	96	4
NMTAP	46	144	3
NMHLD	46	192	2	96
NMTAP	46	240	3
NMTAP	46	288	3
NMHLD	47	0	4	72
NMTAP	47	0	5
NMTAP	47	72	6
NMTAP	47	144	2
NMHLD	47	144	3	72
NMTAP	47	216	1
NMTAP	47	288	0
NMTAP	47	288	7
NMTTP	48	0	5	B	0	M1
NMTTP	48	0	6	B	0	M1
NMTTP	48	0	6	E	1	M1
NMTTP	48	96	0	C	1	M1
NMTTP	48	192	1	B	0	M1
NMTTP	48	192	2	B	0	M1
NMTTP	48	192	2	E	1	M1
NMSTR	49	0	4
NMSCL	49	0	4	96	96	1
NMSTR	49	0	5
NMSCR	49	0	5	96	96	0
BXTAP	49	288	1
NMTAP	49	312	0
NMTAP	49	336	1
NMTAP	49	360	0
NMTAP	50	0	1
NMTAP	50	24	0
NMTAP	50	48	1
NMTAP	50	72	0
NMTAP	50	96	1
NMTAP	50	120	0
NMTAP	50	144	1
NMTAP	50	168	0
NMTAP	50	192	1
NMTAP	50	216	0
NMTAP	50	240	1
NMTAP	50	264	0
NMTAP	50	288	1
NMTAP	50	312	0
NMTAP	50	336	1
NMTAP	50	360	0
NMHLD	51	0	2	192
NMTAP	51	96	4
NMTAP	51	144	5
NMHLD	51	192	6	192
NMTAP	51	288	7
NMTAP	51	336	0
NMSTR	52	0	1
NMSCR	52	0	1	96	48	4
NMSTR	52	192	1
NMSCL	52	192	1	96	48	6
EXTAP	53	0	4
EXTAP	53	0	5
NMTAP	53	96	6
NMTAP	53	120	7
NMTAP	53	144	6
NMTAP	53	168	7
NMTAP	53	192	6
NMTAP	53	216	7
NMTAP	53	240	6
NMTAP	53	264	7
NMTAP	53	288	6
NMTAP	53	312	7
NMTAP	53	336	6
NMTAP	53	360	7
NMTAP	54	0	5
NMTAP	54	24	0
NMTAP	54	48	5
NMTAP	54	72	0
NMTAP	54	96	5
NMTAP	54	120	0
NMTAP	54	144	5
NMTAP	54	168	0
NMTAP	54	192	4
NMTAP	54	216	1
NMTAP	54	240	4
NMTAP	54	264	1
NMTAP	54	288	4
NMTAP	54	312	1
NMTAP	54	336	4
NMTAP	54	360	1
EXHLD	55	0	3	72
EXHLD	55	72	1	72
EXHLD	55	144	7	72
EXHLD	55	216	5	72
EXHLD	55	288	3	96
BXSTR	56	0	7
BRSF_	56	0	7	96	192	3
NMTAP	57	0	3
NMTAP	57	0	4
BRTAP	57	96	2
BRTAP	57	96	7
BRTAP	57	168	0
BRTAP	57	168	5
BRTAP	57	240	2
BRTAP	57	240	7
BRTAP	57	312	0
BRTAP	57	312	5
BRTAP	58	0	2
BRTAP	58	0	7
BRTAP	58	72	0
BRTAP	58	72	5
BRTAP	58	144	2
BRTAP	58	144	7
BRTAP	58	216	0
BRTAP	58	216	7
BRTAP	58	288	0
BRTAP	58	288	7
NMTAP	58	360	3
NMTAP	58	360	4
BRTAP	59	96	0
BRTAP	59	96	2
BRTAP	59	168	2
BRTAP	59	168	4
BRTAP	59	240	4
BRTAP	59	240	6
BRTAP	59	312	0
BRTAP	59	312	6
BRTAP	60	0	0
BRTAP	60	0	2
BRTAP	60	72	2
BRTAP	60	72	4
BRTAP	60	144	4
BRTAP	60	144	6
BRTAP	60	216	0
BRTAP	60	216	7
BRSTR	60	288	0
NMSV_	60	288	0	96	48	3
BRSTR	60	288	7
NMSV_	60	288	7	96	48	4
BRTAP	61	96	5
BRTAP	61	96	7
BRTAP	61	168	3
BRTAP	61	168	5
BRTAP	61	240	1
BRTAP	61	240	3
BRTAP	61	312	1
BRTAP	61	312	7
BRTAP	62	0	5
BRTAP	62	0	7
BRTAP	62	72	3
BRTAP	62	72	5
BRTAP	62	144	1
BRTAP	62	144	3
NMTAP	62	192	0
NMTAP	62	192	7
NMTAP	62	264	1
NMTAP	62	264	2
NMTAP	62	336	5
NMTAP	62	336	6
BXTAP	63	0	3
BXTAP	63	0	4
BXSTR	63	48	3
NMSXR	63	48	3	96	192	0
BXSTR	63	48	4
NMSXL	63	48	4	96	192	7
NMHLD	64	0	1	96
NMTAP	64	96	3
NMSTR	64	192	6
BRSI_	64	192	6	96	48	3
NMSTR	64	192	7
BRSI_	64	192	7	96	48	2
EXSTR	65	0	1
NMSI_	65	0	1	96	48	6
NMSTR	65	96	5
NMSI_	65	96	5	96	48	2
NMTAP	65	192	7
NMTAP	65	240	7
NMTAP	65	288	3
NMTAP	65	336	3
NMTAP	66	0	0
NMTAP	66	0	4
NMHLD	66	48	0	192
NMTAP	66	48	4
NMTAP	66	144	5
NMTAP	66	192	6
NMTAP	66	240	7
EXTAP	66	288	0
EXTAP	66	288	7
NMSTR	67	0	6
NMSI_	67	0	6	96	48	1
NMSTR	67	96	2
NMSI_	67	96	2	96	48	5
NMTAP	67	192	0
NMTAP	67	240	0
NMTAP	67	288	4
NMTAP	67	336	4
NMTAP	68	0	3
NMTAP	68	0	7
NMSTR	68	48	3
NMSCR	68	48	3	96	144	2
NMTAP	68	48	7
BXHLD	68	144	0	144
NMTAP	69	0	6
NMHLD	69	48	6	72
NMTAP	69	120	4
NMSTR	69	192	3
NMSI_	69	192	3	96	48	0
NMSTR	69	192	7
NMSI_	69	192	7	96	48	4
NMTAP	70	0	1
NMHLD	70	48	1	72
NMTAP	70	120	3
NMSTR	70	192	0
NMSI_	70	192	0	96	48	3
NMSTR	70	192	4
NMSI_	70	192	4	96	48	7
NMTAP	71	0	6
NMTAP	71	48	5
NMTAP	71	96	4
NMTAP	71	144	2
NMTAP	71	144	3
NMTAP	71	240	6
NMSTR	71	240	7
NMSCR	71	240	7	96	144	5
NMTTP	71	336	0	C	1	M1
NMTAP	72	96	0
NMTAP	72	144	0
NMTAP	72	192	7
NMTAP	72	240	7
NMTAP	72	288	1
NMTAP	72	288	6
NMSTR	73	0	1
NMSI_	73	0	1	96	48	6
BXSTR	73	96	5
NMSI_	73	96	5	96	48	2
NMTAP	73	192	7
NMTAP	73	240	7
NMTAP	73	288	3
NMTAP	73	336	3
NMTAP	74	0	0
NMTAP	74	0	4
NMTAP	74	48	1
NMTAP	74	72	3
NMTAP	74	96	1
NMTAP	74	120	3
NMTAP	74	144	2
NMTAP	74	192	6
NMTAP	74	216	4
NMTAP	74	240	6
NMTAP	74	264	4
NMTAP	74	288	5
NMSTR	75	0	6
NMSI_	75	0	6	96	48	1
NMSTR	75	96	2
NMSI_	75	96	2	96	48	5
NMTAP	75	192	0
NMTAP	75	240	0
NMTAP	75	288	4
NMTAP	75	336	4
BRTAP	76	0	3
BRTAP	76	0	7
BRTAP	76	72	1
BRTAP	76	72	5
BRSTR	76	144	0
NMSCR	76	144	0	96	48	3
BRSTR	76	144	7
NMSCL	76	144	7	96	48	4
NMTAP	77	0	6
NMHLD	77	48	6	72
NMTAP	77	120	4
NMSTR	77	192	3
NMSI_	77	192	3	96	48	0
NMSTR	77	192	5
NMSI_	77	192	5	96	48	0
NMTAP	78	0	1
NMHLD	78	48	1	72
NMTAP	78	120	3
NMSTR	78	192	2
NMSI_	78	192	2	96	48	7
NMSTR	78	192	4
NMSI_	78	192	4	96	48	7
NMTAP	79	0	6
NMTAP	79	48	5
NMTAP	79	96	4
NMTAP	79	144	2
NMTAP	79	144	3
NMHLD	79	240	6	528
NMTAP	79	240	7
NMTAP	79	336	4
NMTAP	80	0	4
NMTAP	80	48	4
NMTAP	80	96	3
NMTAP	80	144	3
NMTAP	80	192	2
NMTAP	80	240	2
NMTAP	80	288	1
NMTAP	80	336	1
NMTAP	81	0	0
NMTAP	81	24	7
NMTAP	81	48	0
NMTAP	81	72	7
NMTAP	81	96	0
NMTAP	81	120	7
NMTAP	81	144	0
NMTAP	81	168	7
NMTAP	81	192	1
NMTAP	81	216	7
NMTAP	81	240	0
NMTAP	81	264	7
NMTAP	81	288	0
NMTAP	81	312	7
NMTAP	81	336	0
NMTAP	81	360	7
BRSTR	82	0	1
BRSI_	82	0	1	96	48	5
BRSTR	82	96	6
BRSI_	82	96	6	96	48	0
BRSTR	82	192	2
BRSI_	82	192	2	96	48	4
BRSTR	82	288	7
BRSCL	82	288	7	96	192	0
NMTTP	83	0	0	C	1	M1
NMTTP	83	0	3	B	0	M1
NMTTP	83	0	4	B	0	M1
NMTAP	84	0	2
NMTAP	84	0	6
NMHLD	84	48	2	240
NMHLD	84	48	6	240
NMSTR	85	0	4
NMSXR	85	0	4	96	288	0
NMTAP	85	0	5
EXSTR	86	0	7
NMSI_	86	0	7	96	48	3
EXSTR	86	192	0
NMSI_	86	192	0	96	48	3
NMSI_	86	192	0	96	48	5
EXTAP	87	0	4
EXHLD	87	0	6	72
NMTAP	87	72	7
NMTAP	87	144	0
NMTAP	87	144	5
EXHLD	87	192	1	72
EXTAP	87	192	3
NMTAP	87	264	0
NMTAP	87	336	2
NMTAP	87	336	7
EXTAP	88	0	4
EXHLD	88	0	6	72
NMTAP	88	72	7
NMTAP	88	144	0
NMTAP	88	144	5
EXHLD	88	192	1	72
EXTAP	88	192	3
NMTAP	88	264	0
NMTAP	88	336	2
NMTAP	88	336	7
EXTAP	89	0	6
NMTAP	89	24	4
NMTAP	89	48	6
NMTAP	89	72	4
NMTAP	89	96	6
NMTAP	89	120	4
NMTAP	89	144	6
NMTAP	89	168	4
NMTAP	89	192	6
BRSTR	89	288	0
NMSCL	89	288	0	96	480	1
BRSTR	89	288	7
NMSCR	89	288	7	96	480	6
NMTTP	91	192	0	C	1	M1
NMTTP	91	192	2	B	0	M1
NMTTP	91	192	3	B	0	M1
NMTTP	91	192	4	B	0	M1
NMTTP	91	192	5	B	0	M1
BXTAP	92	96	1
NMTAP	92	120	0
NMTAP	92	144	1
NMTAP	92	168	0
NMTAP	92	192	2
NMTAP	92	216	7
NMTAP	92	240	2
NMTAP	92	264	7
NMTAP	92	288	3
NMTAP	92	312	6
NMTAP	92	336	3
NMTAP	92	360	6
NMTAP	93	0	4
NMTAP	93	24	5
NMTAP	93	48	4
NMTAP	93	72	5
NMTAP	93	96	2
NMTAP	93	120	3
NMTAP	93	144	2
NMTAP	93	168	3
NMTAP	93	192	1
NMTAP	93	216	4
NMTAP	93	240	1
NMTAP	93	264	4
NMTAP	93	288	0
NMTAP	93	312	5
NMTAP	93	336	0
NMTAP	93	360	5
BRTAP	94	48	6
BRTAP	94	48	7
EXTAP	94	120	1
EXTAP	94	120	5
EXTAP	94	192	2
EXTAP	94	216	3
EXTAP	94	264	1
EXTAP	94	264	4
EXTAP	94	312	1
EXTAP	94	312	4
BXTAP	95	0	4
BXTAP	95	0	6
BXTAP	95	72	2
BXTAP	95	72	3
BXTAP	95	144	0
BXTAP	95	144	7

T_REC_TAP	379
T_REC_BRK	63
T_REC_XTP	46
T_REC_BXX	20
T_REC_HLD	42
T_REC_XHO	15
T_REC_BHO	0
T_REC_BXH	2
T_REC_STR	43
T_REC_BST	11
T_REC_XST	7
T_REC_XBS	6
T_REC_TTP	38
T_REC_THO	0
T_REC_SLD	62
T_REC_BSL	7
T_REC_ALL	741
T_NUM_TAP	513
T_NUM_BRK	109
T_NUM_HLD	57
T_NUM_SLD	62
T_NUM_ALL	741
T_JUDGE_TAP	613
T_JUDGE_HLD	182
T_JUDGE_SLD	69
T_JUDGE_ALL	864
TTM_EACHPAIRS	143
TTM_SCR_TAP	256500
TTM_SCR_BRK	283400
TTM_SCR_HLD	57000
TTM_SCR_SLD	93000
TTM_SCR_ALL	689900
TTM_SCR_S	658650
TTM_SCR_SS	679000
TTM_RAT_ACV	10160

