VERSION	0.00.00	1.04.00
FES_MODE	0
BPM_DEF	166.000	166.000	166.000	166.000
MET_DEF	4	4
RESOLUTION	384
CLK_DEF	384
COMPATIBLE_CODE	MA2

BPM	0	0	166.000
MET	0	0	4	4

NMHLD	2	0	2	192
NMHLD	2	192	3	192
NMHLD	3	0	4	192
NMTAP	3	192	5
NMHLD	4	0	5	192
NMHLD	4	192	4	192
NMHLD	5	0	3	192
NMTAP	5	192	2
NMTTP	6	0	1	B	0	L1
NMTTP	6	96	2	B	0	L1
NMTTP	6	192	3	B	0	L1
NMTTP	7	0	6	B	0	L1
NMTTP	7	96	5	B	0	L1
NMTTP	7	192	4	B	0	L1
NMTHO	8	0	0	288	C	1	L1
NMSTR	10	0	6
NMSUL	10	0	6	96	480	3
NMTAP	12	0	2
NMTAP	12	96	2
NMTAP	12	192	2
NMTAP	12	192	3
NMTAP	13	0	1
NMTAP	13	96	1
NMTAP	13	192	0
NMTAP	13	192	1
NMTAP	14	0	7
NMTAP	14	96	7
NMTAP	14	192	6
NMTAP	14	192	7
NMTAP	15	0	4
NMTAP	15	0	5
NMTAP	15	96	4
NMTAP	15	96	5
NMTAP	15	192	3
NMTAP	15	192	6
NMTAP	16	0	5
NMTAP	16	96	5
NMTAP	16	192	4
NMTAP	16	192	5
NMTAP	17	0	6
NMTAP	17	96	6
NMTAP	17	192	6
NMTAP	17	192	7
NMTAP	18	0	0
NMTAP	18	96	0
NMTAP	18	192	0
NMTAP	18	192	1
NMTAP	19	0	2
NMTAP	19	0	3
NMTAP	19	96	2
NMTAP	19	96	3
NMTAP	19	192	1
NMTAP	19	192	4
NMTAP	20	0	2
NMTAP	20	96	2
NMTAP	20	192	2
NMTAP	20	192	3
NMTAP	20	288	2
NMTAP	20	288	3
NMTAP	21	0	1
NMTAP	21	96	1
NMTAP	21	192	0
NMTAP	21	192	1
NMTAP	21	288	0
NMTAP	21	288	1
NMTAP	22	0	7
NMTAP	22	96	7
NMTAP	22	192	6
NMTAP	22	192	7
NMTAP	22	288	6
NMTAP	22	288	7
NMTAP	23	0	5
NMTAP	23	96	5
NMTAP	23	192	4
NMTAP	23	192	5
NMTAP	24	0	5
NMTAP	24	96	5
NMTAP	24	192	4
NMTAP	24	192	5
NMTAP	24	288	4
NMTAP	24	288	5
NMTAP	25	0	6
NMTAP	25	96	6
NMTAP	25	192	6
NMTAP	25	192	7
NMTAP	25	288	6
NMTAP	25	288	7
NMTAP	26	0	0
NMTAP	26	96	0
NMTAP	26	192	0
NMTAP	26	192	1
NMTAP	26	288	0
NMTAP	26	288	1
NMTAP	27	0	2
NMTAP	27	96	2
NMTAP	27	192	2
NMTAP	27	192	3
NMTAP	28	0	4
NMTAP	28	96	4
NMTAP	28	192	3
NMTAP	28	192	4
NMTAP	29	0	3
NMTAP	29	96	3
NMTAP	29	192	3
NMTAP	29	192	4
EXSTR	30	0	2
NMSI_	30	0	2	96	288	5
EXSTR	31	336	7
NMSI_	31	336	7	96	288	3
EXSTR	34	0	1
NMSI_	34	0	1	96	288	4
EXSTR	35	312	6
NMSI_	35	312	6	96	288	2
EXSTR	37	336	0
NMSI_	37	336	0	96	288	4
NMHLD	40	0	3	192
NMHLD	40	0	4	192
NMTAP	41	0	2
NMTAP	41	48	2
NMTAP	41	96	2
NMTAP	41	192	1
NMTAP	41	288	1
NMTAP	42	0	0
NMTAP	42	48	0
NMTAP	42	96	0
NMTAP	42	192	6
NMTAP	42	192	7
NMTAP	43	0	5
NMTAP	43	48	5
NMTAP	43	96	5
NMTAP	43	192	6
NMTAP	43	288	6
NMTAP	44	0	7
NMTAP	44	48	7
NMTAP	44	96	7
NMTAP	44	192	0
NMTAP	44	192	1
NMTAP	45	0	1
NMTAP	45	48	1
NMTAP	45	96	1
NMTAP	45	192	2
NMTAP	45	288	2
NMTAP	46	0	3
NMTAP	46	48	3
NMTAP	46	96	3
NMTAP	46	192	4
NMTAP	46	192	5
NMTAP	47	0	6
NMTAP	47	48	6
NMTAP	47	96	6
NMTAP	47	192	5
NMTAP	47	288	5
NMTAP	48	0	4
NMTAP	48	48	4
NMTAP	48	96	4
NMTAP	48	192	2
NMTAP	48	192	3
NMTAP	49	0	2
NMTAP	49	48	2
NMTAP	49	96	2
NMTAP	49	192	0
NMTAP	49	192	1
NMTAP	49	288	0
NMTAP	49	288	1
NMTAP	50	0	7
NMTAP	50	48	7
NMTAP	50	96	7
NMTAP	50	192	6
NMTAP	50	192	7
NMTAP	51	0	5
NMTAP	51	48	5
NMTAP	51	96	5
NMTAP	51	192	6
NMTAP	51	192	7
NMTAP	51	288	6
NMTAP	51	288	7
NMTAP	52	0	0
NMTAP	52	48	0
NMTAP	52	96	0
NMTAP	52	192	0
NMTAP	52	192	1
NMTAP	53	0	1
NMTAP	53	48	1
NMTAP	53	96	1
NMTAP	53	192	2
NMTAP	53	192	3
NMTAP	53	288	2
NMTAP	53	288	3
NMTAP	54	0	4
NMTAP	54	48	4
NMTAP	54	96	4
NMTAP	54	192	4
NMTAP	54	192	5
NMTAP	55	0	6
NMTAP	55	48	6
NMTAP	55	96	6
NMTAP	55	192	4
NMTAP	55	192	5
NMTAP	55	288	4
NMTAP	55	288	5
NMTAP	56	0	3
NMTAP	56	48	3
NMTAP	56	96	3
NMTAP	56	192	2
NMTAP	56	192	3
EXSTR	57	96	1
NMSXR	57	96	1	96	480	4
EXSTR	59	96	6
NMSXL	59	96	6	96	480	3
EXSTR	61	96	1
NMSXR	61	96	1	96	480	4
NMTTP	64	0	3	B	0	L1
NMTTP	64	0	4	B	0	L1
NMTTP	64	192	0	C	1	L1
NMTTP	64	192	2	B	0	L1
NMTTP	64	192	5	B	0	L1
BRTAP	65	0	7
NMTAP	65	48	7
NMTAP	65	96	7
NMTAP	65	192	0
NMTAP	65	192	7
NMTAP	65	288	0
NMTAP	65	288	7
NMTAP	66	0	1
NMTAP	66	48	1
NMTAP	66	96	1
NMTAP	66	192	0
NMTAP	66	192	1
NMTAP	66	288	0
NMTAP	66	288	1
NMTAP	67	0	2
NMTAP	67	48	2
NMTAP	67	96	2
NMTAP	67	192	0
NMTAP	67	192	1
NMTAP	67	288	0
NMTAP	67	288	1
NMTAP	68	0	7
NMTAP	68	48	7
NMTAP	68	96	7
NMTAP	68	192	6
NMTAP	68	192	7
NMTAP	69	0	6
NMTAP	69	48	6
NMTAP	69	96	6
NMTAP	69	192	4
NMTAP	69	192	5
NMTAP	69	288	4
NMTAP	69	288	5
NMTAP	70	0	3
NMTAP	70	48	3
NMTAP	70	96	3
NMTAP	70	192	2
NMTAP	70	192	3
NMTAP	70	288	2
NMTAP	70	288	3
NMTAP	71	0	1
NMTAP	71	48	1
NMTAP	71	96	1
NMTAP	71	192	2
NMTAP	71	192	3
NMTAP	71	288	2
NMTAP	71	288	3
NMTAP	72	0	4
NMTAP	72	48	4
NMTAP	72	96	4
BXTAP	72	192	4
BXTAP	72	192	5
NMTAP	73	0	5
NMTAP	73	48	5
NMTAP	73	96	5
NMTAP	73	192	6
NMTAP	73	192	7
NMTAP	73	240	6
NMTAP	73	240	7
NMTAP	73	288	6
NMTAP	73	288	7
NMTAP	74	0	0
NMTAP	74	48	0
NMTAP	74	96	0
NMTAP	74	192	0
NMTAP	74	192	1
NMTAP	75	0	2
NMTAP	75	48	2
NMTAP	75	96	2
NMTAP	75	192	0
NMTAP	75	192	1
NMTAP	75	240	0
NMTAP	75	240	1
NMTAP	75	288	0
NMTAP	75	288	1
NMTAP	76	0	7
NMTAP	76	48	7
NMTAP	76	96	7
NMTAP	76	192	6
NMTAP	76	192	7
NMTAP	77	0	6
NMTAP	77	48	6
NMTAP	77	96	6
NMTAP	77	192	4
NMTAP	77	192	5
NMTAP	77	240	4
NMTAP	77	240	5
NMTAP	77	288	4
NMTAP	77	288	5
NMTAP	78	0	3
NMTAP	78	48	3
NMTAP	78	96	3
NMTAP	78	192	2
NMTAP	78	192	3
NMTAP	79	0	1
NMTAP	79	48	1
NMTAP	79	96	1
NMTAP	79	192	2
NMTAP	79	192	3
NMTAP	79	240	2
NMTAP	79	240	3
NMTAP	79	288	2
NMTAP	79	288	3
NMTAP	80	0	4
NMTAP	80	48	4
NMTAP	80	96	4
NMTAP	80	192	4
NMTAP	80	192	5
NMTAP	81	0	3
NMTAP	81	0	4
NMTAP	81	48	3
NMTAP	81	48	4
NMTAP	81	96	3
NMTAP	81	96	4
NMTAP	81	192	2
NMTAP	81	192	5
NMTAP	81	240	2
NMTAP	81	240	5
NMTAP	81	288	2
NMTAP	81	288	5
NMTAP	82	0	1
NMTAP	82	0	6
NMTAP	82	48	1
NMTAP	82	48	6
NMTAP	82	96	1
NMTAP	82	96	6
NMTAP	82	192	0
NMTAP	82	192	7
NMTAP	82	240	0
NMTAP	82	240	7
NMTAP	82	288	0
NMTAP	82	288	7
BRTAP	83	0	1
BRTAP	83	0	6
NMSTR	84	0	0
NMSI_	84	0	0	96	192	4
NMSTR	85	0	6
NMSI_	85	0	6	96	192	3
NMSTR	86	0	1
NMSI_	86	0	1	96	192	4
NMTAP	87	0	5
NMTAP	87	96	6
NMTAP	87	192	7
NMTAP	87	288	0
NMTAP	88	0	1
NMTAP	88	96	2
NMTAP	88	192	3
NMTAP	88	288	4
NMTAP	89	0	5
NMTAP	89	96	6
NMTAP	89	192	7
NMSTR	89	288	0
NMSXL	89	288	0	96	576	3
NMSTR	89	288	7
NMSXR	89	288	7	96	576	4
NMTAP	92	0	3
NMTAP	92	96	2
NMTAP	92	192	1
NMTAP	92	288	0
NMTAP	93	0	7
NMTAP	93	96	6
NMTAP	93	192	5
NMSTR	93	288	3
NMSI_	93	288	3	96	192	0
NMSTR	93	288	4
NMSI_	93	288	4	96	192	7
EXHLD	95	0	0	144
EXHLD	95	0	7	144

T_REC_TAP	325
T_REC_BRK	3
T_REC_XTP	0
T_REC_BXX	2
T_REC_HLD	8
T_REC_XHO	2
T_REC_BHO	0
T_REC_BXH	0
T_REC_STR	8
T_REC_BST	0
T_REC_XST	8
T_REC_XBS	0
T_REC_TTP	11
T_REC_THO	1
T_REC_SLD	16
T_REC_BSL	0
T_REC_ALL	384
T_NUM_TAP	352
T_NUM_BRK	5
T_NUM_HLD	11
T_NUM_SLD	16
T_NUM_ALL	384
T_JUDGE_TAP	357
T_JUDGE_HLD	44
T_JUDGE_SLD	16
T_JUDGE_ALL	417
TTM_EACHPAIRS	91
TTM_SCR_TAP	176000
TTM_SCR_BRK	13000
TTM_SCR_HLD	11000
TTM_SCR_SLD	24000
TTM_SCR_ALL	224000
TTM_SCR_S	216800
TTM_SCR_SS	223500
TTM_RAT_ACV	10022

