VERSION	0.00.00	1.04.00
FES_MODE	0
BPM_DEF	205.000	205.000	205.000	205.000
MET_DEF	4	4
RESOLUTION	384
CLK_DEF	384
COMPATIBLE_CODE	MA2

BPM	0	0	205.000
MET	0	0	4	4

NMSTR	3	0	2
NMSI_	3	0	2	96	1056	5
NMTAP	3	192	5
NMTAP	4	0	4
NMTAP	4	192	4
NMTAP	5	0	3
NMTAP	5	192	3
NMTAP	6	0	2
NMTAP	6	192	3
NMTAP	6	192	4
NMSTR	7	0	5
NMSI_	7	0	5	96	1056	2
NMTAP	7	192	2
NMTAP	8	0	3
NMTAP	8	192	3
NMTAP	9	0	4
NMTAP	9	192	4
NMTAP	10	0	5
NMTAP	10	192	2
NMTAP	10	192	4
NMSTR	11	0	1
NMSCR	11	0	1	96	480	4
NMTAP	11	192	4
NMTAP	12	0	5
NMTAP	12	192	6
NMSTR	13	0	7
NMSCL	13	0	7	96	480	3
NMTAP	13	192	3
NMTAP	14	0	2
NMTAP	14	192	1
NMSTR	15	0	0
NMSI_	15	0	0	96	192	5
NMTAP	15	0	4
NMTAP	15	192	4
NMTAP	16	0	4
NMSTR	16	0	6
NMSI_	16	0	6	96	192	2
NMTAP	16	192	4
NMSTR	17	0	4
NMSXL	17	0	4	96	480	0
NMSTR	18	0	1
NMSI_	18	0	1	96	96	3
NMTAP	19	0	2
NMTAP	19	0	6
NMTAP	19	96	5
NMTAP	19	144	5
NMTAP	19	192	3
NMTAP	19	240	4
NMTAP	19	288	2
NMTAP	20	0	1
NMTAP	20	0	3
NMTAP	20	96	2
NMTAP	20	144	2
NMTAP	20	192	4
NMTAP	20	240	3
NMTAP	20	288	5
NMTAP	21	0	3
NMTAP	21	0	6
NMTAP	21	96	5
NMTAP	21	144	5
NMTAP	21	192	4
NMTAP	21	240	3
NMTAP	21	288	2
NMHLD	22	0	1	96
NMTAP	22	0	4
NMTAP	22	96	3
NMTAP	22	192	3
NMTAP	22	216	4
NMTAP	22	240	5
NMTAP	22	264	6
NMTAP	22	288	0
NMTAP	22	288	7
NMTAP	22	312	1
NMTAP	22	336	2
NMTAP	22	360	3
NMSTR	23	0	4
NMSI_	23	0	4	96	48	1
NMTAP	23	0	5
NMTAP	23	72	6
NMTAP	23	96	4
NMTAP	23	144	7
NMHLD	23	192	2	96
NMHLD	23	192	6	96
NMTAP	24	0	3
NMSTR	24	0	5
NMSI_	24	0	5	96	48	2
NMTAP	24	72	1
NMTAP	24	96	5
NMTAP	24	144	0
NMTAP	24	192	1
NMTAP	24	216	3
NMTAP	24	240	1
NMTAP	24	264	3
NMTAP	24	288	2
NMTAP	24	312	4
NMTAP	24	336	2
NMTAP	25	0	3
NMTAP	25	0	5
NMTAP	25	48	2
NMTAP	25	48	6
NMTAP	25	144	1
NMTAP	25	144	3
NMTAP	25	192	0
NMTAP	25	192	4
NMTAP	25	288	4
NMTAP	25	288	6
NMTAP	25	336	3
NMTAP	25	336	7
EXSTR	26	48	1
NMSXL	26	48	1	96	432	7
BXSTR	26	96	5
NMSXL	26	96	5	96	384	3
NMSTR	28	0	0
NMSCR	28	0	0	96	48	3
NMSTR	28	0	4
NMSI_	28	0	4	96	48	7
NMTAP	28	96	0
NMTAP	28	96	4
EXSTR	28	192	4
NMSI_	28	192	4	96	48	1
NMSTR	28	288	7
NMSI_	28	288	7	96	48	3
NMSTR	29	0	2
NMSI_	29	0	2	96	48	6
NMTAP	29	96	4
NMSTR	29	144	4
NMSI_	29	144	4	96	48	7
EXTAP	29	240	0
EXTAP	29	240	4
NMSTR	30	0	7
NMSCL	30	0	7	96	48	4
NMTAP	30	48	0
NMSTR	30	96	1
NMSI_	30	96	1	96	48	5
NMSTR	30	192	3
NMSI_	30	192	3	96	48	6
NMSTR	30	288	0
NMSI_	30	288	0	96	48	4
NMSTR	31	0	5
NMSI_	31	0	5	96	48	1
NMTAP	31	96	3
NMSTR	31	144	3
NMSI_	31	144	3	96	48	0
NMSI_	31	144	3	96	48	6
EXTAP	31	240	3
NMTAP	32	0	1
NMTAP	32	0	5
NMTAP	32	48	1
NMTAP	32	48	5
NMSTR	32	96	0
NMSUR	32	96	0	96	48	4
NMTAP	32	96	6
NMSTR	32	192	7
NMSCR	32	192	7	96	48	2
NMSTR	32	288	6
NMSUR	32	288	6	96	48	2
NMSTR	33	0	5
NMSCR	33	0	5	96	48	0
NMSTR	33	96	4
NMSUR	33	96	4	96	48	0
NMSTR	33	192	3
NMSCR	33	192	3	96	48	6
NMSTR	33	288	1
NMSUR	33	288	1	96	96	4
NMHLD	34	0	7	96
NMTAP	34	144	7
NMSTR	34	192	7
NMSI_	34	192	7	96	48	3
NMSTR	34	288	3
NMSCL	34	288	3	96	96	5
NMTAP	34	288	7
BXTAP	35	0	0
NMTAP	35	192	5
NMTAP	35	216	4
NMTAP	35	240	5
NMTAP	35	264	4
NMSTR	35	288	6
NMSI_	35	288	6	96	48	3
NMTAP	36	0	2
EXTAP	36	0	6
NMTAP	36	96	1
NMTAP	36	120	7
NMTAP	36	144	1
NMTAP	36	168	7
NMTAP	36	192	0
NMTAP	36	216	6
NMTAP	36	240	0
NMTAP	36	288	1
NMSTR	36	288	7
NMSCL	36	288	7	96	96	3
NMSTR	37	0	3
NMSCL	37	0	3	96	96	7
NMSTR	37	96	7
NMSCL	37	96	7	96	96	3
NMTAP	37	192	3
NMTAP	37	288	0
BRTAP	38	0	2
NMTAP	38	0	3
BRTAP	38	48	2
NMTAP	38	48	3
NMTAP	38	96	6
NMTAP	38	120	7
NMTAP	38	144	6
BRTAP	38	192	4
NMTAP	38	192	5
BRTAP	38	240	4
NMTAP	38	240	5
NMTAP	38	288	1
NMTAP	38	312	0
NMTAP	38	336	1
NMTAP	39	0	2
NMTAP	39	0	7
NMTAP	39	96	1
NMTAP	39	120	2
NMTAP	39	144	3
NMTAP	39	168	4
NMTAP	39	192	0
NMTAP	39	216	7
NMTAP	39	240	6
NMTAP	39	264	5
BRTAP	39	288	0
BRTAP	39	288	4
NMSTR	40	0	2
NMSI_	40	0	2	96	48	6
NMTAP	40	0	7
NMSTR	40	96	0
NMSI_	40	96	0	96	48	5
NMTAP	40	144	0
NMSTR	40	192	1
NMSI_	40	192	1	96	48	4
NMTAP	40	240	1
NMTAP	40	288	6
NMTAP	41	0	0
NMSTR	41	0	5
NMSI_	41	0	5	96	48	1
NMSTR	41	96	7
NMSI_	41	96	7	96	48	2
NMTAP	41	144	7
NMSTR	41	192	6
NMSI_	41	192	6	96	48	3
NMTAP	41	240	6
NMTAP	41	288	1
NMTAP	42	0	0
NMTAP	42	48	0
NMTAP	42	96	0
NMTAP	42	144	0
NMTAP	42	192	0
NMTAP	42	216	2
NMTAP	42	240	0
NMTAP	42	264	2
NMTAP	42	288	0
NMTAP	42	312	2
NMTAP	42	336	0
NMTAP	42	360	2
NMTAP	43	0	0
NMTAP	43	24	3
NMTAP	43	48	0
NMTAP	43	72	4
NMTAP	43	96	0
NMTAP	43	120	5
NMTAP	43	144	0
NMTAP	43	168	6
NMTAP	43	192	0
NMTAP	43	204	1
NMTAP	43	216	2
NMTAP	43	228	3
NMTAP	43	240	4
NMTAP	43	252	5
NMTAP	43	264	6
NMTAP	43	276	7
BRTAP	43	288	0
NMTAP	43	288	4
NMTTP	44	0	5	B	0	M1
NMTTP	44	48	3	B	0	M1
NMTTP	44	96	0	C	0	M1
NMSTR	44	144	0
NMSCR	44	144	0	96	144	6
NMTAP	44	240	7
NMTAP	44	288	7
NMHLD	45	0	0	288
NMTTP	45	96	7	E	0	M1
NMTTP	45	144	6	E	0	M1
NMTTP	45	168	5	B	0	M1
NMTTP	45	192	4	B	0	M1
NMTAP	45	288	1
NMTTP	46	0	3	B	0	M1
NMTTP	46	48	5	B	0	M1
NMTTP	46	96	0	C	0	M1
NMSTR	46	144	7
NMSCL	46	144	7	96	144	1
NMTAP	46	240	0
NMTAP	46	288	0
NMHLD	47	0	7	288
NMTTP	47	96	1	E	0	M1
NMTTP	47	144	2	E	0	M1
NMTTP	47	168	2	B	0	M1
NMTTP	47	192	3	B	0	M1
NMTAP	47	288	6
NMHLD	48	0	5	72
NMHLD	48	72	4	72
NMTAP	48	144	3
NMSTR	48	192	3
NMSI_	48	192	3	96	48	5
NMTAP	48	288	0
NMHLD	49	0	2	72
NMHLD	49	72	3	72
NMTAP	49	144	4
NMTAP	49	192	4
NMTAP	49	240	5
NMSTR	49	288	4
NMSI_	49	288	4	96	48	0
NMSTR	50	240	7
NMSI_	50	240	7	96	48	3
EXTAP	50	336	7
NMTAP	51	96	2
NMHLD	51	96	4	96
NMHLD	51	192	6	96
NMSTR	51	288	0
NMSCL	51	288	0	96	48	5
BRSTR	52	0	3
NMSF_	52	0	3	96	48	7
NMTAP	52	96	3
NMSTR	52	192	1
NMSCR	52	192	1	96	48	4
NMSTR	52	192	5
NMSCR	52	192	5	96	48	0
NMTAP	52	240	0
NMTAP	52	240	4
NMTAP	52	288	1
NMSTR	52	288	5
NMSI_	52	288	5	96	48	1
NMTAP	53	0	5
NMSTR	53	0	7
NMSI_	53	0	7	96	48	3
NMSTR	53	96	2
NMSI_	53	96	2	96	48	6
NMTAP	53	144	2
NMSTR	53	192	5
NMSI_	53	192	5	96	48	0
NMTAP	53	240	5
NMSTR	53	288	1
NMSI_	53	288	1	96	48	5
NMTAP	53	336	1
NMTAP	54	0	6
NMTAP	54	96	3
NMTAP	54	96	7
NMTAP	54	192	2
NMTAP	54	216	3
NMTAP	54	240	2
NMTAP	54	288	1
NMSTR	54	288	4
NMSCR	54	288	4	96	48	7
NMTAP	54	336	1
NMTAP	54	336	4
NMTAP	55	0	1
NMTAP	55	24	2
NMTAP	55	48	3
NMTAP	55	72	4
NMTAP	55	96	0
NMTAP	55	120	1
NMTAP	55	144	2
NMTAP	55	168	3
NMTAP	55	192	7
NMTAP	55	216	0
NMTAP	55	240	1
NMTAP	55	264	2
NMTAP	55	288	3
NMTAP	55	288	7
BRSTR	56	0	4
NMSF_	56	0	4	96	48	0
NMTAP	56	0	6
NMTAP	56	96	4
NMSTR	56	192	2
NMSCL	56	192	2	96	48	7
NMSTR	56	192	6
NMSCL	56	192	6	96	48	3
NMTAP	56	240	3
NMTAP	56	240	7
NMSTR	56	288	2
NMSI_	56	288	2	96	48	6
NMTAP	56	288	6
NMSTR	57	0	0
NMSI_	57	0	0	96	48	4
NMTAP	57	0	2
NMSTR	57	96	5
NMSI_	57	96	5	96	48	0
NMTAP	57	144	5
NMSTR	57	192	2
NMSI_	57	192	2	96	48	7
NMTAP	57	240	2
EXTAP	57	288	5
NMTAP	58	0	0
NMTAP	58	0	4
BRTAP	58	96	7
NMTAP	58	120	5
NMTAP	58	144	7
NMTAP	58	168	5
BRTAP	58	192	0
NMTAP	58	216	6
NMTAP	58	240	0
NMTAP	58	264	6
BRTAP	58	288	1
NMTAP	58	312	7
NMTAP	58	336	1
NMTAP	58	360	7
BRTAP	59	0	2
NMTAP	59	24	0
NMTAP	59	48	3
NMTAP	59	72	7
NMTAP	59	96	4
NMTAP	59	120	6
NMTAP	59	144	3
NMTAP	59	168	5
NMTAP	59	192	2
NMTAP	59	216	1
NMTAP	59	240	0
NMTAP	59	264	7
NMTAP	59	288	2
NMTAP	59	288	6
NMTAP	59	312	5
NMTAP	59	336	4
NMTAP	59	360	3
NMSTR	60	0	2
NMSV_	60	0	2	96	48	7
NMSTR	60	0	6
NMSI_	60	0	6	96	48	3
NMTAP	60	96	2
NMTAP	60	96	6
NMSTR	60	192	1
NMSCR	60	192	1	96	48	4
NMSTR	60	240	5
NMSCR	60	240	5	96	48	0
NMSTR	60	288	1
NMSI_	60	288	1	96	48	5
NMTAP	60	336	5
NMTAP	61	0	1
NMTAP	61	96	3
NMTAP	61	96	7
NMTAP	61	192	5
NMTAP	61	216	4
NMTAP	61	240	6
NMTAP	61	264	3
NMTAP	61	288	5
NMTAP	61	312	4
NMTAP	61	336	5
NMSTR	62	0	3
NMSCL	62	0	3	96	48	0
NMSTR	62	0	6
NMSCL	62	0	6	96	48	3
NMTAP	62	96	3
NMTAP	62	96	6
NMTAP	62	192	6
NMTAP	62	216	7
NMTAP	62	240	6
NMSTR	62	288	0
NMSCR	62	288	0	96	48	3
NMTAP	62	288	5
NMTAP	62	336	0
NMTAP	62	336	5
NMTAP	63	0	5
NMTAP	63	24	6
NMTAP	63	48	7
NMTAP	63	72	0
NMTAP	63	96	4
NMTAP	63	120	5
NMTAP	63	144	6
NMTAP	63	168	7
NMTAP	63	192	3
NMTAP	63	216	4
NMTAP	63	240	5
NMTAP	63	264	6
NMTAP	63	288	3
NMTAP	63	288	7
BRSTR	64	0	1
NMSI_	64	0	1	96	48	4
BRSTR	64	0	5
NMSV_	64	0	5	96	48	0
NMTAP	64	96	1
NMTAP	64	96	5
NMSTR	64	192	6
NMSCL	64	192	6	96	48	3
NMSTR	64	240	2
NMSCL	64	240	2	96	48	7
NMSTR	64	288	6
NMSI_	64	288	6	96	48	2
NMTAP	64	336	2
NMTAP	65	0	6
NMTAP	65	96	0
NMTAP	65	96	4
NMTAP	65	192	2
NMTAP	65	216	3
NMTAP	65	240	1
NMTAP	65	264	4
NMTAP	65	288	2
NMTAP	65	312	3
NMTAP	65	336	2
NMSTR	66	0	1
NMSI_	66	0	1	96	48	4
NMTAP	66	0	4
NMTAP	66	48	2
NMSTR	66	96	5
NMSI_	66	96	5	96	48	0
NMTAP	66	144	6
NMSTR	66	192	2
NMSI_	66	192	2	96	48	6
NMTAP	66	240	3
EXTAP	66	288	2
EXTAP	66	288	6
NMTAP	66	336	4
BRTAP	67	0	7
NMTAP	67	24	3
NMTAP	67	48	7
NMTAP	67	72	3
NMTAP	67	96	7
NMTAP	67	120	3
NMTAP	67	144	7
NMTAP	67	168	3
NMSTR	67	192	7
NMSI_	67	192	7	96	48	3
NMTAP	67	216	0
NMTAP	67	216	4
NMTAP	67	240	1
NMTAP	67	240	5
NMTAP	67	264	2
NMTAP	67	264	6
NMTAP	67	288	3
NMTAP	67	288	7
NMSTR	68	0	1
NMSI_	68	0	1	96	48	5
NMTAP	68	0	5
NMTAP	68	48	1
NMSTR	68	48	5
NMSI_	68	48	5	96	48	1
NMTAP	68	96	1
NMTAP	68	96	5
NMTAP	68	192	7
NMSTR	68	240	7
NMSI_	68	240	7	96	48	3
NMTAP	68	336	2
NMTAP	68	336	7
NMTAP	69	48	1
NMTAP	69	72	0
NMTAP	69	96	1
NMTAP	69	144	2
NMTAP	69	144	3
NMTAP	69	192	4
NMTAP	69	192	5
NMTAP	69	240	6
NMTAP	69	240	7
NMTAP	69	288	0
NMTAP	69	336	1
NMTAP	69	336	7
NMTAP	70	0	2
NMSTR	70	0	6
NMSI_	70	0	6	96	48	2
NMSTR	70	48	2
NMSI_	70	48	2	96	48	6
NMTAP	70	48	6
NMTAP	70	96	2
NMTAP	70	96	6
NMTAP	70	192	0
NMSTR	70	240	0
NMSI_	70	240	0	96	48	4
NMTAP	70	336	0
NMTAP	70	336	5
NMTAP	71	48	6
NMTAP	71	72	7
NMTAP	71	96	6
NMTAP	71	144	0
NMTAP	71	144	5
NMTAP	71	192	1
NMTAP	71	192	4
NMTAP	71	240	2
NMTAP	71	240	3
NMTAP	71	288	3
NMTAP	71	288	4
NMTAP	71	336	4
NMTAP	71	336	5
BRSTR	72	0	2
NMSCL	72	0	2	96	48	7
BRSTR	72	0	6
NMSCL	72	0	6	96	48	3
BRTAP	72	96	2
BRTAP	72	96	6
BRSTR	72	192	4
NMSI_	72	192	4	96	48	0
BRSTR	72	240	1
NMSI_	72	240	1	96	48	5
BRTAP	72	288	4
BRTAP	72	336	1
BRSTR	73	0	7
NMSCL	73	0	7	96	48	4
NMTAP	73	96	3
BRSTR	73	96	7
NMSCR	73	96	7	96	48	2
NMTAP	73	192	3
BRSTR	73	192	7
NMSI_	73	192	7	96	48	3
NMTAP	73	288	3
BRTAP	73	288	7
BRHLD	74	0	2	32
NMHLD	74	0	4	32
BRHLD	74	64	3	32
NMHLD	74	64	5	32
BRHLD	74	128	4	32
NMHLD	74	128	6	32
BRHLD	74	192	3	32
NMHLD	74	192	7	32
BRHLD	74	256	2	32
NMHLD	74	256	6	32
BRHLD	74	320	1	32
NMHLD	74	320	5	32
BRTAP	75	0	0
NMTAP	75	32	0
NMTAP	75	64	0
BRTAP	75	96	2
NMTAP	75	128	2
NMTAP	75	160	2
BRTAP	75	192	4
NMTAP	75	224	4
NMTAP	75	256	4
BRTAP	75	288	6
NMTAP	75	320	6
NMTAP	75	352	6
BRTAP	76	0	1
NMTAP	76	24	0
BRTAP	76	48	1
NMTAP	76	72	0
BRTAP	76	96	4
NMTAP	76	120	5
BRTAP	76	144	4
NMTAP	76	168	5
BRTAP	76	192	7
BRTAP	76	216	6
BRTAP	76	240	0
BRTAP	76	264	5
BRTAP	76	288	2
BRTAP	76	312	3
BRTAP	76	336	1
BRTAP	76	360	4
BRHLD	77	0	0	384
NMTTP	78	0	0	C	0	M1
NMSTR	80	0	1
NMSCR	80	0	1	96	1248	6
EXHLD	82	0	7	960
NMSTR	84	0	5
NMSCL	84	0	5	96	480	2
NMTAP	85	0	6
NMTAP	85	192	6
NMSTR	86	0	6
NMSUL	86	0	6	96	480	3
NMTAP	88	0	2
NMTAP	88	0	3
NMTAP	88	96	2
NMTAP	88	192	2
NMTAP	88	192	4
NMTAP	88	288	2
NMTAP	88	336	3
NMTAP	89	0	2
NMTAP	89	48	4
NMTAP	89	96	3
NMTAP	89	192	4
NMTAP	89	192	5
NMTAP	89	288	5
NMTAP	90	0	6
NMTAP	90	96	6
NMTAP	90	192	4
NMTAP	90	192	6
NMTAP	90	288	6
NMTAP	90	336	4
NMTAP	91	0	5
NMTAP	91	48	3
NMHLD	91	96	4	96
NMTTP	91	192	3	E	0	M1
NMTTP	91	216	2	B	0	M1
NMTTP	91	240	1	B	0	M1
NMTTP	91	264	1	E	0	M1
NMTTP	91	288	5	E	0	M1
NMTTP	91	312	5	B	0	M1
NMTTP	91	336	6	B	0	M1
NMTTP	91	360	7	E	0	M1
EXSTR	92	0	0
NMSI_	92	0	0	96	48	4
NMTAP	92	72	7
NMTAP	92	96	0
NMTAP	92	144	7
NMHLD	92	192	2	96
NMHLD	92	192	6	96
NMSTR	93	0	5
NMSI_	93	0	5	96	48	0
NMTAP	93	72	3
NMTAP	93	96	5
NMTAP	93	144	1
NMTAP	93	192	2
NMTAP	93	216	0
NMTAP	93	240	2
NMTAP	93	264	0
NMTAP	93	288	1
NMTAP	93	312	7
NMTAP	93	336	1
NMTAP	94	0	0
NMTAP	94	0	6
NMTAP	94	48	1
NMTAP	94	48	5
NMTAP	94	144	1
NMTAP	94	144	3
NMTAP	94	192	0
NMTAP	94	192	4
NMTAP	94	288	4
NMTAP	94	288	6
NMTAP	94	336	3
NMTAP	94	336	7
EXTAP	95	96	1
EXTAP	95	96	5
NMTAP	95	192	2
NMTAP	95	216	4
NMTAP	95	240	2
NMTAP	95	264	4
NMTAP	95	288	1
NMTAP	95	312	3
NMTAP	95	336	1
NMTAP	95	360	3
NMTAP	96	0	0
NMTAP	96	24	4
NMTAP	96	48	1
NMTAP	96	72	5
NMTAP	96	96	2
NMTAP	96	120	6
NMTAP	96	144	3
NMTAP	96	168	7
NMTAP	96	192	4
NMTAP	96	216	0
NMTAP	96	240	3
NMTAP	96	264	7
NMTAP	96	288	2
NMTAP	96	312	6
NMTAP	96	336	1
NMTAP	96	360	5
NMTAP	97	0	0
NMTAP	97	16	4
NMTAP	97	32	0
NMTAP	97	48	4
NMTAP	97	64	0
NMTAP	97	80	4
NMTAP	97	96	0
NMTAP	97	112	4
NMTAP	97	128	0
NMTAP	97	144	4
NMTAP	97	160	0
NMTAP	97	176	4
NMTAP	97	192	0
NMTAP	97	208	4
NMTAP	97	224	0
NMTAP	97	240	4
NMTAP	97	256	0
NMTAP	97	272	4
NMTAP	97	288	0
NMTAP	97	304	4
NMTAP	97	320	0
NMTAP	97	336	4
NMTAP	97	352	0
NMTAP	97	368	4
BRTAP	98	0	0
NMHLD	99	192	3	192
NMTAP	99	192	4
NMHLD	100	0	1	192
NMHLD	100	192	5	96
NMSTR	100	288	0
BRSCL	100	288	0	96	48	5
BRTAP	101	0	0
BRSTR	101	0	4
BRSCL	101	0	4	96	48	1
BRTAP	101	96	4
BRTAP	101	144	5
BRTAP	101	240	6
BRTAP	101	240	7
BRTAP	101	336	0
BRTAP	101	336	5
BRTAP	102	0	0
BRHLD	102	0	5	192
BRTAP	102	96	7
BRTAP	102	144	7
BRTAP	102	192	7
BRTAP	102	216	0
BRTAP	102	240	1
BRTAP	102	264	2
BRSTR	102	288	0
BRSI_	102	288	0	96	48	4
BRTAP	102	288	3
BRTAP	102	312	7
BRTAP	102	336	6
BRTAP	102	360	5
BRTAP	103	0	0
BRTAP	103	0	4
NMTAP	103	96	2
NMTAP	103	96	6
NMSTR	103	192	7
NMSI_	103	192	7	96	48	3
NMTAP	103	216	1
NMTAP	103	240	7
NMTAP	103	264	1
NMTAP	103	288	7
NMTAP	103	336	0
NMTAP	104	0	5
NMTAP	104	24	4
NMTAP	104	48	6
NMTAP	104	72	2
NMTAP	104	96	3
NMTAP	104	120	1
NMTAP	104	144	6
NMTAP	104	168	7
NMTAP	104	192	5
NMTAP	104	216	0
NMTAP	104	240	4
NMTAP	104	264	1
NMTAP	104	288	2
NMTAP	104	288	3
NMTAP	104	336	0
NMTAP	104	336	7
NMTAP	105	0	4
NMSTR	105	0	6
NMSI_	105	0	6	96	48	3
NMTAP	105	96	2
NMTAP	105	96	6
NMSTR	105	192	2
NMSV_	105	192	2	96	48	7
NMSTR	105	240	7
NMSLR	105	240	7	96	48	4
NMTAP	105	288	2
NMTAP	105	336	6
NMSTR	106	0	5
NMSI_	106	0	5	96	48	0
NMTAP	106	48	6
NMSTR	106	96	1
NMSI_	106	96	1	96	48	4
NMTAP	106	144	2
NMSTR	106	192	6
NMSI_	106	192	6	96	48	2
CNSI_	106	240	4	0	48	2
NMTAP	106	240	5
CNSI_	106	288	2	0	48	7
NMTAP	106	288	6
NMTAP	107	0	0
NMTAP	107	24	4
NMTAP	107	48	0
NMTAP	107	72	4
NMTAP	107	96	1
NMTAP	107	120	5
NMTAP	107	144	1
NMTAP	107	168	5
NMTAP	107	192	2
NMTAP	107	216	6
NMTAP	107	240	2
NMTAP	107	264	6
NMTAP	107	288	3
NMTAP	107	312	7
NMTAP	107	336	3
NMTAP	107	360	7
NMTAP	108	0	0
NMTAP	108	0	2
NMTAP	108	48	1
NMTAP	108	48	7
NMTAP	108	96	0
NMTAP	108	96	6
NMTAP	108	144	5
NMTAP	108	144	7
NMTAP	108	192	0
NMTAP	108	204	1
NMTAP	108	216	2
NMTAP	108	228	3
NMTAP	108	240	4
NMTAP	108	252	5
NMTAP	108	264	6
NMTAP	108	276	7
BRTAP	108	288	0
NMTAP	108	288	4
NMSTR	109	0	1
NMSI_	109	0	1	96	48	4
NMTAP	109	0	5
NMTAP	109	96	1
NMTAP	109	96	7
NMSTR	109	192	5
NMSV_	109	192	5	96	48	0
NMSTR	109	240	0
NMSLL	109	240	0	96	48	3
NMTAP	109	288	5
NMTAP	109	336	1
NMSTR	110	0	2
NMSI_	110	0	2	96	48	7
NMTAP	110	48	1
NMSTR	110	96	6
NMSI_	110	96	6	96	48	3
NMTAP	110	144	5
NMSTR	110	192	1
NMSI_	110	192	1	96	48	5
NMTAP	110	240	2
CNSI_	110	240	3	0	48	5
NMTAP	110	288	1
CNSI_	110	288	5	0	48	0
NMTAP	111	0	2
NMTAP	111	0	6
NMTAP	111	96	1
NMTAP	111	96	7
NMTAP	111	144	2
NMTAP	111	144	6
NMSTR	111	192	5
NMSCL	111	192	5	96	48	2
NMTAP	111	216	4
NMTAP	111	240	5
NMTAP	111	264	4
NMTAP	111	288	5
NMTAP	111	336	0
NMTAP	112	0	0
NMTAP	112	24	3
NMTAP	112	48	2
NMTAP	112	72	5
NMTAP	112	96	4
NMTAP	112	120	6
NMTAP	112	144	1
NMTAP	112	168	0
NMTAP	112	192	2
NMTAP	112	216	7
NMTAP	112	240	3
NMTAP	112	264	6
NMTAP	112	288	4
NMTAP	112	288	5
NMTAP	112	336	0
NMTAP	112	336	7
NMSTR	113	0	1
NMSI_	113	0	1	96	48	4
NMTAP	113	0	3
NMTAP	113	96	1
NMTAP	113	96	5
NMSTR	113	192	5
NMSV_	113	192	5	96	48	0
NMSTR	113	240	0
NMSLL	113	240	0	96	48	3
NMTAP	113	288	5
NMTAP	113	336	1
NMSTR	114	0	2
NMSV_	114	0	2	96	48	7
NMTAP	114	48	1
NMSTR	114	96	6
NMSI_	114	96	6	96	48	3
NMTAP	114	144	5
NMSTR	114	192	1
NMSI_	114	192	1	96	48	5
NMTAP	114	240	2
CNSI_	114	240	3	0	48	5
NMTAP	114	288	1
CNSI_	114	288	5	0	48	0
BRTAP	115	0	7
NMTAP	115	24	3
NMTAP	115	48	7
NMTAP	115	72	3
BRTAP	115	96	6
NMTAP	115	120	2
NMTAP	115	144	6
NMTAP	115	168	2
BRTAP	115	192	5
NMTAP	115	216	1
NMTAP	115	240	5
NMTAP	115	264	1
BRTAP	115	288	4
NMTAP	115	312	0
NMTAP	115	336	4
NMTAP	115	360	0
BRTAP	116	0	3
BRTAP	116	24	7
BRTAP	116	48	3
BRTAP	116	72	7
BRTAP	116	96	3
BRTAP	116	120	7
BRTAP	116	144	3
BRTAP	116	168	7
BRTAP	116	192	3
BRTAP	116	208	2
BRTAP	116	224	1
BRTAP	116	240	0
BRTAP	116	256	7
BRTAP	116	272	6
NMTAP	116	288	1
NMTAP	116	288	5
BRSTR	117	0	0
BRSI_	117	0	0	96	48	4
BRTAP	117	0	4
BRTAP	117	48	0
BRSTR	117	48	4
BRSI_	117	48	4	96	48	0
BRTAP	117	96	0
BRTAP	117	96	4
NMTAP	117	192	5
NMSTR	117	240	2
NMSI_	117	240	2	96	48	7
NMSTR	117	240	6
NMSI_	117	240	6	96	48	3
NMTAP	117	336	2
NMTAP	117	336	6
NMTAP	118	48	5
NMTAP	118	72	4
NMTAP	118	96	3
NMTAP	118	96	6
NMTAP	118	144	2
NMTAP	118	168	3
NMTAP	118	192	1
NMTAP	118	192	4
NMTAP	118	240	7
NMTAP	118	264	0
NMTAP	118	288	1
NMTAP	118	288	6
BRTAP	119	0	3
BRSTR	119	0	7
BRSI_	119	0	7	96	48	3
BRSTR	119	48	3
BRSI_	119	48	3	96	48	7
BRTAP	119	48	7
BRTAP	119	96	3
BRTAP	119	96	7
NMTAP	119	192	2
NMSTR	119	240	1
NMSI_	119	240	1	96	48	4
NMSTR	119	240	5
NMSI_	119	240	5	96	48	0
NMTAP	119	336	1
NMTAP	119	336	5
NMTAP	120	48	2
NMTAP	120	72	2
NMTAP	120	96	7
NMTAP	120	120	6
NMTAP	120	144	5
NMTAP	120	168	4
NMTAP	120	192	0
NMTAP	120	216	1
NMTAP	120	240	2
NMTAP	120	264	3
NMTAP	120	288	4
NMTAP	120	288	7
BRTAP	121	0	2
BRSTR	121	0	6
BRSI_	121	0	6	96	48	2
BRSTR	121	48	2
BRSI_	121	48	2	96	48	6
BRTAP	121	48	6
BRTAP	121	96	2
BRTAP	121	96	6
NMTAP	121	192	1
NMSTR	121	240	0
NMSCR	121	240	0	96	48	3
NMTAP	121	240	4
NMTAP	121	336	0
NMTAP	121	336	4
NMTAP	121	360	5
NMTAP	122	0	6
NMTAP	122	24	7
NMTAP	122	48	4
NMTAP	122	72	5
NMTAP	122	96	6
NMTAP	122	120	7
BXTAP	122	144	3
NMTAP	122	160	4
NMTAP	122	176	5
NMTAP	122	192	6
NMTAP	122	208	7
NMTAP	122	224	0
NMTAP	122	240	1
NMTAP	122	256	2
NMTAP	122	272	3
NMTAP	122	288	0
NMTAP	122	288	4
BRTAP	123	0	2
BRSTR	123	0	6
BRSI_	123	0	6	96	48	2
BRSTR	123	48	2
BRSI_	123	48	2	96	48	6
BRTAP	123	48	6
BRTAP	123	96	2
BRTAP	123	96	6
NMTAP	123	192	1
NMHLD	123	240	0	48
NMHLD	123	240	4	48
NMTAP	123	336	0
NMTAP	123	336	4
NMTAP	124	0	7
NMTAP	124	24	3
NMTAP	124	48	7
NMTAP	124	72	3
NMTAP	124	96	3
NMTAP	124	96	7
NMTAP	124	120	0
NMTAP	124	120	4
NMTAP	124	144	1
NMTAP	124	144	5
NMTAP	124	168	2
NMTAP	124	168	6
NMTAP	124	192	3
NMTAP	124	192	7
NMTAP	124	208	4
NMTAP	124	224	5
NMTAP	124	240	6
NMTAP	124	256	7
NMTAP	124	272	0
NMSTR	124	288	1
NMSI_	124	288	1	96	48	6
NMSTR	124	288	5
NMSV_	124	288	5	96	48	2
NMTAP	124	300	4
NMTAP	124	312	3
NMTAP	124	324	2
NMTAP	124	336	1
NMTAP	124	348	0
NMTAP	124	360	7
NMTAP	124	372	6
BRSTR	125	0	1
NMSCR	125	0	1	96	1056	6
BRTAP	125	0	5
NMTTP	125	24	0	C	1	M1
CNSCR	128	0	6	0	192	3
NMTAP	129	0	3
NMTAP	129	0	4
NMHLD	129	192	5	192
NMHLD	130	0	4	192
NMHLD	130	192	3	192
NMHLD	131	0	2	192
NMHLD	131	192	3	192
NMHLD	132	0	4	192
NMTAP	132	192	5
NMTAP	132	336	5
NMTAP	132	352	4
NMTAP	132	368	3
BRSTR	133	0	2
NMSI_	133	0	2	96	672	5
NMTTP	133	1	0	C	1	M1

T_REC_TAP	676
T_REC_BRK	90
T_REC_XTP	10
T_REC_BXX	2
T_REC_HLD	32
T_REC_XHO	1
T_REC_BHO	8
T_REC_BXH	0
T_REC_STR	113
T_REC_BST	23
T_REC_XST	3
T_REC_XBS	1
T_REC_TTP	25
T_REC_THO	0
T_REC_SLD	130
T_REC_BSL	11
T_REC_ALL	1125
T_NUM_TAP	827
T_NUM_BRK	135
T_NUM_HLD	33
T_NUM_SLD	130
T_NUM_ALL	1125
T_JUDGE_TAP	943
T_JUDGE_HLD	118
T_JUDGE_SLD	141
T_JUDGE_ALL	1202
TTM_EACHPAIRS	169
TTM_SCR_TAP	413500
TTM_SCR_BRK	351000
TTM_SCR_HLD	33000
TTM_SCR_SLD	195000
TTM_SCR_ALL	992500
TTM_SCR_S	949650
TTM_SCR_SS	979000
TTM_RAT_ACV	10137

