VERSION	0.00.00	1.04.00
FES_MODE	0
BPM_DEF	205.000	205.000	205.000	205.000
MET_DEF	4	4
RESOLUTION	384
CLK_DEF	384
COMPATIBLE_CODE	MA2

BPM	0	0	205.000
MET	0	0	4	4

BRHLD	3	0	2	384
NMTAP	3	192	3
NMHLD	4	0	3	384
NMTAP	4	192	4
NMHLD	5	0	4	576
NMTAP	5	192	5
NMHLD	6	0	5	192
NMHLD	7	0	6	384
NMTAP	7	192	5
NMHLD	8	0	5	384
NMTAP	8	192	4
NMHLD	9	0	4	576
NMTAP	9	192	3
NMHLD	10	0	3	192
NMHLD	11	0	1	1344
NMSTR	11	0	5
NMSCL	11	0	5	96	480	2
NMSTR	13	0	2
NMSCR	13	0	2	96	480	5
NMSTR	15	0	2
NMSCR	15	0	2	96	480	5
NMHLD	15	0	6	1152
NMTHO	17	0	0	384	C	0	M1
EXTAP	18	192	6
BRHLD	19	0	5	96
NMHLD	19	144	5	96
NMTAP	19	288	4
NMTAP	19	288	6
NMHLD	20	0	3	96
NMHLD	20	144	3	96
NMTAP	20	288	2
NMTAP	20	288	4
NMHLD	21	0	5	96
NMHLD	21	144	5	96
NMTAP	21	288	4
NMTAP	21	288	6
NMTAP	22	0	3
NMTAP	22	0	5
NMSTR	22	96	2
NMSV_	22	96	2	96	144	7
NMTAP	22	96	4
EXTAP	23	0	6
EXSTR	23	48	6
NMSV_	23	48	6	96	144	3
EXTAP	24	0	2
EXSTR	24	48	2
NMSV_	24	48	2	96	144	5
EXTAP	25	0	7
EXTAP	25	48	7
NMTAP	25	144	4
NMTAP	25	144	6
NMTAP	25	192	4
NMTAP	25	192	6
NMTAP	25	288	3
NMTAP	25	288	4
NMTAP	25	336	3
NMTAP	25	336	4
EXTAP	26	48	2
EXTAP	26	48	3
BXHLD	26	96	2	480
BXSTR	26	96	3
NMSSL	26	96	3	96	384	7
EXTAP	28	0	0
EXTAP	28	0	1
NMTAP	28	96	4
NMTAP	28	96	5
NMHLD	28	192	0	96
NMTAP	28	192	7
NMTAP	28	288	2
NMTAP	29	0	4
NMHLD	29	0	6	96
NMTAP	29	96	7
NMTAP	29	144	7
NMTAP	29	240	0
NMTAP	29	240	1
NMTAP	29	288	0
NMTAP	29	288	1
NMTAP	30	0	2
NMTAP	30	0	3
NMTAP	30	96	4
NMTAP	30	96	6
NMHLD	30	192	1	96
NMTAP	30	192	7
NMTAP	30	288	3
NMTAP	31	0	2
NMHLD	31	0	4	96
NMTAP	31	96	3
NMSTR	31	144	3
NMSI_	31	144	3	96	72	7
NMTAP	32	0	0
NMTAP	32	0	6
NMTAP	32	48	0
NMTAP	32	48	6
NMHLD	32	96	0	96
NMTAP	32	96	6
NMHLD	32	192	2	96
NMHLD	32	288	4	96
NMHLD	33	0	6	96
NMHLD	33	96	4	96
NMHLD	33	192	2	96
NMTAP	33	288	0
NMSTR	34	0	1
NMSCR	34	0	1	96	120	5
EXTAP	34	144	7
EXHLD	34	192	7	192
NMTAP	35	0	5
NMTAP	35	48	5
NMTAP	35	96	4
NMTAP	35	96	6
NMTAP	35	192	3
NMTAP	35	192	5
NMTAP	35	288	1
NMHLD	36	0	2	96
NMTAP	36	0	4
NMTAP	36	96	3
NMTAP	36	144	3
NMTAP	36	192	2
NMTAP	36	192	4
NMTAP	36	288	7
NMTAP	37	0	3
NMHLD	37	0	5	96
NMTAP	37	96	4
NMTAP	37	144	4
NMTAP	37	192	3
NMTAP	37	192	5
NMTAP	37	288	0
BRTAP	38	0	1
BRTAP	38	0	3
BRTAP	38	48	1
BRTAP	38	48	3
BRTAP	38	96	1
BRTAP	38	96	3
BRTAP	38	192	4
BRTAP	38	192	5
BRTAP	38	240	4
BRTAP	38	240	5
BRTAP	38	288	4
BRTAP	38	288	5
BRSTR	39	0	3
NMSCL	39	0	3	96	96	0
BRTAP	39	0	4
NMSTR	39	192	6
NMSCL	39	192	6	96	96	3
NMHLD	40	0	2	96
NMTAP	40	96	3
NMTAP	40	192	4
NMTAP	40	240	4
NMTAP	40	288	3
NMTAP	40	288	5
NMTAP	41	0	6
NMTAP	41	0	7
NMTAP	41	96	0
NMTAP	41	96	1
NMTAP	41	192	2
NMTAP	41	192	3
NMSTR	41	288	4
NMSCL	41	288	4	96	216	0
NMTAP	41	288	5
BXTAP	42	0	6
NMSTR	42	288	7
NMSSR	42	288	7	96	192	3
BXTAP	43	0	0
NMTAP	44	0	3
NMTAP	44	0	4
NMTAP	44	96	3
NMTAP	44	96	4
NMTAP	44	192	5
NMTAP	44	240	5
NMTAP	44	288	4
NMHLD	44	288	6	96
NMTAP	45	0	3
NMTAP	45	48	3
NMTAP	45	96	5
NMTAP	45	144	4
NMTAP	45	240	3
NMTAP	45	240	6
NMTAP	45	288	3
NMTAP	45	288	6
NMTAP	46	0	4
NMTAP	46	0	5
NMTAP	46	96	3
NMTAP	46	96	4
NMTAP	46	192	2
NMTAP	46	240	2
NMHLD	46	288	1	96
NMTAP	46	288	3
NMTAP	47	0	4
NMTAP	47	48	4
NMTAP	47	96	2
NMTAP	47	144	3
NMTAP	47	240	1
NMTAP	47	240	4
NMSTR	47	288	1
NMSXL	47	288	1	96	288	4
NMTAP	47	288	4
NMTAP	48	192	5
NMTAP	48	240	5
NMSTR	48	288	5
NMSXL	48	288	5	96	288	0
NMTAP	49	192	1
NMTAP	49	240	1
NMTAP	49	288	1
BRTAP	50	0	2
BRHLD	50	0	7	240
NMTAP	50	240	0
NMHLD	50	336	2	144
NMTAP	50	336	4
NMTAP	51	96	3
NMTAP	51	192	3
NMSTR	51	288	3
NMSI_	51	288	3	96	48	7
NMTAP	51	288	4
BRSTR	52	0	6
NMSCL	52	0	6	96	48	3
NMTAP	52	96	0
NMTAP	52	192	2
NMSTR	52	288	2
NMSI_	52	288	2	96	48	4
NMTAP	52	288	4
NMTAP	53	0	7
NMSTR	53	96	6
NMSCR	53	96	6	96	48	0
NMTAP	53	192	4
NMTAP	53	288	3
NMTAP	53	288	7
BRTAP	54	0	0
BRTAP	54	0	5
NMTAP	54	96	6
NMTAP	54	96	7
NMTAP	54	192	5
NMTAP	54	240	5
NMTAP	54	288	3
NMTAP	54	336	4
NMTAP	55	0	0
NMTAP	55	48	0
NMTAP	55	96	2
NMTAP	55	144	2
NMTAP	55	192	4
NMTAP	55	240	4
NMTAP	55	288	3
NMSTR	55	288	5
NMSI_	55	288	5	96	48	0
BRSTR	56	0	1
NMSCR	56	0	1	96	48	4
NMTAP	56	96	7
NMTAP	56	192	5
NMTAP	56	288	3
NMSTR	56	288	5
NMSI_	56	288	5	96	48	3
NMTAP	57	0	2
NMSTR	57	96	1
NMSCL	57	96	1	96	48	7
NMTAP	57	192	3
NMTAP	57	288	0
NMTAP	57	288	4
BRTAP	58	0	2
BRTAP	58	0	7
NMTAP	58	96	0
NMTAP	58	96	5
NMTAP	58	192	1
NMTAP	58	240	1
NMTAP	58	288	3
NMTAP	58	336	2
NMTAP	59	0	5
NMTAP	59	48	5
NMTAP	59	96	4
NMTAP	59	144	6
NMTAP	59	192	0
NMTAP	59	216	7
NMTAP	59	240	0
NMTAP	59	264	7
BRTAP	59	288	0
BRSTR	60	0	1
NMSI_	60	0	1	96	48	4
NMTAP	60	96	6
NMTAP	60	192	5
NMTAP	60	288	4
NMSTR	60	288	5
NMSV_	60	288	5	96	48	2
NMTAP	61	0	2
NMSTR	61	96	1
NMSCL	61	96	1	96	48	6
NMTAP	61	192	3
NMTAP	61	288	0
NMTAP	61	288	4
BRTAP	62	0	2
BRTAP	62	0	7
NMTAP	62	96	0
NMTAP	62	96	5
NMTAP	62	192	1
NMTAP	62	240	1
NMTAP	62	288	3
NMTAP	62	336	2
NMTAP	63	0	7
NMTAP	63	48	7
NMTAP	63	96	5
NMTAP	63	144	5
NMTAP	63	192	3
NMTAP	63	240	3
NMTAP	63	288	2
NMTAP	63	288	4
BRTAP	64	0	0
BRSTR	64	0	1
NMSI_	64	0	1	96	48	4
NMTAP	64	96	7
NMTAP	64	192	6
NMTAP	64	288	4
NMSTR	64	288	5
NMSV_	64	288	5	96	48	2
NMTAP	65	0	0
NMSTR	65	96	1
NMSCL	65	96	1	96	48	6
NMTAP	65	192	3
NMTAP	65	288	0
NMTAP	65	288	4
BRTAP	66	0	6
NMTAP	66	48	6
NMTAP	66	96	4
NMTAP	66	144	4
BRTAP	66	192	3
NMTAP	66	240	3
NMTAP	66	288	1
NMTAP	66	336	1
NMTAP	67	0	0
NMTAP	67	24	7
NMTAP	67	48	0
NMTAP	67	72	7
NMSTR	67	96	0
NMSCR	67	96	0	96	96	4
NMTAP	67	120	7
NMTAP	67	144	0
NMTAP	67	168	7
NMTAP	68	0	4
NMTAP	68	0	6
NMTAP	68	48	4
NMTAP	68	48	6
NMTAP	68	96	4
NMHLD	68	96	6	96
NMTAP	68	192	7
NMSTR	68	240	7
NMSI_	68	240	7	96	48	2
NMTAP	68	336	3
NMTAP	69	48	1
NMTAP	69	48	4
NMHLD	69	96	1	96
NMSTR	69	96	4
NMSCR	69	96	4	96	96	0
NMTAP	70	0	2
NMTAP	70	0	3
NMTAP	70	48	2
NMTAP	70	48	3
NMHLD	70	96	2	96
NMTAP	70	96	3
NMTAP	70	192	0
NMSTR	70	240	0
NMSI_	70	240	0	96	48	5
NMTAP	70	336	4
NMTAP	71	48	2
NMTAP	71	48	3
NMTAP	71	96	2
NMSTR	71	96	3
NMSI_	71	96	3	96	48	6
NMSTR	71	192	1
NMSI_	71	192	1	96	48	4
NMTAP	71	288	7
BRTAP	72	0	5
BRTAP	72	0	6
BRTAP	72	96	3
BRTAP	72	96	4
BRTAP	72	192	1
BRTAP	72	192	2
BRTAP	72	288	0
BRTAP	72	288	7
BRTAP	72	336	1
BRTAP	72	336	6
BRTAP	73	0	2
BRSTR	73	0	5
NMSI_	73	0	5	96	48	0
BRSTR	73	96	1
NMSI_	73	96	1	96	48	4
BRTAP	73	192	7
BRTAP	73	288	3
BRTAP	73	288	5
BRHLD	74	0	1	64
BRHLD	74	64	3	64
BRTAP	74	128	2
BRHLD	74	192	6	64
BRHLD	74	256	4	64
BRTAP	74	320	5
EXTAP	75	0	3
EXTAP	75	32	4
EXTAP	75	64	3
EXTAP	75	96	4
EXTAP	75	128	3
EXTAP	75	160	4
EXTAP	75	192	2
EXTAP	75	224	3
EXTAP	75	256	2
EXHLD	75	288	3	96
NMTTP	76	0	3	E	0	M1
NMTTP	76	24	4	E	0	M1
NMTTP	76	48	5	E	0	M1
NMTTP	76	72	6	E	0	M1
NMTTP	76	96	7	E	0	M1
NMTTP	76	120	0	E	0	M1
NMTTP	76	144	1	E	0	M1
NMTTP	76	168	2	E	0	M1
NMTTP	76	192	3	E	0	M1
NMTTP	76	216	4	E	0	M1
NMTTP	76	240	5	E	0	M1
NMTTP	76	264	6	E	0	M1
NMTTP	76	288	7	E	0	M1
NMTTP	76	312	0	E	0	M1
NMTTP	76	336	1	E	0	M1
NMTTP	76	360	2	E	0	M1
NMTHO	77	0	0	384	C	1	M1
NMTTP	77	0	3	E	1	M1
NMTTP	78	0	2	B	0	M1
NMTTP	78	0	2	E	0	M1
NMTTP	78	0	3	E	0	M1
NMTTP	78	0	5	B	0	M1
NMTTP	78	0	5	E	0	M1
NMTTP	78	0	6	E	0	M1
NMSTR	80	0	1
NMSI_	80	0	1	96	240	3
CNSI_	80	336	3	0	192	5
CNSI_	81	144	5	0	240	7
NMSTR	82	0	0
NMSCR	82	0	0	96	672	7
NMTTP	84	0	0	E	0	M1
NMTTP	85	0	0	C	0	M1
NMTTP	86	0	4	E	0	M1
NMTHO	87	0	0	192	C	0	M1
EXTAP	88	0	0
EXTAP	88	0	7
NMTAP	88	192	2
NMHLD	88	192	5	144
NMTAP	88	336	4
NMTAP	89	48	6
NMSTR	89	96	6
NMSXL	89	96	6	96	240	1
NMTAP	90	0	3
NMTAP	90	96	3
NMHLD	90	192	2	144
NMTAP	90	192	4
NMTAP	90	336	3
NMTAP	91	48	1
NMSTR	91	96	1
NMSXL	91	96	1	96	240	4
NMTAP	92	0	6
NMTAP	92	96	6
NMTAP	92	192	3
NMTAP	92	192	6
NMTAP	92	288	5
NMTAP	92	336	5
NMTAP	93	0	3
NMTAP	93	48	4
NMTAP	93	96	2
NMTAP	93	144	2
EXHLD	93	192	3	96
EXTAP	93	288	0
BXTAP	94	0	1
BXTAP	94	0	4
BXTAP	94	48	1
BXTAP	94	48	4
BXTAP	94	144	3
BXTAP	94	144	6
BXTAP	94	192	3
BXTAP	94	192	6
BXTAP	94	288	0
BXTAP	94	288	7
BXSTR	94	336	0
NMSCR	94	336	0	96	432	7
BXHLD	94	336	7	144
NMTAP	97	0	0
NMTAP	97	24	7
NMTAP	97	48	0
NMTAP	97	72	7
NMTAP	97	96	0
NMTAP	97	120	7
NMTAP	97	144	0
NMTAP	97	168	7
NMTAP	97	192	0
NMTAP	97	216	7
NMTAP	97	240	0
NMTAP	97	264	7
NMTAP	97	288	0
NMTAP	97	312	7
NMTAP	97	336	0
NMTAP	97	360	7
BRTAP	98	0	1
BRTAP	98	0	6
NMHLD	99	192	2	192
NMHLD	100	0	3	192
NMHLD	100	192	4	192
EXTAP	101	0	5
EXTAP	101	96	3
EXTAP	101	96	6
EXTAP	101	144	3
EXTAP	101	144	6
EXTAP	101	240	4
EXTAP	101	240	5
EXTAP	101	336	2
EXTAP	101	336	3
EXTAP	102	0	2
EXTAP	102	0	3
NMTAP	102	96	1
NMTAP	102	96	6
NMTAP	102	192	7
NMTAP	102	216	0
NMTAP	102	240	7
NMTAP	102	264	0
NMTAP	102	288	7
NMTAP	102	312	0
NMTAP	102	336	7
NMTAP	102	360	0
BRSTR	103	0	6
NMSI_	103	0	6	96	48	3
NMSTR	103	96	7
NMSI_	103	96	7	96	48	2
NMSTR	103	192	5
NMSI_	103	192	5	96	48	0
NMTAP	103	288	3
NMTAP	104	0	2
NMTAP	104	48	2
NMTAP	104	96	6
NMTAP	104	144	6
NMTAP	104	192	0
NMTAP	104	192	5
NMTAP	104	240	1
NMTAP	104	240	4
NMTAP	104	288	2
NMSTR	104	288	3
NMSCR	104	288	3	96	48	6
BRSTR	105	0	0
NMSI_	105	0	0	96	48	4
EXTAP	105	96	7
NMTAP	105	192	6
NMTAP	105	192	7
NMTAP	105	240	6
NMTAP	105	240	7
NMTAP	105	288	0
NMSTR	105	288	5
NMSI_	105	288	5	96	48	0
NMSTR	106	0	1
NMSI_	106	0	1	96	48	4
NMSTR	106	96	7
NMSI_	106	96	7	96	48	2
NMSTR	106	192	3
NMSI_	106	192	3	96	48	7
NMTAP	106	288	4
BRTAP	107	0	0
BRTAP	107	0	6
NMTAP	107	96	5
NMTAP	107	144	5
NMTAP	107	192	3
NMTAP	107	240	3
NMTAP	107	288	2
NMTAP	107	288	4
NMTAP	107	336	2
NMTAP	107	336	4
NMTAP	108	0	1
NMTAP	108	24	3
NMTAP	108	48	1
NMTAP	108	72	3
NMTAP	108	96	1
NMTAP	108	120	3
NMTAP	108	144	1
NMTAP	108	168	3
BRTAP	108	192	0
BRTAP	108	240	0
BRTAP	108	288	1
BRTAP	108	288	7
NMTAP	109	0	0
NMSTR	109	0	5
NMSI_	109	0	5	96	48	1
NMTAP	109	96	1
NMTAP	109	192	0
NMTAP	109	192	2
NMTAP	109	240	3
NMTAP	109	240	7
NMSTR	109	288	4
NMSI_	109	288	4	96	48	0
NMTAP	109	288	6
NMTAP	110	0	5
NMTAP	110	96	1
NMSTR	110	96	3
NMSI_	110	96	3	96	48	7
NMTAP	110	192	2
NMSTR	110	288	4
NMSCL	110	288	4	96	48	1
NMTAP	110	288	6
BRTAP	111	0	5
NMTAP	111	96	6
NMTAP	111	96	7
NMTAP	111	192	6
NMHLD	111	240	6	48
NMTAP	111	288	4
NMHLD	111	336	4	48
NMTAP	112	0	2
NMHLD	112	48	2	48
NMTAP	112	96	1
NMTAP	112	144	1
NMTAP	112	192	2
NMTAP	112	192	7
NMTAP	112	240	3
NMTAP	112	240	6
NMSTR	112	288	4
NMSI_	112	288	4	96	48	0
NMTAP	112	288	5
BRSTR	113	0	6
NMSCL	113	0	6	96	48	3
EXTAP	113	96	1
NMTAP	113	192	0
NMTAP	113	192	1
NMTAP	113	240	0
NMTAP	113	240	1
NMSTR	113	288	2
NMSI_	113	288	2	96	48	7
NMTAP	113	288	7
NMTAP	114	0	3
NMTAP	114	96	0
NMSTR	114	96	5
NMSCR	114	96	5	96	48	0
NMTAP	114	192	3
EXTAP	114	288	2
EXTAP	114	288	7
NMTAP	115	0	6
NMTAP	115	48	6
NMTAP	115	96	4
NMTAP	115	144	4
NMTAP	115	192	3
NMTAP	115	240	3
NMTAP	115	288	1
NMTAP	115	336	1
NMTAP	116	0	7
NMTAP	116	24	0
NMTAP	116	48	7
NMTAP	116	72	0
NMSTR	116	96	7
NMSCL	116	96	7	96	96	3
NMTAP	116	120	0
NMTAP	116	144	7
NMTAP	116	168	0
BRTAP	117	0	0
BRTAP	117	0	1
BRTAP	117	48	2
BRTAP	117	48	7
BRTAP	117	96	3
BRSTR	117	96	6
NMSI_	117	96	6	96	48	2
EXTAP	117	192	7
EXSTR	117	240	7
NMSI_	117	240	7	96	48	1
BRTAP	117	336	5
NMTAP	118	48	2
NMTAP	118	72	3
NMTAP	118	96	1
NMTAP	118	144	5
NMTAP	118	168	4
NMTAP	118	192	6
NMTAP	118	240	2
NMTAP	118	264	3
NMHLD	118	288	1	96
BRTAP	119	0	0
BRTAP	119	48	1
BRTAP	119	48	7
BRSTR	119	96	2
NMSCR	119	96	2	96	48	5
BRTAP	119	96	6
NMTAP	119	192	7
NMTAP	119	240	7
EXTAP	119	336	0
EXTAP	119	336	7
NMTAP	120	0	1
NMTAP	120	24	0
NMTAP	120	48	1
NMTAP	120	72	0
BRTAP	120	96	2
NMTAP	120	192	6
NMTAP	120	216	7
NMTAP	120	240	6
NMTAP	120	264	7
BRTAP	120	288	5
BRTAP	121	0	2
BRTAP	121	0	3
BRTAP	121	48	1
BRTAP	121	48	4
BRTAP	121	96	0
BRSTR	121	96	5
NMSI_	121	96	5	96	48	1
EXTAP	121	192	4
EXSTR	121	240	4
NMSI_	121	240	4	96	48	2
BRTAP	121	336	6
NMTAP	122	48	6
NMTAP	122	72	7
NMTAP	122	96	5
NMTAP	122	144	1
NMTAP	122	168	0
NMTAP	122	192	2
NMTAP	122	240	6
NMTAP	122	264	7
NMHLD	122	288	5	96
BRTAP	123	0	4
BRTAP	123	48	3
BRTAP	123	48	5
BRTAP	123	96	2
BRSTR	123	96	6
NMSCL	123	96	6	96	48	3
NMTAP	123	192	0
NMTAP	123	240	0
EXTAP	123	336	1
EXTAP	123	336	4
NMTAP	124	0	2
NMTAP	124	24	3
NMTAP	124	48	2
NMTAP	124	72	3
NMTAP	124	96	2
NMTAP	124	120	3
NMTAP	124	144	2
NMTAP	124	168	3
NMTAP	124	192	2
NMTAP	124	216	1
NMTAP	124	240	0
NMTAP	124	264	7
NMTAP	124	288	6
NMTAP	124	312	5
NMTAP	124	336	4
NMTAP	124	360	3
EXTAP	125	0	2
BRHLD	125	0	7	1536
NMHLD	129	0	0	1536
NMTTP	129	192	0	E	0	M1
NMTTP	130	0	1	E	0	M1
NMTTP	130	192	2	E	0	M1
NMTTP	131	0	3	E	0	M1
NMTTP	131	192	0	C	0	M1
NMTTP	132	0	7	E	0	M1
NMTTP	132	192	0	C	0	M1
BRSTR	133	0	2
NMSI_	133	0	2	96	672	5

T_REC_TAP	386
T_REC_BRK	71
T_REC_XTP	44
T_REC_BXX	12
T_REC_HLD	44
T_REC_XHO	3
T_REC_BHO	8
T_REC_BXH	2
T_REC_STR	46
T_REC_BST	15
T_REC_XST	4
T_REC_XBS	2
T_REC_TTP	33
T_REC_THO	3
T_REC_SLD	67
T_REC_BSL	0
T_REC_ALL	740
T_NUM_TAP	513
T_NUM_BRK	110
T_NUM_HLD	50
T_NUM_SLD	67
T_NUM_ALL	740
T_JUDGE_TAP	613
T_JUDGE_HLD	310
T_JUDGE_SLD	67
T_JUDGE_ALL	990
TTM_EACHPAIRS	146
TTM_SCR_TAP	256500
TTM_SCR_BRK	286000
TTM_SCR_HLD	50000
TTM_SCR_SLD	100500
TTM_SCR_ALL	693000
TTM_SCR_S	661550
TTM_SCR_SS	682000
TTM_RAT_ACV	10161

