VERSION	0.00.00	1.04.00
FES_MODE	0
BPM_DEF	205.000	205.000	205.000	205.000
MET_DEF	4	4
RESOLUTION	384
CLK_DEF	384
COMPATIBLE_CODE	MA2

BPM	0	0	205.000
MET	0	0	4	4

NMHLD	3	0	2	384
NMHLD	4	0	3	384
NMHLD	5	0	4	384
NMTAP	6	0	5
NMHLD	7	0	5	384
NMHLD	8	0	4	384
NMHLD	9	0	3	384
NMTAP	10	0	2
NMTAP	11	0	1
NMTAP	11	192	1
NMTAP	12	0	2
NMTAP	12	192	2
NMTAP	13	0	3
NMTAP	13	192	3
NMTAP	14	0	4
NMTAP	14	192	4
NMTAP	15	0	5
NMTAP	15	192	5
NMTAP	16	0	6
NMTAP	16	192	6
NMHLD	17	0	0	384
NMHLD	17	0	7	384
NMTAP	19	0	6
NMTAP	19	96	6
NMTAP	19	192	6
NMTAP	19	192	7
NMTAP	20	0	5
NMTAP	20	96	5
NMTAP	20	192	4
NMTAP	20	192	5
NMTAP	21	0	3
NMTAP	21	96	3
NMTAP	21	192	2
NMTAP	21	192	3
NMTAP	22	0	0
NMTAP	22	0	1
NMTAP	22	96	0
NMTAP	22	96	1
NMTAP	22	192	0
NMTAP	22	192	1
NMTAP	23	0	1
NMTAP	23	96	1
NMTAP	23	192	0
NMTAP	23	192	1
NMTAP	24	0	2
NMTAP	24	96	2
NMTAP	24	192	2
NMTAP	24	192	3
NMTAP	25	0	4
NMTAP	25	96	4
NMTAP	25	192	4
NMTAP	25	192	5
NMSTR	26	0	6
NMSUL	26	0	6	96	480	3
NMTAP	26	0	7
NMTAP	28	0	2
NMTAP	28	96	2
NMTAP	28	192	2
NMTAP	28	288	2
NMTAP	29	0	1
NMTAP	29	96	1
NMTAP	29	192	1
NMTAP	29	288	1
NMTAP	30	0	0
NMTAP	30	96	0
NMTAP	30	192	0
NMTAP	30	288	0
NMTAP	31	0	6
NMTAP	31	0	7
NMTAP	31	192	6
NMTAP	31	192	7
NMTAP	32	0	5
NMTAP	32	96	5
NMTAP	32	192	5
NMTAP	32	288	5
NMTAP	33	0	6
NMTAP	33	96	6
NMTAP	33	192	6
NMTAP	33	288	6
NMTAP	34	0	7
NMTAP	34	96	7
NMTAP	34	192	7
NMTAP	34	288	7
NMTAP	35	0	0
NMTAP	35	0	1
NMTAP	35	192	0
NMTAP	35	192	1
NMTAP	36	0	2
NMTAP	36	96	2
NMTAP	36	192	2
NMTAP	36	288	2
NMTAP	36	288	3
NMTAP	37	0	1
NMTAP	37	96	1
NMTAP	37	192	1
NMTAP	37	288	0
NMTAP	37	288	1
NMTAP	38	0	7
NMTAP	38	96	7
NMTAP	38	192	7
NMTAP	38	288	6
NMTAP	38	288	7
NMTAP	39	0	4
NMTAP	39	0	5
NMTAP	39	96	4
NMTAP	39	96	5
NMTAP	39	192	3
NMTAP	39	192	6
NMTAP	40	0	5
NMTAP	40	96	5
NMTAP	40	192	5
NMTAP	40	288	4
NMTAP	40	288	5
NMTAP	41	0	6
NMTAP	41	96	6
NMTAP	41	192	6
NMTAP	41	288	6
NMTAP	41	288	7
NMTAP	42	0	0
NMTAP	42	96	0
NMTAP	42	192	0
NMTAP	42	288	0
NMTAP	42	288	1
NMTAP	43	0	2
NMTAP	43	0	3
NMTAP	43	96	2
NMTAP	43	96	3
BRTAP	43	192	1
BRTAP	43	192	4
NMSTR	44	0	2
NMSI_	44	0	2	96	288	5
NMTAP	45	192	6
NMSTR	46	0	7
NMSI_	46	0	7	96	288	3
NMTAP	47	192	2
NMSTR	48	0	1
NMSI_	48	0	1	96	288	4
NMTAP	49	192	5
NMSTR	50	0	6
NMSI_	50	0	6	96	288	3
NMTAP	51	192	2
NMTAP	51	192	3
NMTAP	52	0	1
NMTAP	52	96	1
NMTAP	52	192	0
NMTAP	52	192	1
NMTAP	52	288	0
NMTAP	52	288	1
NMTAP	53	0	2
NMTAP	53	96	2
NMTAP	53	192	2
NMTAP	53	192	3
NMTAP	53	288	2
NMTAP	53	288	3
NMTAP	54	0	5
NMTAP	54	96	5
NMTAP	54	192	4
NMTAP	54	192	5
NMTAP	54	288	4
NMTAP	54	288	5
NMTAP	55	0	6
NMTAP	55	48	6
NMTAP	55	96	6
NMTAP	55	192	6
NMTAP	55	192	7
NMTAP	56	0	6
NMTAP	56	96	6
NMTAP	56	192	6
NMTAP	56	192	7
NMTAP	56	288	6
NMTAP	56	288	7
NMTAP	57	0	5
NMTAP	57	96	5
NMTAP	57	192	4
NMTAP	57	192	5
NMTAP	57	288	4
NMTAP	57	288	5
NMTAP	58	0	2
NMTAP	58	96	2
NMTAP	58	192	2
NMTAP	58	192	3
NMTAP	58	288	2
NMTAP	58	288	3
NMTAP	59	0	1
NMTAP	59	48	1
NMTAP	59	96	1
NMTAP	59	192	0
NMTAP	59	192	1
NMTAP	60	0	2
NMTAP	60	96	2
NMTAP	60	192	2
NMTAP	60	192	3
NMTAP	60	288	2
NMTAP	60	288	3
NMTAP	61	0	1
NMTAP	61	96	1
NMTAP	61	192	0
NMTAP	61	192	1
NMTAP	61	288	0
NMTAP	61	288	1
NMTAP	62	0	6
NMTAP	62	96	6
NMTAP	62	192	6
NMTAP	62	192	7
NMTAP	62	288	6
NMTAP	62	288	7
NMTAP	63	0	5
NMTAP	63	48	5
NMTAP	63	96	5
NMTAP	63	192	4
NMTAP	63	192	5
NMTAP	64	0	5
NMTAP	64	96	5
NMTAP	64	192	4
NMTAP	64	192	5
NMTAP	64	288	4
NMTAP	64	288	5
NMTAP	65	0	6
NMTAP	65	96	6
NMTAP	65	192	6
NMTAP	65	192	7
NMTAP	65	288	6
NMTAP	65	288	7
NMTAP	66	0	1
NMTAP	66	96	1
NMTAP	66	192	0
NMTAP	66	192	1
NMTAP	66	288	0
NMTAP	66	288	1
NMTAP	67	0	2
NMTAP	67	48	2
NMTAP	67	96	2
NMTAP	67	192	2
NMTAP	67	192	3
NMTAP	68	0	2
NMTAP	68	48	2
NMTAP	68	96	2
NMTAP	68	192	0
NMTAP	68	192	1
NMTAP	68	288	0
NMTAP	68	288	1
NMTAP	69	0	7
NMTAP	69	48	7
NMTAP	69	96	7
NMTAP	69	192	6
NMTAP	69	192	7
NMTAP	70	0	5
NMTAP	70	48	5
NMTAP	70	96	5
NMTAP	70	192	6
NMTAP	70	192	7
NMTAP	70	288	6
NMTAP	70	288	7
NMTAP	71	0	0
NMTAP	71	48	0
NMTAP	71	96	0
NMTAP	71	192	0
NMTAP	71	192	1
NMTAP	72	0	1
NMTAP	72	48	1
NMTAP	72	96	1
NMTAP	72	192	2
NMTAP	72	192	3
NMTAP	72	288	2
NMTAP	72	288	3
NMTAP	73	0	4
NMTAP	73	48	4
NMTAP	73	96	4
NMTAP	73	192	4
NMTAP	73	192	5
NMTAP	74	0	6
NMTAP	74	48	6
NMTAP	74	96	6
NMTAP	74	192	4
NMTAP	74	192	5
NMTAP	74	288	4
NMTAP	74	288	5
NMTAP	75	0	3
NMTAP	75	48	3
NMTAP	75	96	3
NMTAP	75	192	2
NMTAP	75	192	3
NMTAP	76	0	1
NMTAP	76	96	1
NMTAP	76	192	2
NMTAP	76	288	2
NMHLD	77	0	3	384
NMHLD	77	0	4	384
NMTTP	80	0	4	B	0	L1
NMTTP	80	0	5	B	0	L1
NMTTP	81	0	6	B	0	L1
NMTTP	81	0	7	B	0	L1
NMTTP	82	0	0	B	0	L1
NMTTP	82	0	1	B	0	L1
NMTTP	83	0	2	B	0	L1
NMTTP	83	0	3	B	0	L1
NMTTP	84	0	5	E	0	L1
NMTTP	84	192	6	E	0	L1
NMTTP	85	0	7	E	0	L1
NMTTP	85	192	0	E	0	L1
NMTTP	86	0	1	E	0	L1
NMTTP	86	192	2	E	0	L1
NMTTP	87	0	3	E	0	L1
NMTTP	87	0	5	E	0	L1
NMSTR	88	0	6
NMSI_	88	0	6	96	288	3
NMTAP	89	192	2
NMSTR	90	0	1
NMSI_	90	0	1	96	288	4
NMTAP	91	192	5
NMSTR	92	0	6
NMSI_	92	0	6	96	288	2
NMTAP	93	192	1
NMSTR	94	0	0
NMSI_	94	0	0	96	288	4
NMTAP	95	192	5
NMTAP	96	0	5
NMTAP	96	192	3
NMTAP	96	192	4
EXHLD	97	0	3	384
EXHLD	97	0	4	384
NMTAP	101	0	2
NMTAP	101	96	2
NMTAP	101	192	2
NMTAP	101	192	3
NMTAP	102	0	5
NMTAP	102	96	5
NMTAP	102	192	4
NMTAP	102	192	5
BRTAP	103	0	5
NMTAP	103	48	5
NMTAP	103	96	5
NMTAP	103	192	6
NMTAP	103	192	7
NMTAP	103	288	6
NMTAP	103	288	7
NMTAP	104	0	0
NMTAP	104	48	0
NMTAP	104	96	0
NMTAP	104	192	0
NMTAP	104	192	1
NMTAP	105	0	1
NMTAP	105	48	1
NMTAP	105	96	1
NMTAP	105	192	2
NMTAP	105	192	3
NMTAP	105	288	2
NMTAP	105	288	3
NMTAP	106	0	4
NMTAP	106	48	4
NMTAP	106	96	4
NMTAP	106	192	4
NMTAP	106	192	5
NMTAP	107	0	6
NMTAP	107	48	6
NMTAP	107	96	6
NMTAP	107	192	4
NMTAP	107	192	5
NMTAP	107	288	4
NMTAP	107	288	5
NMTAP	108	0	3
NMTAP	108	48	3
NMTAP	108	96	3
NMTAP	108	192	2
NMTAP	108	192	3
NMTAP	109	0	2
NMTAP	109	48	2
NMTAP	109	96	2
NMTAP	109	192	0
NMTAP	109	192	1
NMTAP	109	240	0
NMTAP	109	240	1
NMTAP	109	288	0
NMTAP	109	288	1
NMTAP	110	0	7
NMTAP	110	48	7
NMTAP	110	96	7
NMTAP	110	192	6
NMTAP	110	192	7
NMTAP	110	288	6
NMTAP	110	288	7
NMTAP	111	0	5
NMTAP	111	48	5
NMTAP	111	96	5
NMTAP	111	192	6
NMTAP	111	192	7
NMTAP	111	240	6
NMTAP	111	240	7
NMTAP	111	288	6
NMTAP	111	288	7
NMTAP	112	0	0
NMTAP	112	48	0
NMTAP	112	96	0
NMTAP	112	192	0
NMTAP	112	192	1
NMTAP	113	0	1
NMTAP	113	48	1
NMTAP	113	96	1
NMTAP	113	192	2
NMTAP	113	192	3
NMTAP	113	240	2
NMTAP	113	240	3
NMTAP	113	288	2
NMTAP	113	288	3
NMTAP	114	0	4
NMTAP	114	48	4
NMTAP	114	96	4
NMTAP	114	192	4
NMTAP	114	192	5
NMTAP	114	288	4
NMTAP	114	288	5
NMTAP	115	0	6
NMTAP	115	48	6
NMTAP	115	96	6
NMTAP	115	192	4
NMTAP	115	192	5
NMTAP	115	240	4
NMTAP	115	240	5
NMTAP	115	288	4
NMTAP	115	288	5
NMTAP	116	0	3
NMTAP	116	48	3
NMTAP	116	96	3
NMTAP	116	192	2
NMTAP	116	192	3
NMTAP	117	0	1
NMTAP	117	48	1
NMTAP	117	96	1
NMTAP	117	192	2
NMTAP	117	192	3
NMTAP	117	240	2
NMTAP	117	240	3
NMTAP	117	288	2
NMTAP	117	288	3
NMTAP	118	0	1
NMTAP	118	0	4
NMTAP	118	96	0
NMTAP	118	96	5
NMTAP	118	192	6
NMTAP	118	192	7
NMTAP	119	0	6
NMTAP	119	48	6
NMTAP	119	96	6
NMTAP	119	192	4
NMTAP	119	192	5
NMTAP	119	240	4
NMTAP	119	240	5
NMTAP	119	288	4
NMTAP	119	288	5
NMTAP	120	0	3
NMTAP	120	0	6
NMTAP	120	96	2
NMTAP	120	96	7
NMTAP	120	192	0
NMTAP	120	192	1
NMTAP	121	0	1
NMTAP	121	48	1
NMTAP	121	96	1
NMTAP	121	192	2
NMTAP	121	192	3
NMTAP	121	240	2
NMTAP	121	240	3
NMTAP	121	288	2
NMTAP	121	288	3
NMTAP	122	0	1
NMTAP	122	0	4
NMTAP	122	96	0
NMTAP	122	96	5
NMTAP	122	192	6
NMTAP	122	192	7
NMTAP	123	0	0
NMTAP	123	0	7
NMTAP	123	48	0
NMTAP	123	48	7
NMTAP	123	96	0
NMTAP	123	96	7
NMTAP	123	192	1
NMTAP	123	192	6
NMTAP	123	240	1
NMTAP	123	240	6
NMTAP	123	288	1
NMTAP	123	288	6
NMTAP	124	0	2
NMTAP	124	0	5
NMTAP	124	48	2
NMTAP	124	48	5
NMTAP	124	96	2
NMTAP	124	96	5
NMTAP	124	192	3
NMTAP	124	192	4
NMTAP	124	240	3
NMTAP	124	240	4
NMTAP	124	288	3
NMTAP	124	288	4
NMHLD	125	0	2	384
NMHLD	126	0	3	384
NMHLD	127	0	4	384
NMTAP	128	0	5
NMHLD	129	0	5	384
NMHLD	130	0	4	384
NMHLD	131	0	3	384
NMTAP	132	0	2
BXTAP	133	0	3
BXTAP	133	0	4

T_REC_TAP	447
T_REC_BRK	3
T_REC_XTP	0
T_REC_BXX	2
T_REC_HLD	16
T_REC_XHO	2
T_REC_BHO	0
T_REC_BXH	0
T_REC_STR	9
T_REC_BST	0
T_REC_XST	0
T_REC_XBS	0
T_REC_TTP	16
T_REC_THO	0
T_REC_SLD	9
T_REC_BSL	0
T_REC_ALL	504
T_NUM_TAP	472
T_NUM_BRK	5
T_NUM_HLD	18
T_NUM_SLD	9
T_NUM_ALL	504
T_JUDGE_TAP	477
T_JUDGE_HLD	144
T_JUDGE_SLD	9
T_JUDGE_ALL	630
TTM_EACHPAIRS	131
TTM_SCR_TAP	236000
TTM_SCR_BRK	13000
TTM_SCR_HLD	18000
TTM_SCR_SLD	13500
TTM_SCR_ALL	280500
TTM_SCR_S	271600
TTM_SCR_SS	280000
TTM_RAT_ACV	10017

