VERSION	0.00.00	1.04.00
FES_MODE	0
BPM_DEF	205.000	205.000	205.000	205.000
MET_DEF	4	4
RESOLUTION	384
CLK_DEF	384
COMPATIBLE_CODE	MA2

BPM	0	0	205.000
MET	0	0	4	4

NMSTR	3	0	0
NMSI_	3	0	0	96	288	3
NMSTR	5	0	4
NMSI_	5	0	4	96	288	7
NMSTR	7	0	0
NMSI_	7	0	0	96	288	4
NMSTR	9	0	7
NMSI_	9	0	7	96	288	3
NMTTP	11	0	3	E	0	L1
NMTTP	12	0	2	E	0	L1
NMTTP	13	0	1	E	0	L1
NMTTP	14	0	0	E	0	L1
NMTTP	15	0	7	E	0	L1
NMTTP	16	0	6	E	0	L1
NMTTP	17	0	5	E	0	L1
NMTTP	18	0	0	C	0	L1
NMHLD	19	0	6	192
NMHLD	19	0	7	192
NMTAP	20	0	6
NMTAP	20	0	7
NMHLD	21	0	4	192
NMHLD	21	0	5	192
NMTAP	22	0	4
NMTAP	22	0	5
NMHLD	23	0	2	192
NMHLD	23	0	3	192
NMTAP	24	0	2
NMTAP	24	0	3
NMHLD	25	0	0	192
NMHLD	25	0	1	192
NMSTR	26	0	7
NMSI_	26	0	7	96	288	3
BRTAP	28	0	0
NMTAP	28	96	0
NMTAP	28	192	0
NMTAP	29	0	1
NMTAP	29	96	1
NMTAP	29	192	1
NMTAP	30	0	2
NMTAP	30	96	2
NMTAP	30	192	2
NMTAP	31	0	3
NMTAP	31	0	4
NMTAP	31	192	3
NMTAP	31	192	4
NMTAP	32	0	4
NMTAP	32	96	4
NMTAP	32	192	4
NMTAP	33	0	5
NMTAP	33	96	5
NMTAP	33	192	5
NMTAP	34	0	6
NMTAP	34	96	6
NMTAP	34	192	6
NMTAP	35	0	0
NMTAP	35	0	7
NMTAP	35	192	0
NMTAP	35	192	7
NMTAP	36	0	1
NMTAP	36	96	1
NMTAP	36	192	1
NMTAP	37	0	0
NMTAP	37	0	1
NMTAP	37	96	0
NMTAP	37	96	1
NMTAP	37	192	0
NMTAP	37	192	1
NMTAP	38	0	6
NMTAP	38	96	6
NMTAP	38	192	6
NMTAP	39	0	6
NMTAP	39	0	7
NMTAP	39	96	6
NMTAP	39	96	7
NMTAP	39	192	6
NMTAP	39	192	7
NMTAP	40	0	0
NMTAP	40	96	0
NMTAP	40	192	0
NMTAP	41	0	0
NMTAP	41	0	7
NMTAP	41	96	0
NMTAP	41	96	7
NMTAP	41	192	0
NMTAP	41	192	7
NMTAP	42	0	7
NMTAP	42	96	7
NMTAP	42	192	0
NMTAP	42	288	0
BRTAP	43	0	0
BRTAP	43	0	7
NMSTR	44	0	1
NMSI_	44	0	1	96	288	5
NMSTR	46	0	7
NMSI_	46	0	7	96	288	3
NMSTR	48	0	0
NMSI_	48	0	0	96	288	4
NMSTR	50	0	6
NMSI_	50	0	6	96	288	2
BRTAP	52	0	0
NMTAP	52	96	0
NMTAP	52	192	1
NMTAP	52	288	1
NMTAP	53	0	2
NMTAP	53	96	2
NMTAP	53	192	2
NMTAP	53	192	3
NMTAP	54	0	4
NMTAP	54	96	4
NMTAP	54	192	5
NMTAP	54	288	5
NMTAP	55	0	6
NMTAP	55	96	6
NMTAP	55	192	6
NMTAP	55	192	7
NMTAP	56	0	7
NMTAP	56	96	7
NMTAP	56	192	6
NMTAP	56	288	6
NMTAP	57	0	5
NMTAP	57	96	5
NMTAP	57	192	4
NMTAP	57	192	5
NMTAP	58	0	3
NMTAP	58	96	3
NMTAP	58	192	2
NMTAP	58	288	2
NMTAP	59	0	1
NMTAP	59	96	1
NMTAP	59	192	0
NMTAP	59	192	1
NMTAP	60	0	0
NMTAP	60	96	0
NMTAP	60	192	1
NMTAP	60	288	1
NMTAP	61	0	2
NMTAP	61	96	2
NMTAP	61	192	3
NMTAP	61	288	3
NMTAP	62	0	4
NMTAP	62	96	4
NMTAP	62	192	5
NMTAP	62	288	5
NMTAP	63	0	6
NMTAP	63	96	6
NMTAP	63	192	6
NMTAP	63	192	7
NMTAP	64	0	6
NMTAP	64	96	6
NMTAP	64	192	5
NMTAP	64	288	5
NMTAP	65	0	4
NMTAP	65	96	4
NMTAP	65	192	3
NMTAP	65	288	3
NMTAP	66	0	2
NMTAP	66	96	2
NMTAP	66	192	1
NMTAP	66	288	1
BRTAP	67	0	0
BRTAP	67	0	7
NMTAP	68	0	0
NMTAP	68	96	0
NMTAP	68	192	0
NMTAP	68	288	0
NMTAP	69	0	1
NMTAP	69	96	1
NMTAP	69	192	0
NMTAP	69	192	1
NMTAP	70	0	7
NMTAP	70	96	7
NMTAP	70	192	7
NMTAP	70	288	7
NMTAP	71	0	6
NMTAP	71	96	6
NMTAP	71	192	6
NMTAP	71	192	7
NMTAP	72	0	1
NMTAP	72	96	1
NMTAP	72	192	0
NMTAP	72	192	1
NMTAP	73	0	2
NMTAP	73	96	2
NMTAP	73	192	2
NMTAP	73	192	3
NMTAP	74	0	5
NMTAP	74	96	5
NMTAP	74	192	4
NMTAP	74	192	5
NMTAP	75	0	6
NMTAP	75	96	6
NMTAP	75	192	6
NMTAP	75	192	7
NMTAP	76	0	0
NMTAP	76	96	0
NMTAP	76	192	7
NMTAP	76	288	7
NMHLD	77	0	0	384
NMHLD	77	0	7	384
NMTTP	80	0	7	E	0	L1
NMTTP	81	0	6	E	0	L1
NMTTP	82	0	5	E	0	L1
NMTTP	83	0	4	E	0	L1
NMTTP	84	0	3	E	0	L1
NMTTP	85	0	2	E	0	L1
NMTTP	86	0	1	E	0	L1
NMTTP	87	0	0	C	0	L1
NMTAP	88	0	7
NMTAP	88	192	7
NMTAP	89	0	6
NMTAP	89	0	7
NMTAP	89	192	6
NMTAP	89	192	7
NMTAP	90	0	5
NMTAP	90	192	5
NMTAP	91	0	3
NMTAP	91	0	4
NMTAP	91	192	3
NMTAP	91	192	4
NMTAP	92	0	2
NMTAP	92	192	2
NMTAP	93	0	0
NMTAP	93	0	1
NMTAP	93	192	0
NMTAP	93	192	1
NMTAP	94	0	0
NMTAP	94	0	7
NMTAP	94	192	0
NMTAP	94	192	7
NMSTR	95	0	0
NMSI_	95	0	0	96	288	3
NMSTR	95	0	7
NMSI_	95	0	7	96	288	4
NMTHO	97	0	0	384	C	1	L1
EXTAP	99	192	0
EXTAP	99	192	7
EXTAP	100	0	0
EXTAP	100	0	7
EXTAP	100	192	0
EXTAP	100	192	7
NMTAP	101	0	0
NMTAP	101	96	0
NMTAP	101	192	1
NMTAP	101	288	1
NMTAP	102	0	2
NMTAP	102	96	2
NMTAP	102	192	3
NMTAP	102	288	3
BRTAP	103	0	4
NMTAP	103	96	4
NMTAP	103	192	5
NMTAP	103	288	5
NMTAP	104	0	6
NMTAP	104	96	6
NMTAP	104	192	6
NMTAP	104	192	7
NMTAP	105	0	7
NMTAP	105	96	7
NMTAP	105	192	6
NMTAP	105	288	6
NMTAP	106	0	5
NMTAP	106	96	5
NMTAP	106	192	4
NMTAP	106	288	4
NMTAP	107	0	3
NMTAP	107	96	3
NMTAP	107	192	2
NMTAP	107	288	2
NMTAP	108	0	1
NMTAP	108	96	1
NMTAP	108	192	0
NMTAP	108	192	1
NMTAP	109	0	0
NMTAP	109	96	0
NMTAP	109	192	1
NMTAP	109	288	1
NMTAP	110	0	2
NMTAP	110	96	2
NMTAP	110	192	2
NMTAP	110	192	3
NMTAP	110	288	2
NMTAP	110	288	3
NMTAP	111	0	4
NMTAP	111	96	4
NMTAP	111	192	5
NMTAP	111	288	5
NMTAP	112	0	6
NMTAP	112	0	7
NMTAP	112	96	6
NMTAP	112	96	7
NMTAP	112	192	6
NMTAP	112	192	7
NMTAP	113	0	6
NMTAP	113	96	6
NMTAP	113	192	5
NMTAP	113	288	5
NMTAP	114	0	4
NMTAP	114	96	4
NMTAP	114	192	3
NMTAP	114	192	4
NMTAP	114	288	3
NMTAP	114	288	4
NMTAP	115	0	2
NMTAP	115	96	2
NMTAP	115	192	1
NMTAP	115	288	1
BRTAP	116	0	0
BRTAP	116	0	7
NMTAP	117	0	0
NMTAP	117	48	0
NMTAP	117	96	0
NMTAP	117	192	1
NMTAP	117	288	1
NMTAP	118	0	2
NMTAP	118	0	3
NMTAP	118	96	2
NMTAP	118	96	3
NMTAP	118	192	2
NMTAP	118	192	3
NMTAP	119	0	4
NMTAP	119	48	4
NMTAP	119	96	4
NMTAP	119	192	5
NMTAP	119	288	5
NMTAP	120	0	6
NMTAP	120	0	7
NMTAP	120	96	6
NMTAP	120	96	7
NMTAP	120	192	6
NMTAP	120	192	7
NMTAP	121	0	7
NMTAP	121	48	7
NMTAP	121	96	7
NMTAP	121	192	6
NMTAP	121	288	6
NMTAP	122	0	4
NMTAP	122	0	5
NMTAP	122	96	4
NMTAP	122	96	5
NMTAP	122	192	4
NMTAP	122	192	5
NMTAP	123	0	3
NMTAP	123	48	3
NMTAP	123	96	3
NMTAP	123	192	2
NMTAP	123	288	2
NMTAP	124	0	0
NMTAP	124	0	1
NMTAP	124	96	0
NMTAP	124	96	1
NMTAP	124	192	0
NMTAP	124	192	1
NMHLD	125	0	0	384
NMHLD	125	0	7	384
NMHLD	127	0	1	384
NMHLD	127	0	6	384
NMHLD	129	0	2	384
NMHLD	129	0	5	384
NMHLD	131	0	3	384
NMHLD	131	0	4	384
NMTTP	133	0	0	C	1	L1
NMTTP	133	0	1	B	0	L1
NMTTP	133	0	2	B	0	L1
NMTTP	133	0	5	B	0	L1
NMTTP	133	0	6	B	0	L1

T_REC_TAP	288
T_REC_BRK	9
T_REC_XTP	6
T_REC_BXX	0
T_REC_HLD	18
T_REC_XHO	0
T_REC_BHO	0
T_REC_BXH	0
T_REC_STR	11
T_REC_BST	0
T_REC_XST	0
T_REC_XBS	0
T_REC_TTP	21
T_REC_THO	1
T_REC_SLD	11
T_REC_BSL	0
T_REC_ALL	365
T_NUM_TAP	326
T_NUM_BRK	9
T_NUM_HLD	19
T_NUM_SLD	11
T_NUM_ALL	365
T_JUDGE_TAP	335
T_JUDGE_HLD	120
T_JUDGE_SLD	11
T_JUDGE_ALL	466
TTM_EACHPAIRS	72
TTM_SCR_TAP	163000
TTM_SCR_BRK	23400
TTM_SCR_HLD	19000
TTM_SCR_SLD	16500
TTM_SCR_ALL	221900
TTM_SCR_S	214400
TTM_SCR_SS	221000
TTM_RAT_ACV	10040

