VERSION	0.00.00	1.04.00
FES_MODE	0
BPM_DEF	163.000	163.000	163.000	163.000
MET_DEF	4	4
RESOLUTION	384
CLK_DEF	384
COMPATIBLE_CODE	MA2

BPM	0	0	163.000
MET	0	0	4	4

NMHLD	1	192	3	96
NMHLD	1	192	5	96
NMTAP	2	0	3
NMTAP	2	48	4
NMHLD	2	96	2	192
NMHLD	2	144	3	144
NMTTP	3	0	2	E	0	M1
NMTTP	3	16	2	B	0	M1
NMTAP	3	48	4
NMHLD	3	96	3	192
NMHLD	3	144	5	144
NMTTP	4	0	3	B	0	M1
NMTTP	4	0	4	E	0	M1
NMTAP	4	48	5
NMHLD	4	96	6	144
NMHLD	4	144	4	96
NMTAP	4	288	4
NMSTR	4	288	6
NMSXR	4	288	6	96	216	7
NMSTR	5	0	3
NMSCL	5	0	3	96	120	0
NMTAP	5	288	0
NMTAP	5	288	7
NMSTR	6	0	1
NMSCR	6	0	1	96	96	4
BRTAP	6	0	6
NMTAP	6	96	4
NMTAP	6	144	5
NMSTR	6	192	6
NMSCR	6	192	6	96	96	1
NMTAP	6	288	4
CNSI_	7	0	1	0	96	5
NMHLD	7	0	3	192
NMSTR	7	192	5
NMSI_	7	192	5	96	48	3
NMSTR	7	288	1
NMSI_	7	288	1	96	48	5
NMHLD	8	0	7	96
NMTAP	8	96	4
NMTAP	8	144	3
NMSTR	8	192	2
NMSCL	8	192	2	96	96	7
NMSTR	8	288	4
NMSI_	8	288	4	96	48	6
CNSI_	9	0	7	0	48	3
NMTAP	9	192	5
NMTAP	9	216	4
NMTAP	9	240	5
NMTAP	9	288	3
NMTAP	9	312	4
NMTAP	9	336	3
NMSTR	10	0	2
NMSI_	10	0	2	96	72	0
NMSTR	10	96	7
NMSI_	10	96	7	96	96	3
NMTAP	10	144	6
CNSCL	10	168	0	0	24	7
NMHLD	10	192	5	96
NMSTR	11	0	2
NMSI_	11	0	2	96	96	6
NMHLD	11	0	4	96
NMTAP	11	192	3
CNSI_	11	192	6	0	96	0
NMSTR	11	288	3
NMSI_	11	288	3	96	48	5
NMHLD	12	0	0	288
CNSI_	12	48	5	0	48	7
CNSI_	12	96	7	0	96	2
NMSTR	12	288	2
NMSCL	12	288	2	96	192	4
NMHLD	13	0	2	192
NMTAP	13	288	3
NMTAP	13	288	5
NMTAP	14	0	2
NMTAP	14	0	4
NMTAP	14	48	5
NMTAP	14	96	6
NMTAP	14	144	1
NMTAP	14	144	7
NMTAP	14	192	2
NMTAP	14	240	3
NMTAP	14	288	2
NMTAP	14	288	4
NMTAP	14	336	1
NMSTR	15	0	0
NMSCR	15	0	0	96	48	1
NMTAP	15	48	0
NMTAP	15	96	7
CNSI_	15	144	1	0	48	3
NMTAP	15	144	6
NMHLD	15	192	5	96
NMTAP	15	240	4
NMHLD	15	288	3	48
NMTAP	15	336	4
NMTAP	16	0	2
NMTAP	16	0	3
NMTAP	16	48	1
NMTAP	16	96	0
NMTAP	16	144	6
NMTAP	16	144	7
NMTAP	16	192	5
NMTAP	16	240	4
NMTAP	16	288	3
NMTAP	16	336	2
NMTAP	17	0	1
NMTAP	17	0	7
NMTAP	17	48	2
NMSTR	17	48	6
NMSI_	17	48	6	96	48	0
NMTAP	17	96	3
NMTAP	17	96	5
NMTAP	17	144	2
NMTAP	17	144	6
NMTAP	17	240	1
NMTAP	17	288	1
NMTAP	17	336	2
NMTAP	18	0	1
NMSTR	18	0	3
NMSI_	18	0	3	96	48	0
NMTAP	18	96	2
NMSTR	18	96	3
NMSI_	18	96	3	96	48	6
NMTAP	18	192	3
NMSTR	18	192	7
NMSI_	18	192	7	96	48	4
NMTAP	18	288	0
NMSTR	18	288	7
NMSI_	18	288	7	96	48	2
NMSTR	19	0	3
NMSI_	19	0	3	96	48	0
NMSI_	19	0	3	96	48	6
NMTAP	19	0	7
NMTAP	19	96	3
NMTAP	19	192	2
NMTAP	19	192	4
NMTAP	19	288	3
NMHLD	19	288	5	96
NMTAP	20	0	4
NMTAP	20	24	3
NMTAP	20	48	2
NMTAP	20	72	1
NMTAP	20	96	0
NMTAP	20	144	4
NMTAP	20	144	5
NMTAP	20	168	3
NMTAP	20	192	2
NMTAP	20	216	1
NMHLD	20	240	0	48
NMTAP	20	288	6
NMTAP	20	312	7
NMTAP	20	336	6
NMTAP	20	360	7
NMTAP	21	0	6
NMTAP	21	24	5
NMTAP	21	48	4
NMTAP	21	72	3
NMTAP	21	96	0
NMTAP	21	120	1
NMTAP	21	144	2
NMTAP	21	168	3
NMSTR	21	192	0
NMSI_	21	192	0	96	48	4
NMTAP	21	216	7
NMTAP	21	240	6
NMTAP	21	264	5
BRTAP	21	288	0
NMTAP	21	288	4
NMTTP	21	289	0	C	1	M1
EXSTR	22	0	6
NMSCR	22	0	6	96	192	2
NMSTR	22	192	2
NMSCR	22	192	2	96	192	6
NMTTP	23	0	3	E	0	M1
CNSLR	23	96	6	0	192	2
NMTTP	23	192	5	E	0	M1
NMHLD	24	0	0	96
NMSTR	24	144	1
NMSI_	24	144	1	96	48	4
NMHLD	24	144	7	96
CNSI_	24	288	4	0	72	2
NMHLD	25	0	7	96
NMHLD	25	144	0	96
NMSTR	25	144	6
NMSI_	25	144	6	96	48	3
CNSI_	25	288	3	0	72	5
EXTAP	26	0	0
NMTAP	26	96	3
NMTAP	26	96	6
NMTAP	26	144	5
NMTAP	26	168	4
NMTAP	26	192	5
NMTAP	26	216	4
NMHLD	26	240	5	48
NMTAP	26	288	3
NMTAP	26	312	4
NMTAP	26	336	3
NMTAP	26	360	4
NMTAP	27	0	3
NMTAP	27	96	1
NMTAP	27	96	4
NMTAP	27	144	2
NMTAP	27	168	3
NMTAP	27	192	2
NMTAP	27	216	3
NMHLD	27	240	2	48
NMTAP	27	288	4
NMTAP	27	312	3
NMTAP	27	336	4
NMTAP	27	360	3
NMSTR	28	0	4
NMSI_	28	0	4	96	96	6
NMTAP	28	96	2
NMTAP	28	192	0
CNSI_	28	192	6	0	96	0
CNSI_	28	288	0	0	96	2
NMTAP	28	288	6
NMTHO	29	0	0	192	C	0	M1
BRTAP	30	0	0
NMSTR	30	8	1
NMSUL	30	8	1	96	472	7
NMTAP	30	8	7
NMTAP	30	16	2
NMTAP	30	16	6
NMTAP	30	24	3
NMSTR	30	24	5
BRSUL	30	24	5	96	456	3
BRTAP	30	32	4
NMSTR	31	288	0
BRSI_	31	288	0	96	48	4
BRTAP	32	0	0
BRTAP	32	0	7
NMTAP	32	96	5
NMTAP	32	144	4
NMTAP	32	144	6
NMTAP	32	192	0
NMTAP	32	192	7
NMTAP	32	240	2
NMTAP	32	264	3
NMTAP	32	288	1
NMTAP	32	336	7
NMTAP	33	0	4
NMTAP	33	0	6
NMTAP	33	48	2
NMTAP	33	72	3
NMTAP	33	96	1
NMTAP	33	144	7
NMTAP	33	192	0
NMTAP	33	192	6
NMTAP	33	240	2
NMTAP	33	264	4
NMTAP	33	288	3
NMTAP	33	312	5
NMTAP	33	336	4
NMTAP	34	0	0
NMTAP	34	0	7
NMTAP	34	48	5
NMTAP	34	72	4
NMTAP	34	96	6
NMTAP	34	144	0
NMTAP	34	192	1
NMTAP	34	192	3
NMTAP	34	240	5
NMTAP	34	264	4
NMTAP	34	288	6
NMTAP	34	336	0
NMTAP	35	0	1
NMTAP	35	0	7
NMTAP	35	48	3
NMTAP	35	48	5
NMTAP	35	96	2
NMSTR	35	96	6
NMSI_	35	96	6	96	48	2
NMTAP	35	144	1
NMTAP	35	144	7
EXTAP	35	192	6
NMTAP	35	240	1
NMTAP	35	264	1
NMTAP	35	312	3
NMTAP	35	336	2
NMTAP	35	336	3
NMTAP	36	0	0
EXTAP	36	0	4
NMTAP	36	48	6
NMTAP	36	72	7
EXTAP	36	96	5
NMTAP	36	144	4
NMTAP	36	144	6
EXTAP	36	192	3
NMTAP	36	192	7
NMTAP	36	240	1
NMTAP	36	264	0
EXTAP	36	288	2
NMTAP	36	336	1
NMTAP	36	336	3
EXTAP	37	0	2
EXTAP	37	0	4
NMTAP	37	48	5
NMTAP	37	72	4
EXTAP	37	96	6
NMTAP	37	144	7
NMTAP	37	168	7
NMTAP	37	192	0
NMTAP	37	240	2
NMTAP	37	264	2
NMSTR	37	288	4
NMSI_	37	288	4	96	48	1
NMSI_	37	288	4	96	48	7
NMTAP	37	312	3
NMTAP	37	336	5
NMSTR	38	96	2
NMSCR	38	96	2	96	48	4
NMSTR	38	96	6
NMSCL	38	96	6	96	48	4
NMTAP	38	192	2
NMTAP	38	192	6
NMTAP	38	288	0
NMTAP	39	0	1
NMTAP	39	0	5
NMTAP	39	48	2
NMTAP	39	48	4
NMSTR	39	96	0
NMSXL	39	96	0	96	120	3
NMSTR	39	96	6
NMSXR	39	96	6	96	120	3
NMTAP	39	192	0
NMTAP	39	192	6
BRTAP	40	0	2
BRTAP	40	0	4
NMTAP	40	48	1
NMTAP	40	72	0
NMTAP	40	96	2
NMTAP	40	120	0
NMTAP	40	144	1
NMTAP	40	192	3
NMTAP	40	192	7
NMTAP	40	240	5
NMTAP	40	264	4
NMTAP	40	288	6
NMTAP	40	312	4
NMTAP	40	336	5
BRTAP	41	0	1
BRTAP	41	0	7
NMTAP	41	48	0
NMTAP	41	72	6
NMTAP	41	96	0
NMTAP	41	120	6
NMTAP	41	144	0
NMTAP	41	168	6
NMTAP	41	192	1
NMTAP	41	216	5
NMTAP	41	240	1
NMTAP	41	264	5
NMTAP	41	288	2
NMTAP	41	312	4
NMTAP	41	336	2
NMTAP	41	360	4
NMTAP	42	0	1
NMTAP	42	24	3
NMTAP	42	48	2
NMTAP	42	72	4
NMTAP	42	96	3
NMTAP	42	120	5
NMTAP	42	144	4
NMTAP	42	168	6
NMTAP	42	192	2
NMTAP	42	216	4
NMTAP	42	240	3
NMTAP	42	264	5
NMTAP	42	288	4
NMTAP	42	312	6
NMTAP	42	336	5
NMTAP	42	360	7
NMTAP	43	0	4
NMTAP	43	24	3
NMTAP	43	48	2
NMTAP	43	72	1
NMTAP	43	96	7
NMTAP	43	120	6
NMTAP	43	144	5
NMTAP	43	168	4
NMHLD	43	192	0	0
NMHLD	43	224	0	0
NMHLD	43	256	0	0
NMHLD	43	288	1	0
NMHLD	43	288	7	0
NMHLD	43	320	2	0
NMHLD	43	320	6	0
NMHLD	43	352	3	0
NMHLD	43	352	5	0
BRHLD	44	0	2	0
BRHLD	44	0	6	0
NMTAP	44	96	0
NMTAP	44	120	0
NMTAP	44	144	7
NMTAP	44	168	7
BRHLD	44	192	5	48
NMHLD	44	264	4	48
BRHLD	44	264	6	48
NMTAP	44	336	1
BRTAP	44	336	3
NMTTP	45	0	0	C	0	M1
BRSTR	45	0	7
BRSF_	45	0	7	96	48	3
BRTAP	45	96	7
NMSTR	45	192	1
NMSCL	45	192	1	96	48	7
NMSTR	45	192	5
NMSCR	45	192	5	96	48	7
NMTAP	45	224	1
NMTAP	45	224	5
NMTAP	45	256	1
NMTAP	45	256	5
NMSTR	45	288	1
NMSI_	45	288	1	96	48	3
NMSTR	45	288	5
NMSI_	45	288	5	96	48	3
NMSTR	46	0	1
BRSLL	46	0	1	96	96	5
NMTAP	46	0	5
NMTTP	46	96	0	C	1	M1
CNSCL	46	192	5	0	192	1
CNSCL	47	0	1	0	192	3
NMTAP	47	288	2
NMTAP	47	288	4
BRHLD	48	0	1	144
NMHLD	48	144	2	240
NMHLD	49	0	3	144
NMHLD	49	144	4	1008
BRSTR	50	0	5
NMSCL	50	0	5	96	192	1
NMSTR	51	0	1
NMSCR	51	0	1	96	192	5
NMHLD	52	0	5	144
EXHLD	52	144	6	240
NMHLD	53	0	7	144
NMHLD	53	144	0	912
NMSTR	53	288	1
NMSCL	53	288	1	96	192	5
NMSTR	54	288	5
NMSCR	54	288	5	96	192	1
NMHLD	56	0	2	72
NMTAP	56	0	4
NMTAP	56	72	3
NMTAP	56	96	2
NMTAP	56	144	2
NMHLD	56	192	2	72
NMTAP	56	192	4
NMTAP	56	264	3
NMTAP	56	288	2
NMTAP	56	336	4
NMTAP	57	0	3
NMHLD	57	0	5	72
NMTAP	57	72	4
NMTAP	57	96	5
NMTAP	57	144	5
NMTAP	57	192	3
NMHLD	57	192	5	72
NMTAP	57	264	4
NMTAP	57	288	5
NMTAP	57	336	3
NMTAP	57	336	5
NMTAP	58	0	3
NMTAP	58	24	4
NMTAP	58	48	3
NMTAP	58	72	4
NMTAP	58	96	2
NMTAP	58	120	5
NMTAP	58	144	2
NMTAP	58	168	5
NMTAP	58	192	1
NMTAP	58	216	6
NMTAP	58	240	1
NMTAP	58	264	6
NMSTR	58	288	0
NMSI_	58	288	0	96	48	4
NMTAP	58	304	7
NMTAP	58	320	0
NMTAP	58	336	7
NMTAP	58	352	0
NMTAP	58	368	7
BRTAP	59	0	0
NMTAP	59	192	3
NMTAP	59	192	7
NMTAP	59	216	2
NMTAP	59	216	6
NMTAP	59	240	1
NMTAP	59	240	5
NMTAP	59	264	0
NMTAP	59	264	4
NMTAP	59	288	3
NMSTR	59	288	7
NMSI_	59	288	7	96	48	3
NMSTR	60	0	5
NMSI_	60	0	5	96	48	0
EXTAP	60	0	7
NMSTR	60	96	1
NMSI_	60	96	1	96	48	4
BRTAP	60	96	5
BRTAP	60	192	1
NMSTR	60	192	6
NMSI_	60	192	6	96	48	3
NMSTR	60	288	2
NMSI_	60	288	2	96	48	7
BRTAP	60	288	6
NMSTR	61	0	0
NMSI_	61	0	0	96	48	5
BRTAP	61	0	2
BRTAP	61	96	0
NMSTR	61	96	4
BRSCR	61	96	4	96	48	7
NMTAP	61	168	3
NMTAP	61	192	3
BRTAP	61	192	4
BRTAP	61	240	1
BRTAP	61	312	0
NMTAP	61	312	1
NMSTR	62	0	3
NMSI_	62	0	3	96	48	5
BRTAP	62	0	7
NMTAP	62	48	1
BRTAP	62	48	5
BRSTR	62	96	3
NMSI_	62	96	3	96	48	1
NMSTR	62	96	7
NMSI_	62	96	7	96	48	3
BRTAP	62	192	3
NMSTR	62	192	7
NMSLL	62	192	7	96	96	1
EXTAP	62	288	1
BRTAP	62	288	7
BRHLD	63	0	0	72
BRTAP	63	72	2
BRTAP	63	96	2
BRTAP	63	144	3
NMTAP	63	144	4
BRHLD	63	192	4	48
NMHLD	63	192	5	48
NMHLD	63	264	3	48
BRHLD	63	264	6	48
BRTAP	63	336	2
NMTAP	63	336	7
NMSTR	64	0	0
NMSI_	64	0	0	96	48	3
BRTAP	64	0	1
BRTAP	64	96	0
NMSTR	64	96	7
BRSI_	64	96	7	96	48	4
NMTAP	64	144	6
NMSTR	64	192	5
NMSI_	64	192	5	96	48	2
BRTAP	64	192	7
NMHLD	64	288	3	96
BRTAP	64	288	5
BRTAP	65	0	0
BRSTR	65	96	1
NMSI_	65	96	1	96	48	4
BRTAP	65	96	7
BRTAP	65	128	1
NMTAP	65	128	7
NMTAP	65	160	1
BRTAP	65	160	7
BRTAP	65	192	1
NMTAP	65	192	7
BRTAP	65	256	5
BRTAP	65	320	3
BRSTR	66	0	2
NMSV_	66	0	2	96	48	7
NMSTR	66	0	4
NMSV_	66	0	4	96	48	7
NMTAP	66	48	1
BRTAP	66	48	5
BRTAP	66	96	2
NMTAP	66	96	4
BRTAP	66	192	0
NMTAP	66	264	2
BRTAP	66	264	6
BRTAP	66	336	4
BRTAP	66	360	4
BRSTR	67	0	4
NMSCR	67	0	4	96	192	3
NMSTR	67	288	4
BRSF_	67	288	4	96	48	0
NMTTP	68	0	0	B	0	M1
NMTTP	68	0	0	C	1	M1
NMTTP	68	0	0	E	0	M1
NMTTP	68	0	1	B	0	M1
NMTTP	68	0	2	B	0	M1
NMTTP	68	0	2	E	0	M1
NMTTP	68	0	3	B	0	M1
NMTTP	68	0	4	B	0	M1
NMTTP	68	0	4	E	0	M1
NMTTP	68	0	5	B	0	M1
NMTTP	68	0	6	B	0	M1
NMTTP	68	0	6	E	0	M1
NMTTP	68	0	7	B	0	M1
NMSTR	70	0	3
NMSI_	70	0	3	96	96	7
NMTAP	70	0	4
NMTAP	70	192	4
CNSI_	70	192	7	0	96	1
CNSI_	70	288	1	0	192	5
NMSTR	71	0	5
NMSI_	71	0	5	96	96	1
CNSI_	71	192	1	0	96	3
NMTAP	71	192	6
CNSI_	71	288	3	0	192	7
NMSTR	72	0	7
NMSI_	72	0	7	96	96	3
NMTAP	72	192	0
CNSI_	72	192	3	0	96	5
CNSI_	72	288	5	0	192	1
NMSTR	73	0	1
NMSI_	73	0	1	96	96	5
NMTAP	73	192	2
CNSI_	73	192	5	0	96	7
CNSI_	73	288	7	0	192	3
NMSTR	74	0	3
NMSI_	74	0	3	96	144	5
NMSTR	74	192	6
NMSLR	74	192	6	96	192	2
CNSCR	74	240	5	0	48	6
NMTTP	74	288	0	A	0	M1
NMTTP	74	300	0	B	0	M1
NMSTR	75	0	2
NMSI_	75	0	2	96	144	4
NMTAP	75	192	5
CNSCR	75	240	4	0	48	5
NMHLD	75	288	7	96
NMTTP	76	0	6	E	0	M1
NMTTP	76	24	5	E	0	M1
NMTTP	76	48	4	E	0	M1
NMTTP	76	72	3	E	0	M1
NMTTP	76	96	2	E	0	M1
NMTTP	76	120	1	E	0	M1
NMTTP	76	144	0	E	0	M1
NMTTP	76	168	7	E	0	M1
NMTAP	76	192	4
NMTAP	76	216	3
NMTAP	76	240	2
NMTAP	76	264	1
NMSTR	76	288	0
BRSI_	76	288	0	96	72	6
NMTAP	76	312	7
NMTAP	76	336	6
NMTAP	76	360	5
BRTAP	77	0	0
NMTAP	77	0	4
CNSI_	77	72	6	0	72	1
CNSI_	77	144	1	0	72	5
CNSI_	77	216	5	0	48	2
CNSI_	77	264	2	0	48	4
NMTHO	78	0	0	384	C	0	M1
NMSTR	79	192	0
NMSI_	79	192	0	96	48	4
NMSTR	79	192	7
NMSI_	79	192	7	96	48	3
NMTAP	79	208	1
NMTAP	79	208	6
NMTAP	79	224	2
NMTAP	79	224	5
NMTAP	79	240	3
NMTAP	79	240	4
BRTAP	79	288	0
NMSTR	79	288	7
NMSI_	79	288	7	96	48	5
NMTAP	80	0	0
NMSTR	80	0	7
NMSCR	80	0	7	96	48	1
NMTAP	80	48	2
NMTAP	80	72	2
NMSTR	80	96	7
NMSI_	80	96	7	96	48	3
NMTAP	80	144	4
NMTAP	80	168	4
NMTAP	80	192	7
NMTAP	80	240	0
NMTAP	80	288	1
NMTAP	80	288	5
NMTAP	80	336	1
NMTAP	80	336	5
NMTAP	81	0	2
NMTAP	81	0	6
NMTAP	81	24	7
NMTAP	81	48	0
NMTAP	81	72	1
NMTAP	81	96	2
NMTAP	81	120	3
NMTAP	81	144	4
NMTAP	81	168	5
NMTAP	81	192	2
NMTAP	81	192	6
NMTAP	81	216	1
NMTAP	81	240	0
NMTAP	81	264	7
NMTAP	81	288	6
NMTAP	81	312	5
NMTAP	81	336	4
NMTAP	81	360	3
NMTAP	82	0	2
BRTAP	82	0	6
NMTAP	82	72	0
BRTAP	82	72	1
NMTAP	82	144	2
NMTAP	82	168	1
NMTAP	82	168	3
BRTAP	82	192	1
NMTAP	82	192	3
NMTAP	82	264	5
BRTAP	82	264	6
NMTAP	82	336	1
NMTAP	82	360	0
NMTAP	82	360	2
NMTAP	83	0	0
BRTAP	83	0	2
BRTAP	83	72	4
NMTAP	83	72	5
NMTAP	83	144	7
NMTAP	83	168	0
NMTAP	83	168	6
BRTAP	83	192	0
NMTAP	83	192	6
NMTAP	83	264	2
BRTAP	83	264	3
NMTAP	83	336	3
NMTAP	83	336	4
NMTAP	84	0	5
NMTAP	84	24	5
NMTAP	84	48	4
NMTAP	84	72	6
NMTAP	84	96	0
NMTAP	84	144	2
NMTAP	84	168	2
NMTAP	84	192	3
NMTAP	84	216	1
NMHLD	84	240	7	48
NMTAP	84	288	0
NMTAP	84	312	6
NMTAP	84	336	0
NMTAP	84	360	6
BRTAP	85	0	0
NMTAP	85	16	1
NMTAP	85	32	2
NMTAP	85	48	3
NMTAP	85	48	4
BRTAP	85	96	7
NMTAP	85	112	6
NMTAP	85	128	5
NMTAP	85	144	3
NMTAP	85	144	4
NMTAP	85	192	1
NMTAP	85	216	4
NMTAP	85	240	2
NMTAP	85	264	3
BRTAP	85	288	0
NMSTR	86	0	1
NMSI_	86	0	1	96	48	4
NMSTR	86	0	6
NMSI_	86	0	6	96	48	3
NMTAP	86	32	0
NMTAP	86	32	7
NMTAP	86	64	0
NMTAP	86	64	7
NMTTP	86	96	0	C	1	M1
BRTAP	86	96	1
NMTTP	86	96	3	B	0	M1
NMTTP	86	96	4	B	0	M1
BRTAP	86	96	6
NMTAP	86	192	0
NMTAP	86	192	7
NMTAP	86	240	6
NMTAP	86	264	7
NMTAP	86	288	5
NMTAP	86	312	0
NMTAP	86	336	4
NMTAP	86	360	1
NMTAP	87	0	3
NMTAP	87	24	2
NMTAP	87	48	5
NMTAP	87	72	4
NMTAP	87	96	6
NMTAP	87	120	3
NMTAP	87	144	0
NMTAP	87	168	1
NMTAP	87	192	7
NMTAP	87	216	0
NMTAP	87	240	6
NMTAP	87	264	7
BRHLD	87	288	5	96
NMHLD	88	0	4	0
NMTAP	88	24	6
NMHLD	88	48	4	0
NMTAP	88	72	6
NMHLD	88	96	0	0
NMTAP	88	120	4
NMHLD	88	144	2	0
NMTAP	88	168	0
NMHLD	88	192	4	0
NMTAP	88	216	6
BRTAP	88	240	0
BRTAP	88	264	0
NMHLD	88	288	3	0
NMTAP	88	312	1
NMHLD	88	336	7	0
NMTAP	88	360	3
NMHLD	89	0	5	0
NMTAP	89	24	1
NMHLD	89	48	3	0
NMTAP	89	72	7
NMHLD	89	96	5	0
NMTAP	89	120	3
BRTAP	89	144	7
BRTAP	89	168	7
NMTAP	89	192	0
NMTAP	89	240	2
NMTAP	89	240	3
NMTAP	89	288	0
NMTAP	89	288	5
NMTAP	89	336	0
NMTAP	89	336	5
NMSTR	90	0	6
NMSV_	90	0	6	96	48	3
NMSTR	90	0	7
NMSI_	90	0	7	96	48	3
NMTAP	90	16	5
NMTAP	90	32	4
NMTAP	90	48	2
NMTAP	90	64	1
NMTAP	90	80	0
BRTAP	90	96	6
BRTAP	90	96	7
NMTAP	90	192	0
NMTAP	90	192	7
NMTAP	90	240	1
NMTAP	90	264	0
NMTAP	90	288	2
NMTAP	90	312	7
NMTAP	90	336	3
NMTAP	90	360	6
NMTAP	91	0	4
NMTAP	91	24	5
NMTAP	91	48	2
NMTAP	91	72	3
NMTAP	91	96	1
NMTAP	91	120	4
NMTAP	91	144	7
NMTAP	91	168	6
NMTAP	91	192	0
NMTAP	91	216	7
NMTAP	91	240	1
NMTAP	91	264	0
BRHLD	91	288	2	96
NMHLD	92	0	3	0
NMTAP	92	24	1
NMHLD	92	48	3	0
NMTAP	92	72	1
NMHLD	92	96	7	0
NMTAP	92	120	3
NMHLD	92	144	5	0
NMTAP	92	168	7
NMHLD	92	192	3	0
NMTAP	92	216	1
BRTAP	92	240	7
BRTAP	92	264	7
NMHLD	92	288	4	0
NMTAP	92	312	6
NMHLD	92	336	0	0
NMTAP	92	360	6
NMHLD	93	0	4	0
NMTAP	93	24	0
NMHLD	93	48	2	0
NMTAP	93	72	6
BRTAP	93	96	1
NMTAP	93	112	0
NMTAP	93	128	1
NMTAP	93	144	0
NMTAP	93	160	1
NMTAP	93	176	0
NMTAP	93	192	1
NMTAP	93	208	2
NMTAP	93	224	3
NMTAP	93	240	4
NMTAP	93	240	6
NMTAP	93	256	5
NMTAP	93	272	4
NMSTR	93	288	0
BRSI_	93	288	0	96	48	4
NMTAP	93	288	3
NMTAP	93	304	1
NMTAP	93	320	2
NMTAP	93	336	3
NMTAP	93	336	7
NMTAP	93	352	6
NMTAP	93	368	5
BRTAP	94	0	0
CNSI_	94	48	4	0	48	0
BRSTR	94	48	7
NMSCR	94	48	7	96	48	2
BRHLD	94	144	1	240
BRTAP	94	144	7
NMTAP	94	336	2
NMTAP	94	360	3
NMSTR	95	0	4
NMSI_	95	0	4	96	120	7
CNSCR	95	216	7	0	192	4

T_REC_TAP	502
T_REC_BRK	72
T_REC_XTP	11
T_REC_BXX	0
T_REC_HLD	68
T_REC_XHO	1
T_REC_BHO	11
T_REC_BXH	0
T_REC_STR	77
T_REC_BST	7
T_REC_XST	1
T_REC_XBS	0
T_REC_TTP	35
T_REC_THO	2
T_REC_SLD	78
T_REC_BSL	9
T_REC_ALL	874
T_NUM_TAP	626
T_NUM_BRK	99
T_NUM_HLD	71
T_NUM_SLD	78
T_NUM_ALL	874
T_JUDGE_TAP	705
T_JUDGE_HLD	194
T_JUDGE_SLD	87
T_JUDGE_ALL	986
TTM_EACHPAIRS	149
TTM_SCR_TAP	313000
TTM_SCR_BRK	257400
TTM_SCR_HLD	71000
TTM_SCR_SLD	117000
TTM_SCR_ALL	758400
TTM_SCR_S	726050
TTM_SCR_SS	748500
TTM_RAT_ACV	10132

