VERSION	0.00.00	1.04.00
FES_MODE	0
BPM_DEF	163.000	163.000	163.000	163.000
MET_DEF	4	4
RESOLUTION	384
CLK_DEF	384
COMPATIBLE_CODE	MA2

BPM	0	0	163.000
MET	0	0	4	4

NMSTR	2	0	2
NMSCR	2	0	2	96	288	5
NMSTR	3	0	6
NMSUL	3	0	6	96	288	2
NMSTR	4	0	1
NMSCL	4	0	1	96	480	3
NMTAP	5	288	2
NMTAP	5	288	5
BRTAP	6	0	0
BRTAP	6	0	7
NMTAP	6	96	1
NMTAP	6	144	1
NMTAP	6	240	2
NMTAP	6	240	3
NMTAP	6	288	2
NMTAP	6	288	3
NMHLD	7	0	4	96
NMHLD	7	96	5	96
NMHLD	7	192	6	96
NMTAP	7	288	7
NMTAP	8	0	0
NMTAP	8	0	7
NMTAP	8	96	6
NMTAP	8	144	6
NMTAP	8	240	4
NMTAP	8	240	5
NMTAP	8	288	4
NMTAP	8	288	5
NMHLD	9	0	3	96
NMHLD	9	96	2	96
NMHLD	9	192	1	96
NMTAP	9	288	0
NMTAP	10	0	1
NMTAP	10	48	1
NMTAP	10	96	0
NMSTR	10	144	2
NMSCR	10	144	2	96	48	5
EXTAP	10	240	7
EXTAP	10	288	7
NMTAP	11	0	6
NMTAP	11	48	6
NMTAP	11	96	7
NMSTR	11	144	5
NMSCL	11	144	5	96	48	2
EXTAP	11	240	0
EXTAP	11	288	0
NMTAP	12	0	1
NMSTR	12	0	2
NMSSL	12	0	2	96	192	6
NMSTR	12	288	7
NMSLL	12	288	7	96	192	3
NMSLR	12	288	7	96	192	3
NMTAP	13	288	2
NMTAP	13	288	4
BRTAP	14	0	0
BRTAP	14	0	6
NMTAP	14	96	5
NMTAP	14	144	5
NMTAP	14	240	4
NMTAP	14	240	6
NMTAP	14	288	4
NMTAP	14	288	6
NMHLD	15	0	7	96
NMHLD	15	96	0	96
NMHLD	15	192	1	96
NMTAP	15	288	2
NMTAP	16	0	1
NMTAP	16	0	3
NMTAP	16	96	0
NMTAP	16	144	0
NMTAP	16	240	6
NMTAP	16	240	7
NMTAP	16	288	6
NMTAP	16	288	7
NMTAP	17	0	4
NMTAP	17	0	5
NMTAP	17	96	1
NMTAP	17	96	3
NMTAP	17	144	1
NMTAP	17	144	3
NMTAP	17	240	4
NMTAP	17	240	6
NMTAP	17	288	4
NMTAP	17	288	6
NMHLD	18	0	2	96
NMHLD	18	96	0	96
NMHLD	18	192	7	96
NMTAP	18	288	5
NMTAP	18	336	5
NMHLD	19	0	5	96
NMHLD	19	96	7	96
NMHLD	19	192	0	96
NMSTR	19	288	2
NMSCL	19	288	2	96	288	4
NMSTR	20	288	3
NMSF_	20	288	3	96	192	7
NMTAP	21	288	0
NMTAP	21	288	6
NMTAP	21	336	1
NMTAP	21	336	5
BRHLD	22	0	2	768
BRTAP	22	0	4
NMTTP	22	192	3	E	0	M1
NMTTP	22	288	2	E	0	M1
NMTTP	23	0	1	E	0	M1
NMTTP	23	96	0	C	0	M1
NMTTP	23	192	4	E	0	M1
NMHLD	24	0	5	768
NMTTP	24	192	5	E	0	M1
NMTTP	24	288	6	E	0	M1
NMTTP	25	0	7	E	0	M1
NMTTP	25	96	0	C	0	M1
NMTTP	25	192	4	E	0	M1
NMHLD	26	0	1	96
NMTAP	26	96	3
NMTAP	26	144	3
NMTAP	26	240	2
NMTAP	26	288	2
NMHLD	27	0	6	96
NMTAP	27	96	4
NMTAP	27	144	4
NMTAP	27	240	5
NMTAP	27	288	5
NMTAP	28	0	2
NMTAP	28	48	2
NMTAP	28	96	6
NMTAP	28	144	6
NMTAP	28	192	1
NMTAP	28	240	1
NMTAP	28	288	7
NMTAP	28	336	7
NMHLD	29	0	0	288
NMSTR	29	288	6
BRSUL	29	288	6	96	288	3
NMTTP	30	0	0	C	1	M1
CNSCL	30	288	3	0	288	4
NMTAP	31	288	3
NMTAP	31	288	4
BRTAP	32	0	0
BRTAP	32	0	5
NMHLD	32	96	2	48
NMHLD	32	96	3	48
NMHLD	32	192	5	48
NMHLD	32	192	6	48
NMHLD	32	288	0	48
NMHLD	32	288	1	48
NMHLD	33	0	3	48
NMHLD	33	0	4	48
NMHLD	33	96	6	48
NMHLD	33	96	7	48
NMHLD	33	192	0	72
NMHLD	33	264	3	72
NMTAP	33	336	2
NMHLD	34	0	2	48
NMHLD	34	0	4	48
NMHLD	34	96	6	48
NMHLD	34	96	7	48
NMHLD	34	192	0	48
NMHLD	34	192	1	48
NMHLD	34	288	3	48
NMHLD	34	288	5	48
NMTAP	35	0	2
NMTAP	35	0	4
NMTAP	35	48	2
NMTAP	35	48	4
NMSTR	35	96	2
NMSV_	35	96	2	96	48	7
NMTAP	35	96	4
EXTAP	35	288	0
BRTAP	36	0	1
BRSTR	36	0	7
NMSI_	36	0	7	96	48	4
NMSTR	36	96	3
NMSI_	36	96	3	96	48	0
NMSTR	36	192	6
NMSI_	36	192	6	96	48	1
NMSTR	36	288	2
NMSI_	36	288	2	96	48	5
NMSTR	37	0	7
NMSI_	37	0	7	96	48	4
NMTAP	37	96	3
EXTAP	37	168	2
EXHLD	37	192	2	72
EXTAP	37	264	3
EXTAP	37	336	1
EXTAP	37	336	4
EXSTR	38	0	1
NMSI_	38	0	1	96	48	6
EXTAP	38	0	4
NMSTR	38	96	5
NMSI_	38	96	5	96	48	2
NMSTR	38	192	0
NMSI_	38	192	0	96	48	3
NMTAP	38	288	4
NMTAP	39	0	4
NMTAP	39	0	5
NMTAP	39	48	4
NMTAP	39	48	5
NMTAP	39	96	4
NMTAP	39	96	5
NMSTR	39	192	6
NMSI_	39	192	6	96	48	2
NMSTR	39	192	7
NMSI_	39	192	7	96	48	3
BRSTR	40	0	1
NMSI_	40	0	1	96	48	4
BRTAP	40	0	4
NMSTR	40	96	5
NMSI_	40	96	5	96	48	0
NMSTR	40	192	2
NMSI_	40	192	2	96	48	7
NMSTR	40	288	6
NMSI_	40	288	6	96	48	3
NMSTR	41	0	1
NMSI_	41	0	1	96	48	4
NMTAP	41	96	5
EXTAP	41	192	6
EXHLD	41	216	6	48
EXTAP	41	264	7
EXTAP	41	336	0
EXTAP	41	336	5
EXTAP	42	0	0
EXSTR	42	0	5
NMSI_	42	0	5	96	48	0
NMSTR	42	96	1
NMSI_	42	96	1	96	48	4
NMSTR	42	192	6
NMSI_	42	192	6	96	48	3
NMTAP	42	288	2
NMTAP	43	0	1
NMTAP	43	0	4
NMTAP	43	48	1
NMTAP	43	48	4
NMTAP	43	96	1
NMHLD	43	96	4	72
NMTTP	43	192	1	E	0	M1
NMTTP	43	224	2	E	0	M1
NMTTP	43	256	3	E	0	M1
NMTTP	43	288	7	E	0	M1
NMTTP	43	320	6	E	0	M1
NMTTP	43	352	5	E	0	M1
BXTAP	44	0	3
NMTAP	44	96	0
NMTAP	44	120	7
NMTAP	44	144	0
NMTAP	44	168	7
NMHLD	44	192	0	72
NMHLD	44	264	1	72
NMTAP	44	336	2
EXSTR	45	0	2
NMSCL	45	0	2	96	48	0
NMSCR	45	0	2	96	48	5
EXTAP	45	192	6
EXTAP	45	192	7
EXTAP	45	224	6
EXTAP	45	224	7
EXTAP	45	256	6
EXTAP	45	256	7
EXTAP	45	288	6
EXTAP	45	288	7
BRSTR	46	0	1
BRSUR	46	0	1	96	288	4
BRHLD	46	0	4	672
CNSCR	47	0	4	0	288	3
NMTTP	48	0	0	C	1	M1
NMTTP	48	0	2	B	0	M1
NMTTP	48	0	2	A	0	M1
NMTTP	48	0	3	B	0	M1
NMTTP	48	0	3	A	0	M1
NMTTP	48	0	6	B	0	M1
NMTTP	48	0	6	A	0	M1
NMTTP	48	0	7	B	0	M1
NMTTP	48	0	7	A	0	M1
NMHLD	50	0	1	576
NMTAP	50	96	3
NMSTR	50	144	3
NMSXL	50	144	3	96	240	0
NMTAP	51	192	7
NMTAP	51	288	6
NMHLD	52	0	5	96
NMTAP	52	96	4
NMHLD	52	144	4	96
NMTAP	52	240	6
NMTAP	52	288	6
NMTAP	53	0	2
NMHLD	53	48	2	96
NMHLD	53	144	3	96
NMTAP	53	240	1
NMTAP	53	288	1
NMHLD	54	0	0	96
NMHLD	54	144	1	96
NMHLD	54	144	7	96
NMSTR	54	288	2
NMSXR	54	288	2	96	288	3
NMSTR	54	288	6
NMSXL	54	288	6	96	288	5
NMTTP	56	0	4	E	1	M1
NMTTP	56	96	5	E	0	M1
NMTTP	56	192	6	E	0	M1
NMTTP	56	288	7	E	0	M1
NMTTP	57	0	0	E	0	M1
NMTTP	57	96	1	E	0	M1
NMTTP	57	192	2	E	0	M1
NMTTP	57	288	3	E	0	M1
NMTTP	58	0	4	B	0	M1
NMTTP	58	48	5	B	0	M1
NMTTP	58	96	6	B	0	M1
NMTTP	58	144	7	B	0	M1
NMTTP	58	192	0	B	0	M1
NMTTP	58	240	1	B	0	M1
NMTTP	58	288	2	B	0	M1
NMTTP	58	336	3	B	0	M1
NMTHO	59	0	0	192	C	0	M1
BRTAP	60	0	0
BRTAP	60	0	7
NMTAP	60	96	2
NMTAP	60	96	3
NMTAP	60	192	5
NMTAP	60	192	6
NMTAP	60	288	0
NMTAP	60	288	1
NMTAP	61	0	3
NMTAP	61	0	4
NMTAP	61	96	6
NMTAP	61	96	7
EXTAP	61	168	5
EXHLD	61	192	5	48
EXHLD	61	240	4	72
EXHLD	61	312	6	72
NMTAP	62	0	7
NMTAP	62	48	7
NMTAP	62	96	6
NMTAP	62	96	7
NMTAP	62	192	2
NMTAP	62	192	3
NMTAP	62	288	0
NMTAP	62	288	1
NMTAP	63	0	2
NMTAP	63	0	7
NMTAP	63	72	1
NMHLD	63	96	1	48
NMTAP	63	144	0
NMTAP	63	192	2
NMTAP	63	192	7
NMTAP	63	264	6
NMHLD	63	288	6	48
NMTAP	63	336	7
NMTAP	64	0	0
NMTAP	64	0	5
NMTAP	64	96	1
NMTAP	64	96	2
NMTAP	64	192	4
NMTAP	64	192	5
NMTAP	64	288	0
NMTAP	64	288	7
NMTAP	65	0	2
NMTAP	65	0	3
EXTAP	65	96	1
EXTAP	65	128	1
EXTAP	65	160	1
EXHLD	65	192	1	64
EXHLD	65	256	3	64
EXHLD	65	320	2	64
NMTAP	66	0	0
NMTAP	66	48	0
NMTAP	66	96	0
NMTAP	66	96	1
NMTAP	66	192	4
NMTAP	66	192	6
NMTAP	66	264	1
NMTAP	66	264	3
NMTAP	66	336	0
NMTAP	66	360	7
NMSTR	67	0	0
NMSCR	67	0	0	96	192	7
BRSTR	68	0	1
NMSXL	68	0	1	96	480	4
BRSTR	68	0	5
NMSXL	68	0	5	96	480	0
NMHLD	70	0	2	528
NMTAP	70	0	6
NMTAP	70	288	3
NMHLD	71	0	3	528
NMTAP	71	288	4
NMHLD	72	0	4	528
NMTAP	72	288	5
NMHLD	73	0	5	384
NMTAP	73	288	1
NMHLD	74	0	1	288
NMTAP	74	96	3
NMSTR	74	144	3
NMSI_	74	144	3	96	96	7
NMHLD	75	0	6	288
NMTAP	75	96	4
NMSTR	75	144	4
NMSI_	75	144	4	96	96	0
NMTAP	76	0	1
NMTAP	76	48	2
NMTAP	76	96	3
NMTAP	76	144	4
NMTAP	76	192	5
NMTAP	76	240	6
NMSTR	76	288	7
NMSSR	76	288	7	96	192	3
NMSTR	78	0	3
NMSCL	78	0	3	96	384	4
NMSTR	78	0	4
NMSCR	78	0	4	96	384	3
NMTAP	79	288	3
NMTAP	79	288	4
BRTAP	80	0	0
BRTAP	80	0	7
NMTAP	80	96	2
NMTAP	80	120	3
NMTAP	80	144	2
NMTAP	80	192	5
NMTAP	80	216	4
NMTAP	80	240	5
NMTAP	80	288	1
NMTAP	80	312	3
NMTAP	80	336	1
NMTAP	81	0	6
NMTAP	81	24	4
NMTAP	81	48	6
NMTAP	81	96	1
NMTAP	81	120	3
NMTAP	81	144	2
NMHLD	81	192	6	72
NMHLD	81	264	4	72
NMTAP	81	336	5
NMTAP	82	0	4
NMTAP	82	0	5
BXTAP	82	72	1
BXTAP	82	72	7
NMTAP	82	144	2
NMTAP	82	168	3
NMTAP	82	192	2
BXTAP	82	264	0
BXTAP	82	264	6
NMTAP	82	336	5
NMTAP	82	360	4
NMTAP	83	0	5
BXTAP	83	72	0
BXTAP	83	72	1
NMTAP	83	144	2
NMTAP	83	168	3
NMTAP	83	192	2
BXTAP	83	264	6
BXTAP	83	264	7
NMTAP	83	336	0
NMTAP	83	336	5
NMTAP	84	0	6
NMTAP	84	24	7
NMTAP	84	48	6
NMTAP	84	72	7
NMTAP	84	96	6
NMTAP	84	144	1
NMTAP	84	168	0
NMTAP	84	192	1
NMTAP	84	216	0
NMTAP	84	240	1
NMSTR	84	288	0
NMSXL	84	288	0	96	192	3
NMSTR	84	288	7
NMSXR	84	288	7	96	192	4
NMTAP	85	288	3
NMTAP	85	288	4
NMTAP	86	0	1
NMTAP	86	0	6
NMTAP	86	32	1
NMTAP	86	32	6
NMTAP	86	64	1
NMTAP	86	64	6
BRTAP	86	96	1
BRSTR	86	96	6
NMSI_	86	96	6	96	48	3
NMSTR	86	192	0
NMSI_	86	192	0	96	48	5
NMSTR	86	288	2
NMSI_	86	288	2	96	48	7
NMSTR	87	0	4
NMSI_	87	0	4	96	48	1
NMSTR	87	96	6
NMSI_	87	96	6	96	48	3
NMTAP	87	192	0
NMTAP	87	240	0
NMTAP	87	288	0
NMTAP	88	0	0
NMTAP	88	0	1
NMTAP	88	48	2
NMTAP	88	48	7
NMTAP	88	144	6
NMTAP	88	144	7
NMTAP	88	192	0
NMTAP	88	192	5
NMTAP	88	288	2
NMTAP	88	288	3
NMTAP	88	336	1
NMTAP	88	336	4
NMTAP	89	48	4
NMTAP	89	48	5
NMSTR	89	96	3
NMSI_	89	96	3	96	48	0
NMSTR	89	96	6
NMSI_	89	96	6	96	48	3
NMTAP	89	288	1
NMTAP	89	288	4
NMTAP	90	0	0
NMTAP	90	24	7
NMTAP	90	48	0
NMTAP	90	72	7
BRSTR	90	96	0
NMSI_	90	96	0	96	48	5
NMSTR	90	192	7
NMSI_	90	192	7	96	48	2
NMSTR	90	288	4
NMSI_	90	288	4	96	48	1
NMSTR	91	0	3
NMSI_	91	0	3	96	48	6
NMSTR	91	96	0
NMSI_	91	96	0	96	48	5
NMTAP	91	192	7
NMTAP	91	240	7
NMTAP	91	288	7
NMTAP	92	0	6
NMTAP	92	24	7
NMTAP	92	48	6
NMTAP	92	72	7
NMTAP	92	96	6
NMTAP	92	120	7
NMTAP	92	144	6
NMTAP	92	192	0
NMTAP	92	192	5
NMTAP	92	288	1
NMTAP	92	312	0
NMTAP	92	336	1
NMTAP	92	360	0
NMTAP	93	0	1
NMTAP	93	24	0
NMTAP	93	48	1
NMTAP	93	96	2
NMTAP	93	96	7
NMTAP	93	192	6
NMTAP	93	216	5
NMTAP	93	240	4
NMTAP	93	264	3
NMTAP	93	288	2
NMTAP	93	312	1
NMTAP	93	336	0
NMTAP	93	360	7
NMTHO	94	0	0	384	C	0	M1
NMHLD	94	0	6	144
NMTTP	94	336	5	E	0	M1
NMTTP	94	360	4	E	0	M1
NMTTP	95	0	3	E	0	M1

T_REC_TAP	271
T_REC_BRK	14
T_REC_XTP	27
T_REC_BXX	9
T_REC_HLD	61
T_REC_XHO	8
T_REC_BHO	2
T_REC_BXH	0
T_REC_STR	46
T_REC_BST	7
T_REC_XST	3
T_REC_XBS	0
T_REC_TTP	45
T_REC_THO	2
T_REC_SLD	56
T_REC_BSL	2
T_REC_ALL	553
T_NUM_TAP	392
T_NUM_BRK	34
T_NUM_HLD	71
T_NUM_SLD	56
T_NUM_ALL	553
T_JUDGE_TAP	422
T_JUDGE_HLD	228
T_JUDGE_SLD	58
T_JUDGE_ALL	708
TTM_EACHPAIRS	104
TTM_SCR_TAP	196000
TTM_SCR_BRK	88400
TTM_SCR_HLD	71000
TTM_SCR_SLD	84000
TTM_SCR_ALL	439400
TTM_SCR_S	422950
TTM_SCR_SS	436000
TTM_RAT_ACV	10077

