VERSION	0.00.00	1.04.00
FES_MODE	0
BPM_DEF	163.000	163.000	163.000	163.000
MET_DEF	4	4
RESOLUTION	384
CLK_DEF	384
COMPATIBLE_CODE	MA2

BPM	0	0	163.000
MET	0	0	4	4

NMTAP	6	0	1
NMTAP	6	96	1
NMTAP	6	192	1
NMTAP	6	288	1
NMTAP	7	0	2
NMTAP	7	96	2
NMTAP	7	192	2
NMTAP	7	288	2
NMTAP	8	0	3
NMTAP	8	96	3
NMTAP	8	192	3
NMTAP	8	288	3
NMTAP	9	0	4
NMTAP	9	0	5
NMTAP	9	192	4
NMTAP	9	192	5
NMTAP	10	0	6
NMTAP	10	96	6
NMTAP	10	192	6
NMTAP	10	288	6
NMTAP	11	0	5
NMTAP	11	96	5
NMTAP	11	192	5
NMTAP	11	288	5
NMTAP	12	0	4
NMTAP	12	96	4
NMTAP	12	192	4
NMTAP	12	288	4
NMTAP	13	0	2
NMTAP	13	0	3
NMTAP	13	192	3
NMTAP	13	192	4
NMTAP	14	0	5
NMTAP	14	96	5
NMTAP	14	192	5
NMTAP	14	288	4
NMTAP	14	288	5
NMTAP	15	0	6
NMTAP	15	96	6
NMTAP	15	192	6
NMTAP	15	288	6
NMTAP	15	288	7
NMTAP	16	0	0
NMTAP	16	96	0
NMTAP	16	192	0
NMTAP	16	288	0
NMTAP	16	288	1
NMTAP	17	0	2
NMTAP	17	0	3
NMTAP	17	96	2
NMTAP	17	96	3
NMTAP	17	192	2
NMTAP	17	192	3
NMTAP	18	0	2
NMTAP	18	96	2
NMTAP	18	192	2
NMTAP	18	288	2
NMTAP	18	288	3
NMTAP	19	0	1
NMTAP	19	96	1
NMTAP	19	192	1
NMTAP	19	288	0
NMTAP	19	288	1
NMTAP	20	0	7
NMTAP	20	96	7
NMTAP	20	192	7
NMTAP	20	288	6
NMTAP	20	288	7
NMTAP	21	0	4
NMTAP	21	0	5
NMTAP	21	96	4
NMTAP	21	96	5
NMTAP	21	192	4
NMTAP	21	192	5
NMHLD	22	0	5	192
NMHLD	22	192	4	192
NMHLD	23	0	3	192
NMTAP	23	192	2
NMHLD	24	0	2	192
NMHLD	24	192	3	192
NMHLD	25	0	4	192
NMTAP	25	192	5
NMHLD	26	0	6	192
NMHLD	26	192	5	192
NMHLD	27	0	4	192
NMTAP	27	192	3
NMHLD	28	0	1	192
NMHLD	28	192	2	192
NMHLD	29	0	3	192
NMTAP	29	192	4
NMHLD	30	0	3	384
NMHLD	30	0	4	384
BXTAP	32	0	2
NMTAP	32	96	2
NMTAP	32	192	0
NMTAP	32	192	1
NMTAP	32	288	0
NMTAP	32	288	1
NMTAP	33	0	7
NMTAP	33	96	7
NMTAP	33	192	6
NMTAP	33	192	7
NMTAP	34	0	5
NMTAP	34	96	5
NMTAP	34	192	6
NMTAP	34	192	7
NMTAP	34	288	6
NMTAP	34	288	7
NMTAP	35	0	0
NMTAP	35	96	0
NMTAP	35	192	0
NMTAP	35	192	1
NMTAP	36	0	1
NMTAP	36	96	1
NMTAP	36	192	2
NMTAP	36	192	3
NMTAP	36	288	2
NMTAP	36	288	3
NMTAP	37	0	4
NMTAP	37	96	4
NMTAP	37	192	4
NMTAP	37	192	5
NMTAP	38	0	6
NMTAP	38	96	6
NMTAP	38	192	4
NMTAP	38	192	5
NMTAP	38	288	4
NMTAP	38	288	5
NMTAP	39	0	3
NMTAP	39	96	3
NMTAP	39	192	2
NMTAP	39	192	3
NMTAP	40	0	2
NMTAP	40	96	2
NMTAP	40	192	0
NMTAP	40	192	1
NMTAP	40	288	0
NMTAP	40	288	1
NMTAP	41	0	7
NMTAP	41	96	7
NMTAP	41	192	6
NMTAP	41	192	7
NMTAP	41	288	6
NMTAP	41	288	7
NMTAP	42	0	5
NMTAP	42	96	5
NMTAP	42	192	6
NMTAP	42	192	7
NMTAP	42	288	6
NMTAP	42	288	7
NMTAP	43	0	0
NMTAP	43	96	0
NMTAP	43	192	0
NMTAP	43	192	1
NMTAP	44	0	1
NMTAP	44	96	1
NMTAP	44	192	2
NMTAP	44	192	3
NMTAP	44	288	2
NMTAP	44	288	3
NMTAP	45	0	4
NMTAP	45	96	4
NMTAP	45	192	4
NMTAP	45	192	5
NMTAP	45	288	4
NMTAP	45	288	5
NMTAP	46	0	6
NMTAP	46	96	6
NMTAP	46	192	4
NMTAP	46	192	5
NMTAP	46	288	4
NMTAP	46	288	5
NMTAP	47	0	3
NMTAP	47	96	3
NMTAP	47	192	2
NMTAP	47	192	3
NMSTR	48	0	1
NMSI_	48	0	1	96	192	4
NMSTR	49	0	5
NMSI_	49	0	5	96	192	0
NMSTR	50	0	1
NMSI_	50	0	1	96	192	5
NMTAP	51	0	6
NMTAP	51	192	0
NMTAP	51	192	7
NMSTR	52	0	6
NMSCL	52	0	6	96	192	3
NMSTR	53	0	2
NMSCL	53	0	2	96	192	7
NMSTR	54	0	6
NMSI_	54	0	6	96	192	3
NMTAP	55	0	2
NMTAP	55	192	3
NMTAP	55	192	4
NMTTP	56	0	1	B	0	L1
NMTTP	56	96	2	B	0	L1
NMTTP	56	192	3	B	0	L1
NMTTP	57	0	6	B	0	L1
NMTTP	57	96	5	B	0	L1
NMTTP	57	192	4	B	0	L1
NMTTP	58	0	2	B	0	L1
NMTTP	58	96	3	B	0	L1
NMTTP	58	192	4	B	0	L1
NMTTP	58	288	5	B	0	L1
NMTTP	59	0	0	C	0	L1
BRTAP	60	0	6
NMTAP	60	96	6
NMTAP	60	192	6
NMTAP	60	192	7
NMTAP	60	288	6
NMTAP	60	288	7
NMTAP	61	0	5
NMTAP	61	96	5
NMTAP	61	192	4
NMTAP	61	192	5
NMTAP	61	288	4
NMTAP	61	288	5
NMTAP	62	0	3
NMTAP	62	96	3
NMTAP	62	192	2
NMTAP	62	192	3
NMTAP	62	288	2
NMTAP	62	288	3
NMTAP	63	0	0
NMTAP	63	0	1
NMTAP	63	96	0
NMTAP	63	96	1
NMTAP	63	192	0
NMTAP	63	192	1
NMTAP	64	0	1
NMTAP	64	96	1
NMTAP	64	192	0
NMTAP	64	192	1
NMTAP	64	288	0
NMTAP	64	288	1
NMTAP	65	0	2
NMTAP	65	96	2
NMTAP	65	192	2
NMTAP	65	192	3
NMTAP	65	288	2
NMTAP	65	288	3
NMTAP	66	0	4
NMTAP	66	96	4
NMTAP	66	192	4
NMTAP	66	192	5
NMTAP	66	288	4
NMTAP	66	288	5
NMTAP	67	0	6
NMTAP	67	0	7
NMTAP	67	96	6
NMTAP	67	96	7
NMTAP	67	192	6
NMTAP	67	192	7
NMSTR	68	0	0
NMSCR	68	0	0	96	288	3
NMSTR	68	0	7
NMSCL	68	0	7	96	288	4
NMHLD	70	0	5	192
NMTAP	70	192	4
NMTAP	71	0	4
NMTAP	71	0	5
NMTAP	71	96	4
NMTAP	71	96	5
NMTAP	71	192	4
NMTAP	71	192	5
NMHLD	72	0	6	192
NMTAP	72	192	7
NMTAP	73	0	6
NMTAP	73	0	7
NMTAP	73	96	6
NMTAP	73	96	7
NMTAP	73	192	6
NMTAP	73	192	7
NMHLD	74	0	1	192
NMTAP	74	192	0
NMTAP	75	0	0
NMTAP	75	0	1
NMTAP	75	96	0
NMTAP	75	96	1
NMTAP	75	192	0
NMTAP	75	192	1
NMHLD	76	0	2	192
NMTAP	76	192	3
NMTAP	77	0	2
NMTAP	77	0	3
NMTAP	77	96	2
NMTAP	77	96	3
NMTAP	77	192	2
NMTAP	77	192	3
NMSTR	78	0	2
NMSLL	78	0	2	96	288	4
NMTAP	79	192	3
NMTAP	79	192	4
NMTAP	80	0	2
NMTAP	80	48	2
NMTAP	80	96	2
NMTAP	80	192	0
NMTAP	80	192	1
NMTAP	80	288	0
NMTAP	80	288	1
NMTAP	81	0	7
NMTAP	81	48	7
NMTAP	81	96	7
NMTAP	81	192	6
NMTAP	81	192	7
NMTAP	82	0	5
NMTAP	82	48	5
NMTAP	82	96	5
NMTAP	82	192	6
NMTAP	82	192	7
NMTAP	82	288	6
NMTAP	82	288	7
NMTAP	83	0	0
NMTAP	83	48	0
NMTAP	83	96	0
NMTAP	83	192	0
NMTAP	83	192	1
NMTAP	84	0	1
NMTAP	84	48	1
NMTAP	84	96	1
NMTAP	84	192	2
NMTAP	84	240	2
NMTAP	84	288	2
NMTAP	85	0	3
NMTAP	85	48	3
NMTAP	85	96	3
NMTAP	85	192	3
NMTAP	85	192	4
NMTAP	86	0	5
NMTAP	86	48	5
NMTAP	86	96	5
NMTAP	86	192	6
NMTAP	86	192	7
NMTAP	86	288	6
NMTAP	86	288	7
NMTAP	87	0	0
NMTAP	87	48	0
NMTAP	87	96	0
NMTAP	87	192	0
NMTAP	87	192	1
NMTAP	87	288	0
NMTAP	87	288	1
NMTAP	88	0	2
NMTAP	88	48	2
NMTAP	88	96	2
NMTAP	88	192	0
NMTAP	88	192	1
NMTAP	88	288	0
NMTAP	88	288	1
NMTAP	89	0	7
NMTAP	89	48	7
NMTAP	89	96	7
NMTAP	89	192	6
NMTAP	89	192	7
NMTAP	90	0	6
NMTAP	90	48	6
NMTAP	90	96	6
NMTAP	90	192	4
NMTAP	90	192	5
NMTAP	90	288	4
NMTAP	90	288	5
NMTAP	91	0	3
NMTAP	91	48	3
NMTAP	91	96	3
NMTAP	91	192	2
NMTAP	91	192	3
NMTAP	91	288	2
NMTAP	91	288	3
NMTAP	92	0	1
NMTAP	92	48	1
NMTAP	92	96	1
NMTAP	92	192	2
NMTAP	92	192	3
NMTAP	92	288	2
NMTAP	92	288	3
NMTAP	93	0	4
NMTAP	93	48	4
NMTAP	93	96	4
NMTAP	93	192	4
NMTAP	93	192	5
NMTAP	93	288	4
NMTAP	93	288	5
NMHLD	94	0	3	384
NMHLD	94	0	6	384

T_REC_TAP	333
T_REC_BRK	1
T_REC_XTP	0
T_REC_BXX	1
T_REC_HLD	20
T_REC_XHO	0
T_REC_BHO	0
T_REC_BXH	0
T_REC_STR	9
T_REC_BST	0
T_REC_XST	0
T_REC_XBS	0
T_REC_TTP	11
T_REC_THO	0
T_REC_SLD	9
T_REC_BSL	0
T_REC_ALL	384
T_NUM_TAP	353
T_NUM_BRK	2
T_NUM_HLD	20
T_NUM_SLD	9
T_NUM_ALL	384
T_JUDGE_TAP	355
T_JUDGE_HLD	96
T_JUDGE_SLD	9
T_JUDGE_ALL	460
TTM_EACHPAIRS	100
TTM_SCR_TAP	176500
TTM_SCR_BRK	5200
TTM_SCR_HLD	20000
TTM_SCR_SLD	13500
TTM_SCR_ALL	215200
TTM_SCR_S	208550
TTM_SCR_SS	215000
TTM_RAT_ACV	10009

