VERSION	0.00.00	1.04.00
FES_MODE	0
BPM_DEF	178.000	178.000	178.000	178.000
MET_DEF	4	4
RESOLUTION	384
CLK_DEF	384
COMPATIBLE_CODE	MA2

BPM	0	0	178.000
MET	0	0	4	4

NMTTP	2	0	4	E	0	M1
NMTTP	2	24	3	E	0	M1
NMTTP	2	48	2	E	0	M1
NMTTP	3	0	6	E	0	M1
NMTTP	3	24	5	E	0	M1
NMTTP	3	48	4	E	0	M1
NMTTP	4	0	2	A	0	M1
NMTTP	4	96	3	A	0	M1
NMTTP	4	192	5	A	0	M1
NMTTP	4	288	4	A	0	M1
NMTTP	5	0	0	C	0	M1
NMTTP	5	192	2	B	0	M1
NMTTP	5	192	5	B	0	M1
NMTAP	6	0	3
NMTAP	6	0	4
NMTAP	6	192	3
NMTAP	6	288	2
NMHLD	6	336	2	192
NMTAP	7	144	3
NMTAP	7	288	4
NMTAP	8	0	4
NMTAP	8	144	5
NMHLD	8	288	1	480
NMHLD	8	288	6	480
EXTAP	10	144	0
EXTAP	10	168	7
EXTAP	10	192	0
EXTAP	10	216	7
EXTAP	10	240	0
EXTAP	10	264	7
EXTAP	10	288	0
EXTAP	10	312	7
EXTAP	10	336	0
EXTAP	10	360	7
EXTAP	11	0	1
EXSTR	11	72	0
BRSCL	11	72	0	96	120	2
EXTAP	11	72	2
NMTTP	11	144	0	C	1	M1
NMTAP	11	240	1
NMTAP	11	288	1
EXTAP	12	0	6
EXTAP	12	72	5
EXSTR	12	72	7
BRSCR	12	72	7	96	120	5
NMTTP	12	144	0	C	1	M1
NMTAP	12	240	6
NMTAP	12	288	6
EXTAP	13	0	0
EXTAP	13	0	6
EXSTR	13	72	0
BRSCR	13	72	0	96	120	6
EXTAP	13	72	2
NMTTP	13	144	0	C	1	M1
NMTAP	13	240	7
NMTAP	13	288	7
EXTAP	14	0	1
EXTAP	14	0	7
EXTAP	14	72	5
EXSTR	14	72	7
BRSCL	14	72	7	96	120	1
NMTTP	14	144	0	C	1	M1
NMTAP	14	240	0
NMTAP	14	288	0
NMSTR	15	0	7
NMSCR	15	0	7	96	48	2
NMTAP	15	48	6
NMTAP	15	96	5
NMTAP	15	144	4
NMSTR	15	192	3
NMSCR	15	192	3	96	48	6
NMTAP	15	240	2
NMTAP	15	288	1
NMTAP	15	336	0
NMTAP	16	0	0
NMTAP	16	0	7
NMTAP	16	72	2
NMTAP	16	96	3
NMTAP	16	144	4
NMTAP	16	144	5
NMTAP	16	216	6
NMTAP	16	240	7
NMTAP	16	288	0
NMTAP	16	288	5
NMTAP	16	336	1
NMTAP	16	336	4
NMTAP	17	0	2
NMTAP	17	0	3
NMSTR	17	48	1
NMSI_	17	48	1	96	48	4
NMSTR	17	48	5
NMSI_	17	48	5	96	48	1
NMTAP	17	144	1
NMTAP	17	144	5
NMTAP	17	240	0
NMTAP	17	288	7
NMSTR	17	336	2
NMSI_	17	336	2	96	48	6
NMSTR	17	336	6
NMSI_	17	336	6	96	48	3
NMTAP	18	48	2
NMTAP	18	48	6
NMTAP	18	144	7
NMSTR	18	192	1
NMSI_	18	192	1	96	48	4
NMSTR	18	192	4
NMSI_	18	192	4	96	48	7
NMTAP	18	288	1
NMTAP	18	288	4
NMTAP	19	0	2
NMTAP	19	0	6
NMTAP	19	48	2
NMHLD	19	48	6	1056
NMTTP	19	192	4	E	0	M1
NMTTP	19	288	5	E	0	M1
NMTTP	20	0	6	E	0	M1
NMTTP	20	96	7	E	0	M1
NMTTP	20	192	0	E	0	M1
NMTTP	20	288	1	E	0	M1
NMTTP	21	0	2	E	0	M1
NMTTP	21	96	3	E	0	M1
NMTTP	21	192	4	E	0	M1
NMTAP	21	288	4
NMSTR	21	336	4
NMSV_	21	336	4	96	48	7
NMTAP	22	48	5
NMSTR	22	144	5
NMSCL	22	144	5	96	48	2
NMTAP	22	240	0
NMTAP	22	288	0
NMTAP	23	0	1
NMTAP	23	0	3
NMHLD	23	48	1	864
NMTAP	23	48	3
NMTTP	23	192	2	E	0	M1
NMTTP	23	288	1	E	0	M1
NMTTP	24	0	0	E	0	M1
NMTTP	24	96	7	E	0	M1
NMTTP	24	192	6	E	0	M1
NMTTP	24	288	5	E	0	M1
NMTAP	25	0	3
NMSTR	25	48	3
NMSV_	25	48	3	96	48	0
NMTAP	25	144	3
NMTAP	25	240	2
NMTAP	25	288	1
NMSTR	25	336	2
NMSCR	25	336	2	96	48	5
NMTAP	26	48	0
NMTAP	26	96	7
NMTAP	26	144	6
NMTAP	26	240	3
NMTAP	26	240	5
NMTAP	26	288	3
NMTAP	26	288	5
NMSTR	27	0	2
NMSI_	27	0	2	96	72	6
NMTAP	27	48	2
NMTAP	27	144	3
CNSI_	27	168	6	0	48	0
NMTAP	27	192	3
CNSI_	27	216	0	0	72	4
NMTAP	27	288	5
NMSTR	28	0	6
NMSI_	28	0	6	96	72	2
NMTAP	28	48	6
NMTAP	28	144	7
CNSI_	28	168	2	0	48	4
NMTAP	28	192	7
CNSI_	28	216	4	0	72	0
NMTAP	28	288	1
NMSTR	29	0	2
NMSI_	29	0	2	96	72	6
NMTAP	29	48	2
NMTAP	29	144	1
CNSI_	29	168	6	0	48	4
NMTAP	29	192	1
CNSI_	29	216	4	0	72	0
NMTAP	29	288	7
NMTAP	30	0	6
NMTAP	30	48	6
NMTAP	30	48	7
NMTAP	30	144	2
NMTAP	30	144	3
NMTAP	30	240	4
NMTAP	30	240	5
NMTAP	30	288	4
NMTAP	30	288	5
NMSTR	31	0	1
NMSI_	31	0	1	96	72	5
NMTAP	31	0	4
NMTAP	31	48	1
NMTAP	31	48	4
NMTAP	31	144	0
CNSI_	31	168	5	0	48	3
NMTAP	31	192	0
CNSI_	31	216	3	0	72	7
NMTAP	31	288	6
NMTAP	32	0	5
NMSTR	32	48	5
NMSCL	32	48	5	96	72	1
NMSTR	32	48	6
NMSUL	32	48	6	96	72	1
NMTAP	32	144	5
NMTAP	32	144	6
NMTAP	32	288	7
NMTAP	32	312	0
NMTAP	32	336	7
NMTAP	33	0	0
NMTAP	33	0	6
NMTAP	33	48	4
NMTAP	33	96	2
NMTAP	33	96	3
NMTAP	33	144	1
NMTAP	33	168	1
NMTAP	33	192	0
NMTAP	33	240	7
NMTAP	33	288	3
NMTAP	33	288	6
NMTAP	33	336	2
NMTAP	33	336	5
NMTAP	34	0	1
NMTAP	34	0	4
NMTAP	34	48	0
NMTAP	34	72	3
NMTAP	34	96	1
NMTAP	34	120	3
NMSTR	34	144	2
NMSXL	34	144	2	96	144	7
NMTTP	34	240	3	B	0	M1
NMTTP	34	240	4	B	0	M1
NMTTP	34	240	4	E	1	M1
NMHLD	35	0	6	96
NMTAP	35	192	7
NMTAP	35	240	7
NMTAP	35	288	5
NMTAP	35	336	5
NMSTR	36	0	3
NMSCL	36	0	3	96	96	0
NMSTR	36	96	0
NMSCL	36	96	0	96	96	5
NMSTR	36	192	5
NMSCL	36	192	5	96	96	2
NMTAP	36	288	2
NMTAP	37	0	7
NMTAP	37	96	0
NMTAP	37	96	6
NMTAP	37	192	1
NMTAP	37	240	1
NMTAP	37	288	3
NMTAP	37	336	3
NMSTR	38	0	4
NMSI_	38	0	4	96	48	0
NMTAP	38	96	5
NMTAP	38	144	5
NMTAP	38	240	6
NMTAP	38	240	7
NMTAP	38	288	6
NMTAP	38	288	7
NMHLD	39	0	1	288
NMHLD	39	144	3	144
NMHLD	40	0	5	288
NMHLD	40	144	4	144
NMTAP	41	0	3
NMTAP	41	0	6
NMTAP	41	48	3
NMTAP	41	48	6
NMTAP	41	96	3
NMTAP	41	96	6
NMTAP	41	144	3
NMTAP	41	144	6
NMTAP	41	192	2
NMTAP	41	192	5
NMTAP	41	240	2
NMTAP	41	240	5
NMTAP	41	288	2
NMTAP	41	288	5
NMTAP	41	336	2
NMTAP	41	336	5
NMTAP	42	0	3
NMTAP	42	0	4
NMTAP	42	48	3
NMTAP	42	48	4
NMSTR	42	96	2
NMSUR	42	96	2	96	192	3
NMSTR	42	96	3
NMSUR	42	96	3	96	192	4
NMTAP	42	144	2
NMTAP	42	144	3
NMSTR	43	96	1
BRSI_	43	96	1	96	48	5
NMTTP	43	192	0	C	1	M1
BRTAP	43	192	1
NMTAP	43	264	6
NMSTR	43	288	7
BRSI_	43	288	7	96	48	3
NMTAP	43	336	1
BRTAP	44	0	7
NMTAP	44	48	0
NMTAP	44	72	1
NMTAP	44	96	2
NMTAP	44	120	5
NMTAP	44	144	6
NMTAP	44	168	7
BRTAP	44	192	4
NMTAP	44	264	1
NMSTR	44	288	0
BRSI_	44	288	0	96	48	5
NMTAP	44	336	6
BRTAP	45	0	0
NMTAP	45	72	4
NMSTR	45	96	3
BRSUR	45	96	3	96	48	7
NMTAP	45	144	1
BRTAP	45	192	3
NMTAP	45	264	1
NMSTR	45	288	0
BRSUR	45	288	0	96	48	5
NMTAP	45	336	5
BRTAP	46	0	0
NMTAP	46	72	6
NMSTR	46	96	7
BRSI_	46	96	7	96	48	3
NMTAP	46	144	1
BRTAP	46	192	7
NMTAP	46	288	2
NMTAP	46	288	4
NMTAP	47	0	3
NMTAP	47	0	6
NMTAP	47	72	4
NMSTR	47	96	5
NMSCL	47	96	5	96	48	2
NMTAP	47	144	6
NMTAP	47	192	6
NMTAP	47	264	0
NMSTR	47	288	1
NMSCL	47	288	1	96	48	6
NMTAP	47	336	2
NMTAP	48	0	2
NMTAP	48	72	4
NMTAP	48	96	5
NMTAP	48	144	2
BRTAP	48	192	1
BRTAP	48	192	3
BRTAP	48	264	0
BRTAP	48	264	2
BRTAP	48	336	3
BRTAP	48	336	6
NMTAP	49	0	4
NMTAP	49	48	5
NMTAP	49	96	4
NMTAP	49	96	6
NMHLD	49	144	7	96
NMSTR	49	240	5
NMSUL	49	240	5	96	96	0
NMTAP	49	288	5
NMSTR	49	336	0
NMSCR	49	336	0	96	96	4
NMSTR	50	48	4
NMSCR	50	48	4	96	96	0
NMTAP	50	144	0
NMTTP	50	240	1	D	0	M1
NMTTP	50	264	2	D	0	M1
NMTTP	50	288	3	D	0	M1
NMTTP	50	312	4	D	0	M1
NMTTP	50	336	5	D	0	M1
NMHLD	51	0	6	72
NMHLD	51	72	7	72
NMTAP	51	144	5
NMHLD	51	192	5	96
NMTTP	51	288	6	B	0	M1
NMTTP	51	288	6	E	0	M1
NMHLD	52	0	1	72
NMHLD	52	72	3	72
NMTAP	52	144	2
NMHLD	52	192	2	96
NMTTP	52	288	2	B	0	M1
NMTTP	52	288	2	E	0	M1
NMHLD	53	0	0	72
NMHLD	53	72	1	72
NMTAP	53	144	7
NMHLD	53	192	7	96
NMTTP	53	288	0	E	0	M1
NMTTP	53	288	7	B	0	M1
NMHLD	54	0	4	72
NMTAP	54	72	5
NMHLD	54	144	3	96
NMHLD	54	144	6	96
NMTAP	54	288	3
NMTAP	54	312	4
NMTAP	54	336	3
NMTAP	55	0	2
NMTAP	55	0	5
NMTAP	55	48	1
NMTAP	55	96	0
NMTAP	55	96	7
NMTAP	55	144	6
NMTAP	55	192	3
NMTAP	55	192	5
NMTAP	55	240	2
NMTAP	55	240	4
NMTAP	55	288	1
NMTAP	55	288	3
NMSTR	55	336	0
NMSCR	55	336	0	96	48	3
EXTAP	55	336	2
NMSTR	56	48	0
NMSCL	56	48	0	96	48	5
EXTAP	56	48	6
NMTAP	56	144	0
EXTAP	56	144	2
NMTAP	56	240	3
NMTAP	56	264	4
NMTAP	56	288	2
NMTAP	56	312	3
NMTAP	56	336	1
NMTAP	57	0	0
NMTAP	57	0	7
NMTAP	57	72	6
NMTAP	57	96	7
NMTAP	57	144	4
NMTAP	57	144	5
NMTAP	57	216	2
NMSTR	57	240	3
NMSXL	57	240	3	96	48	5
NMTAP	57	288	1
EXTAP	57	336	1
NMSTR	57	336	3
NMSXR	57	336	3	96	48	1
NMSTR	58	48	3
NMSI_	58	48	3	96	48	7
EXTAP	58	48	4
EXTAP	58	144	2
NMTAP	58	144	3
NMTAP	58	240	6
NMTAP	58	264	7
NMTAP	58	288	0
NMTAP	58	288	5
NMSTR	59	0	1
NMSI_	59	0	1	96	48	3
NMTAP	59	48	5
NMTAP	59	96	1
NMTAP	59	144	7
NMTAP	59	168	7
NMSTR	59	192	4
NMSI_	59	192	4	96	48	0
NMTAP	59	240	6
NMTAP	59	288	4
NMTAP	59	336	5
NMSTR	60	0	1
NMSI_	60	0	1	96	48	5
NMTAP	60	48	4
NMTAP	60	96	1
NMTAP	60	144	3
NMTAP	60	168	3
NMSTR	60	192	6
NMSI_	60	192	6	96	48	0
NMTAP	60	240	4
NMTAP	60	288	6
NMTAP	60	336	5
NMSTR	61	0	5
NMSI_	61	0	5	96	48	3
NMTAP	61	48	1
NMTAP	61	96	5
NMTAP	61	144	7
NMTAP	61	168	7
NMSTR	61	192	2
NMSI_	61	192	2	96	48	6
NMTAP	61	240	0
NMTAP	61	288	2
NMTAP	61	336	1
NMSTR	62	0	7
NMSI_	62	0	7	96	48	2
NMHLD	62	96	3	96
NMTAP	62	96	7
NMTAP	62	192	1
NMTAP	62	216	3
NMTAP	62	240	0
NMTAP	62	264	2
NMTAP	62	288	7
NMTAP	62	312	1
NMTAP	62	336	6
NMTAP	62	360	0
NMHLD	63	0	5	72
NMHLD	63	72	4	72
NMHLD	63	144	3	96
NMTAP	63	240	4
NMTAP	63	288	4
NMTAP	63	336	3
NMHLD	64	0	2	72
NMHLD	64	72	3	72
NMHLD	64	144	4	96
NMTAP	64	240	5
NMTAP	64	288	3
NMTAP	64	288	6
NMTAP	64	336	2
NMHLD	65	0	1	72
NMTAP	65	0	3
NMTTP	65	72	0	A	0	M1
NMTTP	65	72	1	E	0	M1
NMHLD	65	144	5	192
NMTAP	65	240	6
NMTAP	65	288	4
NMTAP	65	336	3
NMTAP	66	48	1
NMTTP	66	48	4	B	0	M1
NMTTP	66	48	5	E	0	M1
NMTTP	66	144	3	B	0	M1
NMTTP	66	144	3	A	0	M1
NMTAP	66	144	6
NMTAP	66	240	1
NMTAP	66	264	1
NMTAP	66	288	0
NMTAP	66	336	2
NMTAP	67	0	3
NMTAP	67	0	7
NMTAP	67	48	4
NMTAP	67	72	5
NMTAP	67	96	4
NMHLD	67	144	6	48
NMTAP	67	192	7
NMTAP	67	216	0
NMHLD	67	240	1	48
NMTAP	67	288	3
NMTAP	67	336	3
NMTAP	68	0	0
NMTAP	68	0	4
NMTAP	68	48	3
NMTAP	68	72	2
NMTAP	68	96	3
NMHLD	68	144	1	48
NMTAP	68	192	0
NMTAP	68	216	7
NMHLD	68	240	6	48
NMTAP	68	288	4
NMTAP	68	336	4
NMTAP	69	0	3
NMTAP	69	0	7
NMTAP	69	48	0
NMTAP	69	72	1
NMTAP	69	96	0
NMHLD	69	144	2	48
NMTAP	69	192	3
NMTAP	69	216	4
NMHLD	69	240	5	48
NMSTR	69	288	7
NMSI_	69	288	7	96	48	3
NMTAP	69	336	0
NMSTR	70	0	1
NMSI_	70	0	1	96	48	4
NMTAP	70	0	7
NMTAP	70	48	2
NMTAP	70	96	1
NMSTR	70	96	5
NMSI_	70	96	5	96	48	0
NMTAP	70	144	6
NMSTR	70	192	3
NMSI_	70	192	3	96	48	6
NMTAP	70	192	5
NMTAP	70	240	2
NMTAP	70	288	3
NMSTR	70	288	7
NMSI_	70	288	7	96	96	2
NMHLD	71	0	2	384
CNSI_	71	96	2	0	48	6
CNSI_	71	144	6	0	48	4
NMTAP	71	240	3
NMTAP	71	288	3
NMHLD	72	0	1	72
NMHLD	72	72	2	72
NMHLD	72	144	3	48
NMHLD	72	192	6	72
NMSTR	72	264	5
NMSLL	72	264	5	96	96	7
NMTAP	72	336	4
NMHLD	73	0	3	384
CNSI_	73	72	7	0	120	2
NMTAP	73	240	1
NMTAP	73	288	1
NMHLD	74	0	2	72
NMHLD	74	72	3	72
NMHLD	74	144	4	96
NMTAP	74	240	5
NMTAP	74	264	4
NMSTR	74	288	6
NMSI_	74	288	6	96	24	2
NMSTR	75	0	0
NMSUL	75	0	0	96	528	4
NMSUR	75	0	0	96	528	4
NMTTP	75	12	0	C	1	M1
CNSXL	76	240	4	0	720	5
CNSXR	76	240	4	0	720	3
NMTAP	79	0	5
NMTAP	79	48	4
NMTAP	79	96	3
NMTAP	79	144	2
NMTAP	79	240	4
NMTAP	79	288	4
NMTAP	79	336	3
NMTAP	80	48	2
NMTAP	80	96	2
NMTAP	80	144	3
NMTAP	80	240	4
NMTAP	80	288	3
NMTAP	80	288	5
NMTAP	81	0	2
NMTAP	81	48	3
NMTAP	81	96	4
NMHLD	81	144	5	96
NMTAP	81	240	4
NMTAP	81	288	3
NMTAP	81	288	5
NMTAP	82	0	3
NMTAP	82	24	4
NMTAP	82	48	3
NMTAP	82	72	4
NMTAP	82	96	3
NMTAP	82	120	4
NMTAP	82	144	3
NMTAP	82	192	4
NMTAP	82	192	6
NMTAP	82	264	1
NMTAP	82	264	3
NMTAP	82	336	3
NMTAP	82	336	4
NMSTR	83	0	1
NMSV_	83	0	1	96	48	4
NMSTR	83	0	5
NMSV_	83	0	5	96	48	0
NMTTP	83	96	1	A	1	M1
NMTTP	83	96	5	A	0	M1
NMSTR	83	192	7
NMSI_	83	192	7	96	48	3
NMSTR	83	240	6
NMSI_	83	240	6	96	48	2
NMTAP	83	288	7
NMTAP	83	336	6
NMTAP	84	0	0
NMTAP	84	24	1
EXTAP	84	48	2
NMTAP	84	72	3
NMTAP	84	96	4
NMTAP	84	120	5
NMTAP	84	144	6
NMTAP	84	144	7
NMTAP	84	240	1
NMTAP	84	264	0
NMTAP	84	288	2
NMTAP	84	312	7
NMTAP	84	336	3
NMTAP	84	360	6
NMSTR	85	0	4
NMSI_	85	0	4	96	48	1
NMTAP	85	48	7
NMTAP	85	72	7
NMTAP	85	96	4
NMTAP	85	144	5
NMTAP	85	168	5
NMSTR	85	192	0
NMSI_	85	192	0	96	48	5
NMTAP	85	240	4
NMTAP	85	264	4
NMTAP	85	288	0
NMTAP	85	336	3
NMSTR	86	0	4
NMSI_	86	0	4	96	48	0
NMTAP	86	48	5
NMSTR	86	96	2
NMSI_	86	96	2	96	48	6
NMTAP	86	96	4
NMTAP	86	144	3
NMTAP	86	192	2
NMTAP	86	192	7
NMTAP	86	288	1
NMTAP	86	288	5
NMTAP	87	0	0
NMTAP	87	24	1
NMTAP	87	48	2
NMSTR	87	72	3
NMSV_	87	72	3	96	48	2
NMTAP	87	144	7
NMTAP	87	168	6
NMTAP	87	192	5
NMSTR	87	216	4
NMSV_	87	216	4	96	48	6
NMTAP	87	288	0
NMTAP	87	312	1
NMTAP	87	336	2
NMTAP	87	360	3
NMSTR	88	0	4
NMSLL	88	0	4	96	96	0
NMTAP	88	96	7
NMTAP	88	120	6
NMTAP	88	144	5
NMTAP	88	168	4
NMSTR	88	192	3
NMSLR	88	192	3	96	96	7
NMTAP	88	288	0
NMTAP	88	312	1
NMTAP	88	336	2
NMTAP	88	360	3
NMSTR	89	0	4
NMSLL	89	0	4	96	96	0
NMTAP	89	96	7
NMTAP	89	120	6
NMTAP	89	144	5
NMTAP	89	168	4
NMSTR	89	192	3
NMSCL	89	192	3	96	96	7
NMTAP	89	192	7
NMTAP	89	216	6
NMTAP	89	240	5
NMTAP	89	264	4
NMTAP	89	288	3
NMTAP	89	288	7
NMTAP	89	312	6
NMTAP	89	336	5
NMTAP	89	360	4
NMSTR	90	0	3
NMSV_	90	0	3	96	48	5
NMTAP	90	72	0
NMTAP	90	144	2
CNSI_	90	144	5	0	48	7
NMTAP	90	192	2
NMHLD	90	288	0	48
NMTAP	90	348	1
NMTAP	90	348	7
NMTAP	90	360	2
NMTAP	90	360	6
NMTAP	90	372	3
NMTAP	90	372	5
BRTAP	91	0	4
NMTTP	92	192	6	D	0	M1
NMTTP	93	0	7	D	0	M1
NMTTP	93	192	0	D	0	M1
NMTTP	94	0	1	D	0	M1
NMTTP	94	192	2	D	0	M1
NMTTP	95	0	3	A	0	M1
NMTTP	95	0	4	A	0	M1
NMTTP	95	192	2	E	0	M1
NMTTP	95	288	3	B	0	M1
NMTTP	95	336	4	B	0	M1
NMTTP	96	96	6	E	0	M1
NMTTP	96	192	5	D	0	M1
NMTTP	96	288	4	D	0	M1
NMTTP	97	0	3	D	0	M1
NMTTP	97	288	0	C	0	M1

T_REC_TAP	421
T_REC_BRK	14
T_REC_XTP	27
T_REC_BXX	0
T_REC_HLD	49
T_REC_XHO	0
T_REC_BHO	0
T_REC_BXH	0
T_REC_STR	71
T_REC_BST	0
T_REC_XST	4
T_REC_XBS	0
T_REC_TTP	71
T_REC_THO	0
T_REC_SLD	66
T_REC_BSL	10
T_REC_ALL	733
T_NUM_TAP	594
T_NUM_BRK	24
T_NUM_HLD	49
T_NUM_SLD	66
T_NUM_ALL	733
T_JUDGE_TAP	608
T_JUDGE_HLD	168
T_JUDGE_SLD	76
T_JUDGE_ALL	852
TTM_EACHPAIRS	99
TTM_SCR_TAP	297000
TTM_SCR_BRK	62400
TTM_SCR_HLD	49000
TTM_SCR_SLD	99000
TTM_SCR_ALL	507400
TTM_SCR_S	489850
TTM_SCR_SS	505000
TTM_RAT_ACV	10047

