VERSION	0.00.00	1.04.00
FES_MODE	0
BPM_DEF	178.000	178.000	178.000	178.000
MET_DEF	4	4
RESOLUTION	384
CLK_DEF	384
COMPATIBLE_CODE	MA2

BPM	0	0	178.000
MET	0	0	4	4

NMTAP	2	0	3
NMHLD	2	0	5	1152
NMTAP	3	0	4
NMTAP	4	0	4
NMTAP	4	192	3
NMHLD	5	0	2	1536
NMTAP	6	0	4
NMTAP	7	0	3
NMTAP	8	0	3
NMTAP	8	192	4
NMHLD	9	0	5	384
NMTAP	9	192	4
NMSTR	10	0	6
NMSCR	10	0	6	96	192	1
NMHLD	11	0	6	72
NMHLD	11	72	4	72
NMTAP	11	144	5
NMTAP	11	288	0
NMTAP	11	288	7
NMHLD	12	0	1	72
NMHLD	12	72	3	72
NMTAP	12	144	2
NMTAP	12	288	0
NMTAP	12	288	7
NMHLD	13	0	1	72
NMHLD	13	72	2	72
NMTAP	13	144	3
NMTAP	13	288	1
NMTAP	13	288	7
NMHLD	14	0	6	72
NMHLD	14	72	5	72
NMTAP	14	144	4
BRTAP	14	288	0
BRTAP	14	288	6
NMTAP	15	0	7
NMTAP	15	96	4
NMTAP	15	96	6
NMTAP	15	192	1
NMTAP	15	240	1
NMTAP	15	288	3
NMTAP	16	0	0
NMTAP	16	96	1
NMTAP	16	96	3
NMTAP	16	192	6
NMTAP	16	240	6
NMTAP	16	288	4
NMTAP	17	0	4
NMTAP	17	0	5
NMSTR	17	48	4
NMSUR	17	48	4	96	144	0
NMHLD	17	48	5	240
NMTAP	18	0	2
NMTAP	18	0	3
NMHLD	18	48	2	240
NMSTR	18	48	3
NMSUL	18	48	3	96	144	7
NMTAP	19	0	4
NMTAP	19	0	5
NMTAP	19	48	4
NMHLD	19	48	5	1008
NMHLD	19	192	6	96
NMHLD	20	0	7	96
NMHLD	20	192	6	96
NMHLD	21	0	4	96
NMHLD	21	192	7	96
NMTAP	21	336	5
NMTAP	21	336	7
NMHLD	22	48	0	96
NMTAP	22	144	7
NMTAP	22	240	1
NMTAP	22	240	3
NMTAP	22	288	1
NMTAP	22	288	3
NMTAP	23	0	2
NMTAP	23	0	3
NMHLD	23	48	2	720
NMTAP	23	48	3
NMHLD	23	192	1	96
NMHLD	24	0	0	96
NMHLD	24	192	1	96
NMTAP	25	0	3
NMTAP	25	48	3
NMTAP	25	144	2
NMTAP	25	144	3
NMSTR	25	240	0
NMSI_	25	240	0	96	96	4
NMSTR	25	240	1
NMSI_	25	240	1	96	96	3
NMTAP	26	144	3
NMTAP	26	144	5
NMTAP	26	240	2
NMTAP	26	240	6
NMTAP	26	288	2
NMTAP	26	288	6
NMTAP	27	0	1
NMTAP	27	0	7
NMSTR	27	48	1
NMSCR	27	48	1	96	144	5
NMHLD	27	48	7	240
NMTAP	28	0	0
NMTAP	28	0	6
NMHLD	28	48	0	240
NMSTR	28	48	6
NMSCL	28	48	6	96	144	2
NMTAP	29	0	1
NMTAP	29	0	7
NMSTR	29	48	1
NMSCR	29	48	1	96	144	5
NMHLD	29	48	7	240
NMHLD	30	0	4	96
NMHLD	30	0	6	96
NMHLD	30	192	1	96
NMHLD	30	192	3	96
NMTAP	31	0	2
NMTAP	31	0	4
NMSTR	31	48	2
NMSCL	31	48	2	96	144	6
NMHLD	31	48	4	240
NMTAP	32	0	3
NMTAP	32	0	5
NMTAP	32	48	3
NMTAP	32	48	5
NMTAP	32	144	1
NMTAP	32	144	7
BRTAP	32	240	2
BRTAP	32	240	6
NMTAP	32	288	2
NMTAP	32	288	6
NMTAP	33	0	4
NMTAP	33	0	5
NMTAP	33	96	6
NMTAP	33	96	7
NMTAP	33	192	0
NMTAP	33	192	1
NMSTR	33	288	2
NMSCL	33	288	2	96	96	0
NMTAP	33	288	3
CNSI_	34	96	0	0	96	4
BXTAP	34	240	6
EXHLD	34	288	6	768
NMTTP	35	0	1	E	0	M1
NMTTP	35	96	0	E	0	M1
NMTTP	35	192	7	E	0	M1
NMTTP	35	288	6	E	0	M1
NMTTP	36	0	5	E	0	M1
NMTTP	36	96	4	E	0	M1
NMTTP	36	192	3	E	0	M1
NMHLD	36	288	1	672
NMTTP	37	0	2	B	0	M1
NMTTP	37	96	3	B	0	M1
NMTTP	37	192	4	B	0	M1
NMTTP	37	288	5	B	0	M1
NMTTP	38	0	6	B	0	M1
NMTTP	38	96	7	B	0	M1
NMTHO	38	192	0	192	C	1	M1
BXTAP	40	240	0
BXTAP	40	240	7
BXTAP	40	288	0
BXTAP	40	288	7
NMTAP	41	0	6
NMTAP	41	48	6
NMTAP	41	96	4
NMTAP	41	144	5
NMTAP	41	192	1
NMTAP	41	240	1
NMTAP	41	288	3
NMTAP	41	336	2
NMTAP	42	0	6
NMTAP	42	48	6
NMSTR	42	96	4
NMSXL	42	96	4	96	240	7
NMSXR	42	96	4	96	240	1
NMHLD	43	192	1	72
NMTAP	43	264	0
NMTAP	43	336	2
NMTAP	43	336	7
NMHLD	44	0	6	72
NMTAP	44	72	7
NMTAP	44	144	0
NMTAP	44	144	5
NMHLD	44	192	2	72
NMTAP	44	264	3
NMTAP	44	336	1
NMTAP	44	336	4
NMHLD	45	0	0	72
NMTAP	45	72	7
NMTAP	45	144	1
NMTAP	45	144	6
NMHLD	45	192	5	72
NMTAP	45	264	4
NMTAP	45	336	3
NMTAP	45	336	6
NMHLD	46	0	7	72
NMTAP	46	72	0
NMTAP	46	144	1
NMTAP	46	144	6
NMHLD	46	192	2	72
NMTAP	46	264	3
NMTAP	46	336	3
NMTAP	46	336	4
NMHLD	47	0	5	72
NMHLD	47	72	6	72
NMTAP	47	144	7
NMHLD	47	192	0	72
NMHLD	47	264	1	72
NMTAP	47	336	2
NMHLD	48	0	2	72
NMHLD	48	72	1	72
NMTAP	48	144	0
NMHLD	48	192	7	72
NMHLD	48	264	6	72
NMTAP	48	336	5
NMTAP	49	0	5
NMTAP	49	96	6
NMTAP	49	144	7
NMTAP	49	192	0
NMTAP	49	240	1
NMTAP	49	336	2
NMTAP	49	336	3
NMTAP	50	48	0
NMTAP	50	48	1
NMTAP	50	144	6
NMTAP	50	144	7
NMTAP	50	240	4
NMTAP	50	240	5
EXTAP	50	288	4
EXTAP	50	288	5
NMHLD	51	0	7	72
NMHLD	51	72	5	72
NMSTR	51	144	4
NMSI_	51	144	4	96	48	7
NMHLD	52	0	0	72
NMHLD	52	72	2	72
NMSTR	52	144	3
NMSI_	52	144	3	96	48	0
NMHLD	53	0	7	72
NMHLD	53	72	5	72
NMSTR	53	144	4
NMSV_	53	144	4	96	48	7
NMHLD	54	0	0	72
NMHLD	54	72	2	72
NMSTR	54	144	3
NMSV_	54	144	3	96	48	0
NMTAP	55	0	6
NMTAP	55	48	6
NMTAP	55	96	4
NMTAP	55	144	4
NMTAP	55	192	7
NMTAP	55	240	7
NMTAP	55	288	1
NMTAP	55	336	1
NMTAP	56	0	3
NMTAP	56	48	3
NMTAP	56	96	0
NMTAP	56	144	0
NMTAP	56	192	6
NMTAP	56	240	6
NMSTR	56	288	4
NMSUL	56	288	4	96	240	5
NMSUR	56	288	4	96	240	3
EXTAP	57	336	3
EXTAP	57	336	5
EXTAP	58	48	0
EXTAP	58	48	7
EXTAP	58	144	2
EXTAP	58	144	4
EXTAP	58	240	1
EXTAP	58	240	5
BXTAP	58	288	1
BXTAP	58	288	5
NMTAP	59	0	6
NMTAP	59	0	7
NMTAP	59	48	6
NMTAP	59	96	4
NMTAP	59	96	6
NMTAP	59	192	0
NMTAP	59	192	1
NMTAP	59	240	1
NMTAP	59	288	1
NMTAP	59	288	3
NMTAP	60	0	0
NMTAP	60	0	6
NMTAP	60	48	6
NMTAP	60	96	4
NMTAP	60	96	6
NMTAP	60	192	1
NMTAP	60	192	7
NMTAP	60	240	1
NMTAP	60	288	1
NMTAP	60	288	3
NMTAP	61	0	2
NMTAP	61	0	3
NMTAP	61	48	2
NMTAP	61	96	0
NMTAP	61	96	2
NMTAP	61	192	4
NMTAP	61	192	5
NMTAP	61	240	5
NMTAP	61	288	5
NMTAP	61	288	7
NMTAP	62	0	2
NMTAP	62	0	3
BRSTR	62	96	0
NMSUR	62	96	0	96	96	5
BRSTR	62	96	1
NMSCR	62	96	1	96	96	4
NMTAP	63	0	4
NMTAP	63	0	5
NMTAP	63	72	3
NMTAP	63	72	4
NMSTR	63	144	2
NMSI_	63	144	2	96	48	0
NMTAP	63	144	3
NMTAP	64	0	2
NMTAP	64	0	3
NMTAP	64	72	3
NMTAP	64	72	4
NMTAP	64	144	4
NMSTR	64	144	5
NMSI_	64	144	5	96	48	7
NMTAP	65	0	0
NMTAP	65	96	1
NMTAP	65	96	3
NMTAP	65	144	1
NMTAP	65	144	3
NMTAP	65	240	4
NMTAP	65	240	6
NMTAP	65	336	0
NMTAP	65	336	7
NMTAP	66	48	1
NMTAP	66	48	3
NMSTR	66	144	0
NMSI_	66	144	0	96	48	4
NMSTR	66	144	7
NMSI_	66	144	7	96	48	3
NMHLD	67	0	2	72
NMHLD	67	72	1	72
NMTAP	67	144	0
NMTAP	67	240	6
NMTAP	67	240	7
NMTAP	67	288	6
NMTAP	67	288	7
NMHLD	68	0	5	72
NMHLD	68	72	6	72
NMTAP	68	144	7
NMTAP	68	240	0
NMTAP	68	240	1
NMTAP	68	288	0
NMSTR	68	288	1
NMSCR	68	288	1	96	192	6
NMTTP	69	0	0	C	1	M1
EXTAP	69	288	0
EXTAP	69	288	7
NMHLD	70	0	6	96
NMHLD	70	96	4	96
NMHLD	70	192	3	96
NMTAP	70	288	1
EXSTR	71	0	0
NMSCR	71	0	0	96	288	6
EXHLD	71	0	1	576
CNSXR	72	0	6	0	192	2
NMTAP	73	0	1
NMTAP	73	0	3
NMTAP	73	72	3
NMTAP	73	72	4
NMTAP	73	144	4
NMHLD	73	144	6	96
NMTAP	73	240	7
NMTAP	73	288	7
NMTAP	74	0	4
NMTAP	74	0	6
NMTAP	74	72	3
NMTAP	74	72	4
NMHLD	74	144	1	96
NMTAP	74	144	3
NMTAP	74	240	0
NMSTR	74	288	0
NMSCL	74	288	0	96	576	1
NMTTP	75	0	0	C	1	M1
NMHLD	77	0	2	576
NMTAP	77	0	3
NMHLD	78	0	1	576
NMHLD	79	0	0	576
NMHLD	80	0	7	384
NMTAP	81	0	5
NMTAP	81	96	4
NMTAP	81	96	6
NMTAP	81	192	3
NMTAP	81	192	5
NMTAP	81	288	2
NMTAP	81	288	4
NMTAP	82	0	1
NMTAP	82	0	3
NMTAP	82	96	1
NMSTR	82	96	3
NMSF_	82	96	3	96	96	7
BRTAP	83	48	0
BRTAP	83	48	6
BRSTR	83	96	0
NMSI_	83	96	0	96	48	4
BRTAP	83	96	6
NMSTR	83	192	5
NMSI_	83	192	5	96	48	0
EXTAP	83	288	3
NMSTR	84	0	3
NMSI_	84	0	3	96	48	0
NMSTR	84	96	6
NMSI_	84	96	6	96	48	3
NMSTR	84	192	1
NMSI_	84	192	1	96	48	5
EXTAP	84	288	3
NMSTR	85	0	3
NMSI_	85	0	3	96	48	6
NMSTR	85	96	1
NMSI_	85	96	1	96	48	4
NMSTR	85	192	6
NMSI_	85	192	6	96	48	0
EXTAP	85	288	4
NMSTR	86	0	4
NMSI_	86	0	4	96	48	0
NMSTR	86	96	7
NMSI_	86	96	7	96	48	3
BXTAP	86	192	1
BXTAP	86	288	0
BXTAP	86	288	4
NMHLD	87	0	1	48
NMHLD	87	0	3	48
NMHLD	87	72	3	48
NMHLD	87	72	4	48
NMTAP	87	144	4
NMTAP	87	144	6
NMTAP	87	240	0
NMTAP	87	240	7
NMTAP	87	288	0
NMTAP	87	288	7
NMHLD	88	0	4	48
NMHLD	88	0	6	48
NMHLD	88	72	3	48
NMHLD	88	72	4	48
NMTAP	88	144	1
NMTAP	88	144	3
NMTAP	88	240	0
NMTAP	88	240	7
NMTAP	88	288	0
NMTAP	88	288	7
NMTAP	89	0	1
NMTAP	89	48	1
NMTAP	89	96	3
NMTAP	89	144	3
NMTAP	89	192	4
NMTAP	89	240	4
NMTAP	89	288	6
NMTAP	89	336	6
BXSTR	90	0	0
NMSI_	90	0	0	96	48	2
NMSI_	90	0	0	96	48	5
BXSTR	90	192	4
NMSI_	90	192	4	96	48	1
NMSI_	90	192	4	96	48	6
BXSTR	91	0	0
NMSCL	91	0	0	96	1056	1
BXHLD	91	0	7	1536
NMHLD	95	0	0	768
NMTTP	95	192	2	B	0	M1
NMTTP	95	192	3	B	0	M1
NMTTP	96	0	0	B	0	M1
NMTTP	96	0	7	B	0	M1
NMTTP	96	192	4	B	0	M1
NMTTP	96	192	5	B	0	M1
NMTHO	97	0	0	288	C	0	M1

T_REC_TAP	250
T_REC_BRK	7
T_REC_XTP	15
T_REC_BXX	10
T_REC_HLD	78
T_REC_XHO	2
T_REC_BHO	0
T_REC_BXH	1
T_REC_STR	32
T_REC_BST	3
T_REC_XST	1
T_REC_XBS	3
T_REC_TTP	21
T_REC_THO	2
T_REC_SLD	43
T_REC_BSL	0
T_REC_ALL	468
T_NUM_TAP	319
T_NUM_BRK	24
T_NUM_HLD	82
T_NUM_SLD	43
T_NUM_ALL	468
T_JUDGE_TAP	342
T_JUDGE_HLD	388
T_JUDGE_SLD	43
T_JUDGE_ALL	773
TTM_EACHPAIRS	119
TTM_SCR_TAP	159500
TTM_SCR_BRK	62400
TTM_SCR_HLD	82000
TTM_SCR_SLD	64500
TTM_SCR_ALL	368400
TTM_SCR_S	355050
TTM_SCR_SS	366000
TTM_RAT_ACV	10065

