VERSION	0.00.00	1.04.00
FES_MODE	0
BPM_DEF	178.000	178.000	178.000	178.000
MET_DEF	4	4
RESOLUTION	384
CLK_DEF	384
COMPATIBLE_CODE	MA2

BPM	0	0	178.000
MET	0	0	4	4

NMSTR	2	0	1
NMSI_	2	0	1	96	288	4
NMSTR	4	0	6
NMSI_	4	0	6	96	288	3
NMSTR	6	0	1
NMSI_	6	0	1	96	288	5
NMSTR	8	0	6
NMSXL	8	0	6	96	672	3
NMTAP	11	0	1
NMTAP	11	96	1
NMTAP	11	192	0
NMTAP	11	192	1
NMTAP	12	0	2
NMTAP	12	96	2
NMTAP	12	192	2
NMTAP	12	192	3
NMTAP	13	0	4
NMTAP	13	96	4
NMTAP	13	192	4
NMTAP	13	192	5
NMTAP	14	0	6
NMTAP	14	0	7
NMTAP	14	96	6
NMTAP	14	96	7
NMTAP	14	192	6
NMTAP	14	192	7
NMTAP	15	0	6
NMTAP	15	96	6
NMTAP	15	192	6
NMTAP	15	192	7
NMTAP	16	0	5
NMTAP	16	96	5
NMTAP	16	192	4
NMTAP	16	192	5
NMTAP	17	0	3
NMTAP	17	96	3
NMTAP	17	192	2
NMTAP	17	192	3
NMTAP	18	0	0
NMTAP	18	0	1
NMTAP	18	96	0
NMTAP	18	96	1
NMTAP	18	192	0
NMTAP	18	192	1
NMTAP	19	0	1
NMTAP	19	96	1
NMTAP	19	192	1
NMTAP	19	288	1
NMTAP	20	0	2
NMTAP	20	96	2
NMTAP	20	192	2
NMTAP	20	288	2
NMTAP	21	0	3
NMTAP	21	96	3
NMTAP	21	192	3
NMTAP	21	288	3
NMTAP	22	0	4
NMTAP	22	0	5
NMTAP	22	96	4
NMTAP	22	96	5
NMTAP	22	192	4
NMTAP	22	192	5
NMTAP	23	0	6
NMTAP	23	96	6
NMTAP	23	192	6
NMTAP	23	288	6
NMTAP	24	0	5
NMTAP	24	96	5
NMTAP	24	192	5
NMTAP	24	288	5
NMTAP	25	0	4
NMTAP	25	96	4
NMTAP	25	192	4
NMTAP	25	288	4
NMTAP	26	0	2
NMTAP	26	0	3
NMTAP	26	96	2
NMTAP	26	96	3
NMTAP	26	192	2
NMTAP	26	192	3
NMHLD	27	0	2	192
NMHLD	27	192	3	192
NMHLD	28	0	4	192
NMTAP	28	192	5
NMHLD	29	0	5	192
NMHLD	29	192	4	192
NMHLD	30	0	3	192
NMTAP	30	192	2
NMHLD	31	0	1	192
NMHLD	31	192	0	192
NMHLD	32	0	7	192
NMTAP	32	192	6
NMHLD	33	0	6	192
NMHLD	33	192	7	192
NMHLD	34	0	0	192
NMTAP	34	192	1
NMTTP	35	0	1	B	0	L1
NMTTP	35	96	2	B	0	L1
NMTTP	35	192	3	B	0	L1
NMTTP	36	0	6	B	0	L1
NMTTP	36	96	5	B	0	L1
NMTTP	36	192	4	B	0	L1
NMTTP	37	0	0	B	0	L1
NMTTP	37	96	1	B	0	L1
NMTTP	37	192	2	B	0	L1
NMTTP	37	288	3	B	0	L1
NMTTP	38	0	4	B	0	L1
NMTTP	38	96	5	B	0	L1
NMTTP	38	192	6	B	0	L1
NMTTP	38	192	7	B	0	L1
NMSTR	39	0	1
NMSUR	39	0	1	96	480	4
NMTAP	41	0	5
NMTAP	41	96	5
NMTAP	41	192	4
NMTAP	41	192	5
NMTAP	42	0	2
NMTAP	42	96	2
NMTAP	42	192	2
NMTAP	42	192	3
NMHLD	43	0	3	192
NMHLD	43	0	4	192
NMTAP	44	0	3
NMTAP	44	0	4
NMTAP	44	96	3
NMTAP	44	96	4
NMTAP	44	192	2
NMTAP	44	192	5
NMTAP	45	0	5
NMTAP	45	96	5
NMTAP	45	192	6
NMTAP	45	288	6
NMTAP	46	0	7
NMTAP	46	96	7
NMTAP	46	192	0
NMTAP	46	192	1
NMTAP	47	0	2
NMTAP	47	96	2
NMTAP	47	192	1
NMTAP	47	288	1
NMTAP	48	0	0
NMTAP	48	96	0
NMTAP	48	192	6
NMTAP	48	192	7
NMTAP	49	0	6
NMTAP	49	96	6
NMTAP	49	192	5
NMTAP	49	288	5
NMTAP	50	0	4
NMTAP	50	96	4
NMTAP	50	192	3
NMTAP	50	192	4
NMTAP	51	0	5
NMTAP	51	96	5
NMTAP	51	192	6
NMTAP	51	192	7
NMTAP	51	288	6
NMTAP	51	288	7
NMTAP	52	0	0
NMTAP	52	96	0
NMTAP	52	192	0
NMTAP	52	192	1
NMTAP	53	0	2
NMTAP	53	96	2
NMTAP	53	192	0
NMTAP	53	192	1
NMTAP	53	288	0
NMTAP	53	288	1
NMTAP	54	0	7
NMTAP	54	96	7
NMTAP	54	192	6
NMTAP	54	192	7
NMTAP	55	0	6
NMTAP	55	96	6
NMTAP	55	192	4
NMTAP	55	192	5
NMTAP	55	288	4
NMTAP	55	288	5
NMTAP	56	0	3
NMTAP	56	96	3
NMTAP	56	192	2
NMTAP	56	192	3
NMTAP	57	0	1
NMTAP	57	96	1
NMTAP	57	192	2
NMTAP	57	192	3
NMTAP	57	288	2
NMTAP	57	288	3
NMTAP	58	0	4
NMTAP	58	96	4
NMTAP	58	192	4
NMTAP	58	192	5
NMTAP	59	0	5
NMTAP	59	96	5
NMTAP	59	192	6
NMTAP	59	192	7
NMTAP	59	288	6
NMTAP	59	288	7
NMTAP	60	0	0
NMTAP	60	0	1
NMTAP	60	96	0
NMTAP	60	96	1
NMTAP	60	192	2
NMTAP	60	192	7
NMTAP	61	0	2
NMTAP	61	96	2
NMTAP	61	192	0
NMTAP	61	192	1
NMTAP	61	288	0
NMTAP	61	288	1
NMTAP	62	0	6
NMTAP	62	0	7
NMTAP	62	96	6
NMTAP	62	96	7
NMTAP	62	192	0
NMTAP	62	192	5
NMTAP	63	0	6
NMTAP	63	96	6
NMTAP	63	192	4
NMTAP	63	192	5
NMTAP	63	288	4
NMTAP	63	288	5
NMTAP	64	0	2
NMTAP	64	0	3
NMTAP	64	96	2
NMTAP	64	96	3
NMTAP	64	192	1
NMTAP	64	192	4
NMTAP	65	0	1
NMTAP	65	96	1
NMTAP	65	192	2
NMTAP	65	192	3
NMTAP	65	288	2
NMTAP	65	288	3
NMTAP	66	0	4
NMTAP	66	0	5
NMTAP	66	96	4
NMTAP	66	96	5
NMTAP	66	192	3
NMTAP	66	192	6
NMHLD	67	0	5	192
NMTAP	67	192	4
NMTAP	68	0	5
NMTAP	68	96	5
NMTAP	68	192	4
NMTAP	68	192	5
NMHLD	69	0	6	192
NMTAP	69	192	7
NMTAP	70	0	6
NMTAP	70	96	6
NMTAP	70	192	6
NMTAP	70	192	7
NMHLD	71	0	1	192
NMTAP	71	192	0
NMTAP	72	0	1
NMTAP	72	96	1
NMTAP	72	192	0
NMTAP	72	192	1
NMHLD	73	0	2	192
NMTAP	73	192	3
NMTAP	74	0	2
NMTAP	74	96	2
NMTAP	74	192	2
NMTAP	74	192	3
NMSTR	75	0	1
NMSI_	75	0	1	96	288	4
NMTAP	76	192	5
NMSTR	77	0	6
NMSI_	77	0	6	96	288	3
NMTAP	78	192	2
NMSTR	79	0	1
NMSI_	79	0	1	96	288	5
NMTAP	80	192	6
NMSTR	81	0	7
NMSI_	81	0	7	96	288	3
NMTAP	82	192	3
NMTAP	82	192	4
NMTAP	83	0	2
NMTAP	83	48	2
BRTAP	83	96	2
NMTAP	83	192	0
NMTAP	83	192	1
NMTAP	83	288	0
NMTAP	83	288	1
NMTAP	84	0	7
NMTAP	84	48	7
NMTAP	84	96	7
NMTAP	84	192	6
NMTAP	84	192	7
NMTAP	85	0	5
NMTAP	85	48	5
NMTAP	85	96	5
NMTAP	85	192	6
NMTAP	85	192	7
NMTAP	85	288	6
NMTAP	85	288	7
NMTAP	86	0	0
NMTAP	86	48	0
NMTAP	86	96	0
NMTAP	86	192	0
NMTAP	86	192	1
NMTAP	87	0	1
NMTAP	87	48	1
NMTAP	87	96	1
NMTAP	87	192	2
NMTAP	87	192	3
NMTAP	87	288	2
NMTAP	87	288	3
NMTAP	88	0	4
NMTAP	88	48	4
NMTAP	88	96	4
NMTAP	88	192	4
NMTAP	88	192	5
NMTAP	89	0	6
NMTAP	89	48	6
NMTAP	89	96	6
NMTAP	89	192	4
NMTAP	89	192	5
NMTAP	89	288	4
NMTAP	89	288	5
NMTAP	90	0	3
NMTAP	90	48	3
NMTAP	90	96	3
NMTAP	90	192	2
NMTAP	90	192	3
NMTAP	91	0	1
NMTAP	91	96	1
NMTAP	91	192	2
NMTAP	91	288	2
NMTAP	92	0	3
NMTAP	92	96	3
NMTAP	92	192	3
NMTAP	92	192	4
NMTAP	93	0	5
NMTAP	93	96	5
NMTAP	93	192	6
NMTAP	93	288	6
NMTAP	94	0	7
NMTAP	94	96	7
NMTAP	94	192	0
NMTAP	94	192	7
NMTAP	95	0	7
NMTAP	95	96	6
NMTAP	95	192	5
NMTAP	95	288	4
NMTAP	96	0	3
NMTAP	96	96	2
NMTAP	96	192	1
NMTAP	96	288	0
NMSTR	97	0	0
NMSI_	97	0	0	96	288	3
NMSTR	97	0	7
NMSI_	97	0	7	96	288	4

T_REC_TAP	298
T_REC_BRK	1
T_REC_XTP	0
T_REC_BXX	0
T_REC_HLD	18
T_REC_XHO	0
T_REC_BHO	0
T_REC_BXH	0
T_REC_STR	11
T_REC_BST	0
T_REC_XST	0
T_REC_XBS	0
T_REC_TTP	14
T_REC_THO	0
T_REC_SLD	11
T_REC_BSL	0
T_REC_ALL	353
T_NUM_TAP	323
T_NUM_BRK	1
T_NUM_HLD	18
T_NUM_SLD	11
T_NUM_ALL	353
T_JUDGE_TAP	324
T_JUDGE_HLD	72
T_JUDGE_SLD	11
T_JUDGE_ALL	407
TTM_EACHPAIRS	79
TTM_SCR_TAP	161500
TTM_SCR_BRK	2600
TTM_SCR_HLD	18000
TTM_SCR_SLD	16500
TTM_SCR_ALL	198600
TTM_SCR_S	192550
TTM_SCR_SS	198500
TTM_RAT_ACV	10005

