VERSION	0.00.00	1.04.00
FES_MODE	0
BPM_DEF	178.000	178.000	178.000	178.000
MET_DEF	4	4
RESOLUTION	384
CLK_DEF	384
COMPATIBLE_CODE	MA2

BPM	0	0	178.000
MET	0	0	4	4

NMTAP	2	0	3
NMTAP	3	0	3
NMTAP	4	0	3
NMTAP	6	0	4
NMTAP	7	0	4
NMTAP	8	0	4
NMHLD	9	0	3	384
NMHLD	9	0	4	384
NMTAP	11	0	4
NMTAP	11	192	4
NMTAP	12	0	5
NMTAP	12	192	5
NMTAP	13	0	6
NMTAP	13	192	6
NMTAP	14	0	0
NMTAP	14	0	7
NMTAP	15	0	0
NMTAP	15	192	0
NMTAP	16	0	1
NMTAP	16	192	1
NMTAP	17	0	2
NMTAP	17	192	2
NMTAP	18	0	3
NMTAP	18	0	4
NMHLD	19	0	2	384
NMHLD	19	0	3	384
NMHLD	21	0	0	384
NMHLD	21	0	1	384
NMHLD	23	0	6	384
NMHLD	23	0	7	384
NMHLD	25	0	4	384
NMHLD	25	0	5	384
NMTAP	27	0	4
NMTAP	27	192	4
NMTAP	28	0	5
NMTAP	28	192	5
NMTAP	29	0	6
NMTAP	29	192	6
NMTAP	30	0	0
NMTAP	30	0	7
NMTAP	31	0	0
NMTAP	31	192	0
NMTAP	32	0	1
NMTAP	32	192	1
NMTAP	33	0	2
NMTAP	33	192	2
NMTAP	34	0	3
NMTAP	34	0	4
NMTTP	35	0	4	B	0	L1
NMTTP	36	0	3	B	0	L1
NMTTP	37	0	5	B	0	L1
NMTTP	38	0	2	B	0	L1
NMTTP	39	0	6	B	0	L1
NMTTP	40	0	1	B	0	L1
NMTTP	41	0	7	B	0	L1
NMTTP	42	0	0	C	0	L1
NMTAP	43	0	0
NMTAP	43	96	0
NMTAP	43	192	0
NMTAP	44	0	1
NMTAP	44	96	1
NMTAP	44	192	1
NMTAP	45	0	2
NMTAP	45	96	2
NMTAP	45	192	2
NMTAP	46	0	2
NMTAP	46	0	3
NMTAP	46	192	2
NMTAP	46	192	3
NMTAP	47	0	4
NMTAP	47	96	4
NMTAP	47	192	4
NMTAP	48	0	5
NMTAP	48	96	5
NMTAP	48	192	5
NMTAP	49	0	6
NMTAP	49	96	6
NMTAP	49	192	6
NMTAP	50	0	6
NMTAP	50	0	7
NMTAP	50	192	6
NMTAP	50	192	7
NMTAP	51	0	7
NMTAP	51	96	7
NMTAP	51	192	7
NMTAP	52	0	6
NMTAP	52	96	6
NMTAP	52	192	6
NMTAP	53	0	5
NMTAP	53	96	5
NMTAP	53	192	5
NMTAP	54	0	4
NMTAP	54	96	4
NMTAP	54	192	3
NMTAP	54	192	4
NMTAP	55	0	3
NMTAP	55	96	3
NMTAP	55	192	3
NMTAP	56	0	2
NMTAP	56	96	2
NMTAP	56	192	2
NMTAP	57	0	1
NMTAP	57	96	1
NMTAP	57	192	1
EXTAP	58	0	0
EXTAP	58	0	7
BRTAP	59	0	0
NMTAP	59	96	0
NMTAP	59	192	0
NMTAP	59	288	0
NMTAP	60	0	1
NMTAP	60	96	1
NMTAP	60	192	0
NMTAP	60	192	1
NMTAP	61	0	2
NMTAP	61	96	2
NMTAP	61	192	2
NMTAP	61	288	2
NMTAP	62	0	3
NMTAP	62	96	3
NMTAP	62	192	2
NMTAP	62	192	3
NMTAP	63	0	4
NMTAP	63	96	4
NMTAP	63	192	4
NMTAP	63	288	4
NMTAP	64	0	5
NMTAP	64	96	5
NMTAP	64	192	4
NMTAP	64	192	5
NMTAP	65	0	6
NMTAP	65	96	6
NMTAP	65	192	6
NMTAP	65	288	6
NMTAP	66	0	7
NMTAP	66	96	7
NMTAP	66	192	6
NMTAP	66	192	7
NMTAP	67	0	6
NMTAP	67	96	6
NMTAP	67	192	6
NMTAP	67	192	7
NMTAP	68	0	5
NMTAP	68	96	5
NMTAP	68	192	4
NMTAP	68	192	5
NMTAP	69	0	2
NMTAP	69	96	2
NMTAP	69	192	2
NMTAP	69	192	3
NMTAP	70	0	1
NMTAP	70	96	1
NMTAP	70	192	0
NMTAP	70	192	1
NMTAP	71	0	7
NMTAP	71	96	7
NMTAP	71	192	7
NMTAP	72	0	0
NMTAP	72	96	0
NMTAP	72	192	0
NMHLD	73	0	0	384
NMHLD	73	0	7	384
NMSTR	75	0	0
NMSI_	75	0	0	96	288	4
NMSTR	77	0	7
NMSI_	77	0	7	96	288	3
NMSTR	79	0	1
NMSI_	79	0	1	96	288	5
NMSTR	81	0	6
NMSI_	81	0	6	96	288	2
NMTAP	83	0	0
BXTAP	83	96	0
NMTAP	83	192	1
NMTAP	83	288	1
NMTAP	84	0	2
NMTAP	84	96	2
NMTAP	84	192	2
NMTAP	84	192	3
NMTAP	85	0	4
NMTAP	85	96	4
NMTAP	85	192	5
NMTAP	85	288	5
NMTAP	86	0	6
NMTAP	86	96	6
NMTAP	86	192	6
NMTAP	86	192	7
NMTAP	87	0	6
NMTAP	87	96	6
NMTAP	87	192	5
NMTAP	87	288	5
NMTAP	88	0	4
NMTAP	88	96	4
NMTAP	88	192	3
NMTAP	88	288	3
NMTAP	89	0	2
NMTAP	89	96	2
NMTAP	89	192	1
NMTAP	89	288	1
BRTAP	90	0	0
BRTAP	90	0	7
NMTTP	91	0	0	E	0	L1
NMTTP	92	0	1	E	0	L1
NMTTP	92	0	7	E	0	L1
NMTTP	93	0	2	E	0	L1
NMTTP	93	0	6	E	0	L1
NMTTP	94	0	3	E	0	L1
NMTTP	94	0	5	E	0	L1
NMTTP	95	0	4	E	0	L1
NMTTP	96	0	3	B	0	L1
NMTTP	96	0	4	B	0	L1
NMTHO	97	0	0	288	C	0	L1
NMTTP	97	0	2	B	0	L1
NMTTP	97	0	5	B	0	L1

T_REC_TAP	166
T_REC_BRK	3
T_REC_XTP	2
T_REC_BXX	1
T_REC_HLD	12
T_REC_XHO	0
T_REC_BHO	0
T_REC_BXH	0
T_REC_STR	4
T_REC_BST	0
T_REC_XST	0
T_REC_XBS	0
T_REC_TTP	20
T_REC_THO	1
T_REC_SLD	4
T_REC_BSL	0
T_REC_ALL	213
T_NUM_TAP	192
T_NUM_BRK	4
T_NUM_HLD	13
T_NUM_SLD	4
T_NUM_ALL	213
T_JUDGE_TAP	196
T_JUDGE_HLD	102
T_JUDGE_SLD	4
T_JUDGE_ALL	302
TTM_EACHPAIRS	27
TTM_SCR_TAP	96000
TTM_SCR_BRK	10400
TTM_SCR_HLD	13000
TTM_SCR_SLD	6000
TTM_SCR_ALL	125400
TTM_SCR_S	121250
TTM_SCR_SS	125000
TTM_RAT_ACV	10032

