VERSION	0.00.00	1.04.00
FES_MODE	0
BPM_DEF	204.000	204.000	204.000	204.000
MET_DEF	4	4
RESOLUTION	384
CLK_DEF	576
COMPATIBLE_CODE	MA2

BPM	0	0	204.000
MET	0	0	4	3

NMTTP	1	192	6	E	0	M1
NMTTP	2	96	5	E	0	M1
NMTTP	3	0	4	E	0	M1
NMTTP	3	288	3	E	0	M1
NMTHO	4	192	0	288	C	0	M1
NMTTP	4	192	2	E	0	M1
NMTHO	6	0	0	288	C	0	M1
NMTTP	6	0	6	E	0	M1
NMTHO	7	192	0	864	C	1	M1
NMTTP	7	192	3	B	0	M1
NMTTP	7	192	4	B	0	M1
NMHLD	9	0	7	288
BRTAP	10	192	1
BRTAP	10	192	7
NMTAP	10	288	6
NMTAP	10	336	6
NMTAP	11	0	7
NMTAP	11	96	1
NMTAP	11	96	4
NMTAP	11	192	2
NMTAP	11	240	5
NMTAP	11	264	4
NMTAP	11	288	5
NMTAP	11	336	3
NMTAP	12	0	2
NMTAP	12	0	6
NMTAP	12	96	1
NMTAP	12	144	1
NMTAP	12	192	0
NMTAP	12	288	3
NMTAP	12	288	6
NMTAP	13	0	5
NMTAP	13	48	2
NMTAP	13	72	3
NMTAP	13	96	2
NMTAP	13	144	4
NMTAP	13	192	1
NMTAP	13	192	5
NMTAP	13	288	7
NMTAP	13	336	7
NMTAP	14	0	0
NMTAP	14	96	1
NMTAP	14	96	6
NMTAP	14	192	2
NMTAP	14	240	2
NMSTR	14	288	4
NMSUL	14	288	4	96	480	3
NMTAP	14	336	3
NMTAP	15	0	2
NMHLD	16	192	1	288
NMTAP	16	288	5
NMTAP	17	0	4
NMHLD	17	96	3	288
NMTAP	17	192	2
NMSTR	17	288	1
NMSUR	17	288	1	96	384	3
NMHLD	19	192	6	288
NMTAP	19	288	2
NMTAP	20	0	3
NMHLD	20	96	4	192
NMTAP	20	192	5
NMSTR	20	288	6
NMSUL	20	288	6	96	384	4
NMHLD	21	0	3	288
NMHLD	22	192	2	288
NMTAP	22	288	3
NMTAP	23	0	3
NMHLD	23	96	4	288
NMTAP	23	192	2
NMTAP	23	288	1
NMHLD	24	0	0	288
NMTAP	24	96	7
NMTAP	24	192	6
NMHLD	24	288	5	288
NMTAP	25	0	4
NMSTR	25	96	3
NMSUR	25	96	3	96	288	4
NMHLD	26	96	6	96
NMHLD	26	192	4	96
NMHLD	26	288	2	96
NMHLD	27	0	0	96
NMHLD	27	144	1	96
NMHLD	27	144	7	96
NMTHO	27	288	0	288	C	0	M1
NMTTP	27	288	2	B	0	M1
NMTTP	27	288	2	A	0	M1
NMTTP	27	288	6	B	0	M1
NMTTP	27	288	6	A	0	M1
BRTAP	28	192	0
NMTAP	28	288	7
NMTAP	28	336	7
NMHLD	29	0	1	96
NMTAP	29	96	0
NMTAP	29	144	7
NMTAP	29	192	6
NMTAP	29	240	5
NMSTR	29	288	5
NMSCL	29	288	5	96	96	2
NMTAP	30	0	1
NMTAP	30	96	0
NMTAP	30	144	0
NMHLD	30	192	6	96
NMTAP	30	288	7
NMTAP	30	336	0
NMTAP	31	0	1
NMTAP	31	48	2
NMSTR	31	96	2
NMSCR	31	96	2	96	96	5
NMTAP	31	192	7
NMTAP	31	288	6
NMTAP	31	336	6
NMTAP	32	0	4
NMTAP	32	48	4
NMTAP	32	96	3
NMTAP	32	144	3
NMTAP	32	192	1
NMTAP	32	240	1
NMHLD	32	288	3	96
NMTAP	33	0	2
NMTAP	33	96	4
NMTAP	33	96	5
NMTAP	33	192	6
NMTAP	33	192	7
NMTAP	33	288	0
NMTAP	33	288	4
NMSTR	34	96	2
NMSCL	34	96	2	96	96	7
NMTAP	34	192	2
NMHLD	34	192	3	192
NMSTR	35	0	5
NMSCR	35	0	5	96	96	0
NMHLD	35	96	4	192
NMTAP	35	96	5
NMSTR	35	288	3
NMSXR	35	288	3	96	240	4
NMTAP	36	0	3
NMHLD	36	0	5	288
NMSTR	37	0	6
NMSCL	37	0	6	96	96	4
NMSTR	37	96	4
NMSCL	37	96	4	96	96	2
NMSTR	37	192	2
NMSCL	37	192	2	96	96	0
NMSTR	37	288	0
NMSCL	37	288	0	96	96	6
NMSTR	38	0	6
NMSCL	38	0	6	96	96	4
NMSTR	38	96	4
NMSXL	38	96	4	96	240	3
NMTAP	38	192	3
NMTAP	38	288	2
NMHLD	39	0	1	192
NMTAP	39	192	0
NMHLD	39	288	2	1152
NMTAP	39	288	6
NMTTP	40	192	2	E	0	M1
NMTTP	41	96	3	E	0	M1
NMTTP	42	0	4	E	0	M1
NMTAP	42	192	5
NMHLD	42	288	5	1296
NMTTP	43	192	6	E	0	M1
NMTTP	44	96	5	E	0	M1
NMTTP	45	0	4	E	0	M1
NMHLD	45	288	1	144
NMSTR	46	192	6
NMSCL	46	192	6	96	144	4
NMTAP	46	288	3
NMTAP	47	0	2
NMSTR	47	96	1
NMSCR	47	96	1	96	144	3
NMTAP	47	192	4
NMTAP	47	288	5
NMHLD	48	0	6	144
NMHLD	48	144	4	144
NMHLD	48	288	3	144
NMTAP	49	48	1
EXTAP	49	192	2
EXTAP	49	192	4
NMTAP	49	288	5
NMTAP	49	336	5
NMTAP	50	0	4
NMTAP	50	48	5
EXTAP	50	96	3
EXTAP	50	96	6
NMTAP	50	192	1
NMTAP	50	240	1
NMTAP	50	288	3
NMTAP	50	336	2
EXTAP	51	0	1
EXTAP	51	0	5
NMTAP	51	96	5
NMTAP	51	144	5
NMTAP	51	192	4
NMTAP	51	240	6
EXTAP	51	288	3
EXHLD	51	288	7	96
NMHLD	52	0	5	96
NMSTR	52	96	3
NMSCL	52	96	3	96	1056	5
BRTAP	52	192	4
NMHLD	52	288	4	96
NMTAP	53	96	4
NMHLD	53	192	4	96
NMTAP	54	0	4
NMHLD	54	96	4	96
NMTAP	54	288	4
NMTAP	55	0	3
NMTAP	55	96	2
NMHLD	55	192	1	96
NMTAP	55	192	3
NMTAP	55	288	0
NMTAP	55	336	1
NMTAP	56	0	2
NMTAP	56	0	3
NMTAP	56	96	4
NMHLD	56	96	6	96
NMTAP	56	192	7
NMTAP	56	240	6
NMTAP	56	288	4
NMSTR	56	288	5
NMSI_	56	288	5	96	48	2
NMSTR	57	0	1
NMSI_	57	0	1	96	48	6
NMTAP	57	96	4
NMTAP	57	192	2
NMSTR	57	192	3
NMSF_	57	192	3	96	48	7
EXTAP	58	0	1
EXTAP	58	0	5
BXTAP	58	48	1
BXTAP	58	48	5
NMTTP	58	192	0	E	0	M1
NMTTP	58	192	0	A	1	M1
NMTTP	58	192	1	E	0	M1
EXHLD	58	192	6	192
NMTAP	58	288	2
NMTAP	58	336	3
NMSTR	59	0	4
NMSCL	59	0	4	96	192	5
NMTAP	59	96	0
NMTAP	59	192	6
NMSTR	59	288	4
NMSXL	59	288	4	96	192	7
NMTAP	60	0	4
NMTAP	60	96	2
NMTAP	60	192	0
NMSTR	60	288	1
NMSCR	60	288	1	96	96	4
NMTAP	60	288	7
NMSTR	61	0	4
NMSCR	61	0	4	96	96	7
NMSTR	61	96	7
NMSCR	61	96	7	96	96	2
NMTAP	61	192	2
NMHLD	61	288	5	144
NMTAP	62	48	3
NMTAP	62	96	2
EXSTR	62	96	4
NMSI_	62	96	4	96	48	1
EXSTR	62	192	4
NMSI_	62	192	4	96	48	7
NMTAP	62	192	6
EXSTR	62	288	0
NMSI_	62	288	0	96	48	3
NMSI_	62	288	0	96	48	5
NMTAP	62	288	4
BXTAP	63	0	0
NMTAP	63	192	1
NMTAP	63	192	7
NMTAP	63	288	4
NMTAP	63	288	5
NMTAP	64	0	2
NMTAP	64	0	3
NMTAP	64	96	0
NMSTR	64	96	6
NMSCL	64	96	6	96	96	3
NMSTR	64	192	2
BRSXL	64	192	2	96	192	0
CNSXL	64	288	3	0	192	0
NMTTP	65	96	0	B	0	M1
NMTTP	65	96	0	A	1	M1
NMTTP	65	96	1	E	0	M1
NMSTR	65	288	6
NMSCL	65	288	6	96	96	3
NMTAP	65	288	7
NMSTR	66	0	3
NMSCL	66	0	3	96	96	0
NMSTR	66	96	0
NMSCL	66	96	0	96	96	5
NMTAP	66	192	5
NMHLD	66	288	2	96
NMHLD	67	0	4	96
NMHLD	67	96	6	96
NMTAP	67	192	0
NMTAP	67	288	0
NMTAP	67	288	1
NMTAP	67	336	2
NMTAP	67	336	7
NMTAP	68	48	6
NMTAP	68	48	7
NMTAP	68	96	0
NMHLD	68	96	5	96
NMHLD	68	192	3	96
NMHLD	68	288	1	96
NMSTR	69	0	7
NMSUR	69	0	7	96	144	0
NMHLD	69	288	1	96
NMHLD	69	288	6	96
NMTAP	70	48	3
NMTAP	70	48	4
NMSTR	70	144	0
NMSXL	70	144	0	96	288	3
NMSTR	70	144	7
NMSXR	70	144	7	96	288	4
NMTAP	70	192	0
NMTAP	70	192	7
NMTTP	71	96	0	C	1	M1
BRTAP	72	0	1
BRTAP	72	0	6
NMTAP	72	48	2
NMTAP	72	96	3
NMTAP	72	144	4
NMTAP	72	192	5
NMTAP	72	240	4
NMTAP	72	240	5
NMTAP	72	288	6
NMTAP	72	336	5
NMTAP	73	0	4
NMTAP	73	48	3
NMTAP	73	96	2
NMTAP	73	144	2
NMTAP	73	144	3
NMTAP	73	192	1
NMTAP	73	240	1
NMTAP	73	288	3
NMTAP	73	336	3
NMTAP	74	0	4
NMTAP	74	48	4
NMTAP	74	96	6
NMTAP	74	144	6
NMTAP	74	192	1
NMTAP	74	216	0
NMTAP	74	240	1
NMTAP	74	288	2
NMSTR	74	288	7
NMSCL	74	288	7	96	48	4
NMTAP	75	0	1
NMTAP	75	0	7
NMTAP	75	96	3
NMTAP	75	144	2
NMSTR	75	192	0
NMSCR	75	192	0	96	48	3
NMTAP	75	192	4
NMTAP	75	288	0
NMTAP	75	288	6
NMTAP	76	0	4
NMTAP	76	48	5
NMTAP	76	96	3
NMSTR	76	96	7
NMSI_	76	96	7	96	48	3
NMTAP	76	192	0
NMTAP	76	192	7
NMTAP	76	288	1
NMTAP	76	336	1
NMTAP	77	0	3
NMTAP	77	48	3
NMTAP	77	96	4
NMTAP	77	144	4
NMTAP	77	192	6
NMTAP	77	216	7
NMTAP	77	240	6
BRTAP	77	288	0
BRTAP	77	288	5
NMSTR	78	0	2
NMSCR	78	0	2	96	96	5
NMTAP	78	0	7
NMSTR	78	96	5
NMSCR	78	96	5	96	96	0
NMSTR	78	192	0
NMSCR	78	192	0	96	96	3
NMTAP	78	288	3
NMTAP	79	0	6
NMHLD	79	48	6	96
NMTAP	79	144	4
NMHLD	79	192	4	96
NMSTR	79	288	3
NMSI_	79	288	3	96	48	7
NMTAP	80	0	2
NMTAP	80	96	0
NMHLD	80	96	6	96
NMTAP	80	192	7
NMTAP	80	240	6
NMTAP	80	288	0
NMTAP	80	288	5
NMSTR	81	0	2
NMSI_	81	0	2	96	48	7
NMTAP	81	0	3
NMSTR	81	96	6
NMSI_	81	96	6	96	48	3
NMTAP	81	192	2
NMTAP	81	288	0
NMSTR	81	288	1
NMSI_	81	288	1	96	48	4
NMSTR	82	0	5
NMSI_	82	0	5	96	48	0
NMTAP	82	96	1
EXTAP	82	192	3
EXTAP	82	192	4
BRTAP	82	288	0
BRTAP	82	288	1
NMTAP	82	312	2
NMTAP	82	312	7
EXTAP	82	336	3
EXTAP	82	336	6
BRTAP	83	48	6
BRTAP	83	48	7
NMTAP	83	72	0
NMTAP	83	72	5
EXTAP	83	96	1
EXSTR	83	96	4
NMSF_	83	96	4	96	96	0
NMTTP	84	0	3	E	0	M1
NMTTP	84	48	5	E	0	M1
NMTTP	84	96	2	E	0	M1
NMTTP	84	144	6	E	0	M1
NMTTP	84	192	1	E	0	M1
NMTTP	84	240	7	E	0	M1
NMTTP	84	288	0	B	0	M1
NMTTP	84	288	0	E	1	M1
NMTTP	84	288	0	A	0	M1
NMTTP	84	288	0	D	0	M1
NMTTP	84	288	7	B	0	M1
NMTTP	84	288	7	A	0	M1
NMSTR	85	192	3
NMSCR	85	192	3	96	1056	2
NMTTP	86	96	4	B	0	M1
NMTTP	87	0	5	B	0	M1
NMTTP	87	288	6	B	0	M1
NMSTR	88	192	7
NMSUR	88	192	7	96	480	0
NMTTP	89	96	0	C	0	M1
NMSTR	90	0	2
NMSCR	90	0	2	96	192	5
NMTTP	90	288	0	C	0	M1
NMTAP	91	192	2
NMTAP	91	192	4
NMTAP	91	288	3
NMTAP	91	336	4
NMTAP	92	48	4
NMTAP	92	96	3
NMTAP	92	192	3
NMTAP	92	192	5
NMHLD	92	288	6	96
NMHLD	93	0	4	96
NMHLD	93	96	3	96
NMHLD	93	192	1	96
NMTAP	93	288	3
NMTAP	94	0	0
NMTAP	94	0	1
NMTAP	94	96	0
NMTAP	94	96	7
NMTAP	94	192	6
NMTAP	94	192	7
NMTAP	94	288	5
NMTAP	94	336	4
NMTAP	94	336	5
NMTAP	95	48	2
NMTAP	95	96	2
NMTAP	95	96	3
NMTAP	95	192	1
NMTAP	95	192	5
NMSTR	95	288	0
NMSCR	95	288	0	96	576	7
NMTAP	96	0	7
NMTHO	96	288	0	288	C	1	M1
BRSTR	98	96	0
NMSCL	98	96	0	96	120	2
BRTAP	98	96	1
NMTAP	98	192	2
NMTAP	98	240	1
NMTAP	98	288	0
NMTAP	99	0	6
NMTAP	99	0	7
NMTAP	99	96	3
NMTAP	99	96	4
NMSTR	99	192	0
NMSCL	99	192	0	96	120	2
NMTAP	99	192	1
NMTAP	99	288	2
NMTAP	99	336	1
NMHLD	100	0	0	96
NMTAP	100	96	7
EXSTR	100	192	2
NMSI_	100	192	2	96	48	7
EXTAP	100	192	4
NMSTR	100	288	6
NMSI_	100	288	6	96	48	3
NMSTR	101	0	1
NMSI_	101	0	1	96	48	4
NMSTR	101	96	5
NMSI_	101	96	5	96	48	0
NMTAP	101	192	3
NMTAP	101	336	1
NMTAP	101	336	7
NMSTR	102	0	1
NMSI_	102	0	1	96	48	5
NMTAP	102	0	7
NMTAP	102	96	1
NMSTR	102	96	6
NMSI_	102	96	6	96	48	2
NMSTR	102	192	0
NMSCR	102	192	0	96	192	7
NMTAP	102	192	6
NMTAP	102	288	0
NMTAP	102	288	7
NMSTR	103	96	0
NMSI_	103	96	0	96	48	4
NMHLD	103	192	1	192
NMTAP	103	288	5
NMTAP	103	336	4
NMSTR	104	0	3
NMSCR	104	0	3	96	192	2
NMTAP	104	96	7
NMTAP	104	192	1
NMSTR	104	288	3
NMSXR	104	288	3	96	192	0
NMTAP	105	0	3
NMTAP	105	0	4
NMTAP	105	96	5
NMSTR	105	192	7
NMSXR	105	192	7	96	192	4
NMTAP	105	288	0
NMTAP	105	288	7
NMTAP	106	0	1
NMSTR	106	96	3
NMSCL	106	96	3	96	96	0
NMSTR	106	192	0
NMSCL	106	192	0	96	96	5
NMSTR	106	288	5
NMSCL	106	288	5	96	96	2
NMTAP	107	0	2
NMHLD	107	96	7	96
NMTAP	107	192	5
NMTAP	107	240	4
NMTAP	107	240	6
NMTAP	107	336	2
NMTAP	108	0	1
NMTAP	108	0	3
NMTAP	108	96	0
NMTAP	108	96	6
NMTAP	108	144	0
NMTAP	108	144	6
NMTAP	108	192	1
NMSTR	108	192	5
NMSCL	108	192	5	96	96	2
NMSTR	108	288	2
NMSCL	108	288	2	96	96	7
NMSTR	109	0	7
NMSUL	109	0	7	96	96	3
NMSTR	109	96	3
NMSUL	109	96	3	96	96	7
NMSTR	109	192	7
NMSLL	109	192	7	96	96	3
NMSTR	109	288	3
NMSLL	109	288	3	96	96	7
NMSTR	110	0	7
BRSCL	110	0	7	96	192	0
NMTTP	110	96	0	C	1	M1
EXTAP	111	0	1
EXTAP	111	0	6
NMTAP	111	96	3
NMTAP	111	96	4
NMTAP	111	144	2
NMTAP	111	168	3
NMTAP	111	192	2
NMTAP	111	240	6
NMTAP	111	288	0
NMTAP	111	312	1
NMTAP	111	336	2
NMTAP	111	360	3
NMTAP	112	0	0
NMTAP	112	24	7
NMTAP	112	48	6
NMTAP	112	72	5
NMHLD	112	96	0	96
NMTAP	112	192	2
NMTAP	112	240	3
NMTAP	112	288	4
NMTAP	112	336	5
NMTAP	113	0	6
NMTAP	113	0	7
NMTAP	113	48	0
EXTAP	113	96	1
EXTAP	113	96	5
NMTAP	113	192	2
NMTAP	113	192	3
NMTAP	113	240	1
NMTAP	113	288	0
NMTAP	113	288	6
NMTAP	113	336	5
NMTAP	114	0	3
NMTAP	114	0	4
NMTAP	114	48	2
NMTAP	114	96	1
NMTAP	114	96	7
NMTAP	114	144	6
NMTAP	114	192	4
NMTAP	114	192	5
NMHLD	114	288	1	96
NMTAP	114	288	3
NMTAP	115	0	5
NMHLD	115	48	6	96
NMTAP	115	48	7
NMTAP	115	144	2
EXTAP	115	192	3
EXTAP	115	192	5
NMTAP	115	240	6
EXTAP	115	288	0
EXTAP	115	288	7
NMTAP	115	336	1
EXTAP	116	0	2
EXTAP	116	0	4
BRTAP	116	96	3
BRTAP	116	96	6
NMTAP	116	144	5
NMTAP	116	168	4
NMTAP	116	192	5
NMTAP	116	240	2
NMTAP	116	264	3
NMTAP	116	288	2
NMTAP	116	336	6
NMTAP	116	360	7
BRTAP	117	0	6
NMTAP	117	48	1
NMTAP	117	72	0
NMTAP	117	96	2
NMTAP	117	120	7
NMTAP	117	144	3
NMTAP	117	168	6
NMTAP	117	192	4
NMTAP	117	216	5
NMTAP	117	240	4
NMTAP	117	264	5
BRTAP	117	288	3
NMTAP	118	0	2
NMTAP	118	0	4
NMTAP	118	48	5
NMTAP	118	96	3
NMTAP	118	96	6
NMTAP	118	144	2
BRTAP	118	192	1
BRTAP	118	192	5
NMTAP	118	240	6
NMTAP	118	288	3
NMTAP	118	288	7
NMTAP	118	336	2
NMTAP	118	336	6
NMTAP	119	0	1
NMTAP	119	0	5
NMTAP	119	48	0
NMTAP	119	48	4
BRSTR	119	96	3
NMSCR	119	96	3	96	480	6
BRSTR	119	96	7
NMSCR	119	96	7	96	480	2
CNSXR	120	288	2	0	576	3
CNSXR	120	288	6	0	576	7

T_REC_TAP	353
T_REC_BRK	19
T_REC_XTP	25
T_REC_BXX	3
T_REC_HLD	57
T_REC_XHO	2
T_REC_BHO	0
T_REC_BXH	0
T_REC_STR	70
T_REC_BST	3
T_REC_XST	5
T_REC_XBS	0
T_REC_TTP	43
T_REC_THO	5
T_REC_SLD	77
T_REC_BSL	2
T_REC_ALL	664
T_NUM_TAP	496
T_NUM_BRK	27
T_NUM_HLD	64
T_NUM_SLD	77
T_NUM_ALL	664
T_JUDGE_TAP	521
T_JUDGE_HLD	264
T_JUDGE_SLD	79
T_JUDGE_ALL	864
TTM_EACHPAIRS	112
TTM_SCR_TAP	248000
TTM_SCR_BRK	70200
TTM_SCR_HLD	64000
TTM_SCR_SLD	115500
TTM_SCR_ALL	497700
TTM_SCR_S	480150
TTM_SCR_SS	495000
TTM_RAT_ACV	10054

