VERSION	0.00.00	1.04.00
FES_MODE	0
BPM_DEF	204.000	204.000	204.000	204.000
MET_DEF	4	4
RESOLUTION	384
CLK_DEF	576
COMPATIBLE_CODE	MA2

BPM	0	0	204.000
MET	0	0	4	3

NMHLD	1	192	5	288
NMHLD	2	96	4	288
NMHLD	3	0	3	288
NMTAP	3	288	2
NMTAP	4	96	1
NMHLD	4	192	1	288
NMTAP	5	0	3
NMHLD	5	96	3	288
NMTAP	5	288	4
NMHLD	6	0	4	288
NMTAP	6	192	6
NMTAP	6	288	6
NMTAP	7	96	2
NMTAP	7	96	5
NMSTR	7	192	2
NMSCL	7	192	2	96	336	5
NMTAP	7	192	5
EXHLD	9	0	4	288
NMTAP	9	288	3
NMTAP	10	0	3
NMTAP	10	0	4
NMTAP	10	96	3
NMTAP	10	96	4
BXTAP	10	192	1
BXTAP	10	192	6
NMTAP	11	96	7
NMTAP	11	192	6
NMTAP	11	288	5
NMHLD	12	0	1	192
NMTAP	12	96	3
NMTAP	12	192	3
NMTAP	12	288	2
NMTAP	12	288	4
NMTAP	13	0	5
NMTAP	13	96	5
NMTAP	13	192	0
NMTAP	13	288	1
NMTAP	14	0	2
NMHLD	14	96	6	192
NMTAP	14	192	4
NMSTR	14	288	4
NMSI_	14	288	4	96	192	7
CNSCR	15	192	7	0	96	0
CNSI_	15	288	0	0	192	3
NMHLD	16	192	6	288
NMHLD	17	96	5	288
NMSTR	18	0	4
NMSXL	18	0	4	96	384	3
NMHLD	19	192	1	288
NMHLD	20	96	2	288
NMSTR	21	0	3
NMSXR	21	0	3	96	384	4
NMHLD	22	192	6	288
NMHLD	23	96	4	288
NMHLD	24	0	3	288
NMHLD	24	288	1	288
NMSTR	25	192	3
NMSI_	25	192	3	96	96	7
NMTAP	26	96	0
NMTAP	26	192	1
NMTAP	26	192	6
NMTAP	26	288	2
NMTAP	26	288	5
NMHLD	27	0	3	96
NMHLD	27	0	4	96
EXSTR	27	192	3
NMSCL	27	192	3	96	144	0
EXSTR	27	192	4
NMSCR	27	192	4	96	144	7
BRTAP	28	192	1
NMTAP	28	288	2
NMTAP	29	0	4
NMTAP	29	96	2
NMTAP	29	96	3
NMHLD	29	192	2	96
NMHLD	29	192	3	96
NMTAP	30	0	6
NMTAP	30	96	5
NMTAP	30	192	3
NMTAP	30	288	4
NMTAP	30	288	5
NMHLD	31	0	4	96
NMHLD	31	0	5	96
NMTAP	31	192	1
NMTAP	31	288	2
NMTAP	32	0	3
NMTAP	32	96	6
NMTAP	32	192	5
NMTAP	32	288	4
NMTAP	33	0	1
NMTAP	33	96	2
NMTAP	33	192	3
NMTAP	33	288	4
NMSTR	33	288	6
NMSI_	33	288	6	96	96	2
NMTAP	34	192	1
NMTAP	34	288	1
NMHLD	35	0	1	96
NMTAP	35	96	3
NMTAP	35	192	3
NMHLD	35	288	3	96
NMTAP	36	0	4
NMTAP	36	96	4
NMHLD	36	192	4	96
NMHLD	36	288	6	192
NMTAP	37	96	5
NMSTR	37	192	5
NMSUR	37	192	5	96	192	2
NMTAP	38	96	7
NMTAP	38	288	6
NMSTR	39	0	5
NMSUR	39	0	5	96	192	2
NMSTR	39	0	6
NMSCR	39	0	6	96	192	1
NMTTP	40	192	7	E	0	M1
NMTTP	40	192	7	D	0	M1
NMTTP	41	96	5	E	0	M1
NMTTP	41	96	5	D	0	M1
NMTTP	42	0	6	E	0	M1
NMTTP	42	0	6	D	0	M1
NMTTP	42	192	2	D	0	M1
NMTTP	42	288	3	D	0	M1
NMTTP	43	192	1	E	0	M1
NMTTP	43	192	1	D	0	M1
NMTTP	44	96	3	E	0	M1
NMTTP	44	96	3	D	0	M1
NMTTP	45	0	2	E	0	M1
NMTTP	45	0	2	D	0	M1
NMTTP	45	192	6	D	0	M1
NMTTP	45	288	5	D	0	M1
NMTTP	46	192	1	A	0	M1
NMTTP	46	288	2	B	0	M1
NMTTP	47	0	4	E	0	M1
EXHLD	47	96	5	576
NMTTP	48	0	6	A	0	M1
NMTTP	48	96	5	B	0	M1
NMTTP	48	192	4	E	0	M1
EXTAP	48	288	2
NMTAP	49	192	2
NMTAP	49	192	4
NMTAP	49	288	1
NMTAP	49	288	5
NMSTR	50	0	0
NMSI_	50	0	0	96	96	3
NMSTR	50	0	6
NMSI_	50	0	6	96	96	3
NMTAP	51	0	3
NMTAP	51	0	5
NMTAP	51	96	2
NMTAP	51	96	6
NMSTR	51	192	1
NMSI_	51	192	1	96	96	4
NMSTR	51	192	7
NMSI_	51	192	7	96	96	4
NMTAP	52	192	3
NMTAP	52	192	6
NMHLD	52	288	3	96
NMHLD	52	288	6	96
NMTAP	53	96	4
NMTAP	53	96	5
NMHLD	53	192	4	96
NMHLD	53	192	5	96
NMTAP	54	0	3
NMTAP	54	0	4
NMHLD	54	96	3	96
NMHLD	54	96	4	96
NMTAP	54	288	2
NMTAP	54	288	3
NMHLD	55	0	2	96
NMHLD	55	0	3	96
NMTAP	55	192	1
NMTAP	55	192	5
NMTAP	55	288	3
NMTAP	56	0	5
NMTAP	56	96	2
NMTAP	56	96	6
NMTAP	56	192	4
NMTAP	56	288	1
NMTAP	57	0	0
NMTAP	57	0	4
NMSTR	57	96	0
NMSXL	57	96	0	96	240	0
NMSTR	57	96	4
NMSXL	57	96	4	96	240	4
BRTAP	58	192	2
BRTAP	58	192	3
NMTAP	58	288	1
NMTAP	58	336	1
NMTAP	59	0	0
NMTAP	59	96	2
NMTAP	59	96	7
NMHLD	59	192	6	96
NMTAP	59	288	7
NMTAP	60	0	4
NMTAP	60	0	5
NMTAP	60	96	6
NMTAP	60	144	6
NMTAP	60	192	7
NMTAP	60	288	0
NMTAP	60	288	5
NMHLD	61	0	2	96
NMTAP	61	96	3
NMTAP	61	192	0
NMSTR	61	192	1
NMSCR	61	192	1	96	96	4
NMSTR	62	96	6
NMSCL	62	96	6	96	96	3
NMTAP	62	96	7
EXTAP	63	0	2
NMTAP	63	96	1
NMTAP	63	192	0
NMTAP	63	192	7
NMTAP	63	288	6
NMTAP	64	0	4
NMTAP	64	0	5
NMTAP	64	96	3
NMSTR	64	192	3
NMSI_	64	192	3	96	96	7
NMTAP	65	0	5
NMSTR	65	96	5
NMSI_	65	96	5	96	96	1
NMTAP	65	288	2
NMSTR	66	0	2
NMSI_	66	0	2	96	96	6
NMTAP	66	192	4
NMSTR	66	288	4
NMSI_	66	288	4	96	96	0
NMTAP	67	96	3
NMSTR	67	192	3
NMSCL	67	192	3	96	288	7
NMSCR	67	192	3	96	288	7
NMTAP	69	0	4
NMTAP	69	0	5
NMTAP	69	96	3
NMTAP	69	96	6
NMSTR	69	192	2
NMSI_	69	192	2	96	144	6
NMSTR	69	192	7
NMSI_	69	192	7	96	144	3
NMTHO	70	192	0	288	C	1	M1
NMTTP	70	192	3	B	0	M1
NMTTP	70	192	4	B	0	M1
NMHLD	72	0	0	96
NMHLD	72	96	1	96
NMHLD	72	192	2	96
NMTAP	72	288	3
NMTAP	73	0	3
NMTAP	73	0	4
NMTAP	73	96	4
NMTAP	73	96	5
NMHLD	73	192	7	96
NMHLD	73	288	6	96
NMHLD	74	0	5	96
NMTAP	74	96	4
NMTAP	74	192	3
NMTAP	74	192	4
NMTAP	74	288	2
NMTAP	74	288	3
NMTAP	75	0	0
NMTAP	75	0	7
NMTAP	75	96	1
NMTAP	75	96	3
NMTAP	75	192	1
NMTAP	75	192	3
NMTAP	75	288	0
NMTAP	75	288	7
NMTAP	76	0	4
NMTAP	76	0	6
NMTAP	76	96	4
NMTAP	76	96	6
NMTAP	76	192	3
NMTAP	76	192	4
NMTAP	76	288	2
NMTAP	76	336	3
NMTAP	77	0	2
NMSTR	77	96	0
NMSI_	77	96	0	96	96	4
NMTAP	77	96	1
NMHLD	78	0	3	96
NMHLD	78	96	2	96
NMHLD	78	192	1	96
NMTAP	78	288	0
NMTAP	79	0	0
NMTAP	79	0	7
NMTAP	79	96	6
NMTAP	79	96	7
NMHLD	79	192	4	96
NMHLD	79	288	5	96
NMHLD	80	0	6	96
NMTAP	80	96	7
NMTAP	80	192	0
NMTAP	80	192	7
NMTAP	80	288	0
NMTAP	80	288	1
NMTAP	81	0	3
NMTAP	81	0	4
NMTAP	81	96	0
NMTAP	81	96	2
NMTAP	81	192	0
NMTAP	81	192	2
NMTAP	81	288	3
NMTAP	81	288	4
NMTAP	82	0	5
NMTAP	82	0	7
NMTAP	82	96	5
NMTAP	82	96	7
NMSTR	82	192	0
NMSCR	82	192	0	96	192	3
NMSTR	82	192	4
NMSCR	82	192	4	96	192	7
NMTHO	84	0	0	288	C	0	M1
NMSTR	85	192	1
NMSUL	85	192	1	96	192	3
CNSCR	86	96	3	0	576	0
NMSTR	88	192	7
NMSUL	88	192	7	96	192	5
CNSCL	89	96	5	0	576	0
NMSTR	91	192	1
NMSCR	91	192	1	96	192	4
NMSTR	91	192	4
NMSCR	91	192	4	96	192	7
NMSTR	93	0	3
NMSCL	93	0	3	96	192	0
NMSTR	93	0	6
NMSCL	93	0	6	96	192	3
NMSTR	94	192	3
NMSSR	94	192	3	96	288	7
NMSTR	94	192	4
NMSSL	94	192	4	96	288	0
NMTAP	96	0	2
NMTAP	96	96	4
NMTAP	96	192	3
NMTAP	96	288	2
NMTAP	96	288	5
BRTAP	97	0	0
BRTAP	97	0	7
NMTTP	97	192	0	E	1	M1
NMTAP	98	96	2
NMTAP	98	96	3
NMTAP	98	192	1
NMTAP	98	240	1
NMTAP	98	288	0
NMTAP	98	288	2
NMTAP	99	0	4
NMTAP	99	0	5
NMTAP	99	96	6
NMTAP	99	144	6
NMTAP	99	192	5
NMTAP	99	192	7
NMHLD	99	288	1	96
NMTAP	100	0	0
NMTAP	100	96	2
NMTAP	100	96	7
NMHLD	100	192	6	96
NMTAP	100	288	7
NMTAP	101	0	0
NMTAP	101	0	5
NMSTR	101	96	6
NMSCL	101	96	6	96	96	3
NMSTR	101	96	7
NMSUL	101	96	7	96	96	3
NMSTR	102	0	0
NMSUR	102	0	0	96	96	4
NMSTR	102	0	1
NMSCR	102	0	1	96	96	4
NMHLD	102	288	5	96
NMHLD	103	0	4	96
NMSTR	103	96	3
BRSI_	103	96	3	96	96	7
NMTAP	103	192	2
NMTAP	104	96	2
NMTAP	104	96	4
NMTAP	104	192	1
NMTAP	104	240	1
NMTAP	104	288	0
NMTAP	104	288	2
NMTAP	105	0	3
NMTAP	105	0	5
NMTAP	105	96	6
NMTAP	105	144	6
NMTAP	105	192	5
NMTAP	105	192	7
NMTAP	105	288	2
NMTAP	105	288	4
NMTAP	106	0	1
NMTAP	106	48	1
NMTAP	106	96	0
NMTAP	106	192	1
NMTAP	106	192	7
NMTAP	106	288	1
NMTAP	106	288	7
NMTAP	107	0	2
NMTAP	107	0	6
NMSTR	107	96	5
NMSI_	107	96	5	96	96	0
NMSTR	107	192	3
NMSI_	107	192	3	96	96	0
NMSTR	108	0	4
NMSI_	108	0	4	96	96	7
NMSTR	108	96	2
NMSI_	108	96	2	96	96	7
NMTAP	108	288	6
NMTAP	109	0	0
NMTAP	109	0	7
NMTAP	109	96	1
NMTAP	109	192	2
NMTAP	109	192	3
NMTAP	109	288	4
NMTAP	109	336	4
NMTAP	110	0	3
EXSTR	110	96	0
BRSCR	110	96	0	96	576	7
EXSTR	110	96	7
BRSCL	110	96	7	96	576	0
NMTAP	112	192	0
NMTAP	112	192	7
NMTAP	112	288	6
NMTAP	113	0	4
NMTAP	113	0	5
NMHLD	113	96	1	96
NMTAP	113	192	3
NMTAP	113	240	3
NMTAP	113	288	2
NMTAP	114	0	2
NMTAP	114	0	3
NMTAP	114	96	3
NMTAP	114	96	4
NMTAP	114	192	4
NMTAP	114	192	5
NMHLD	114	288	6	96
NMTAP	115	0	4
NMTAP	115	48	4
NMTAP	115	96	5
NMTAP	115	192	4
NMTAP	115	192	5
NMTAP	115	288	3
NMTAP	115	288	4
NMTAP	116	0	2
NMTAP	116	0	3
NMHLD	116	96	1	96
NMTAP	116	192	0
NMTAP	116	240	0
NMTAP	116	288	2
NMHLD	117	0	6	96
NMTAP	117	96	7
NMTAP	117	144	7
NMTAP	117	192	5
NMHLD	117	288	2	96
NMTAP	118	0	3
NMTAP	118	48	3
NMTAP	118	96	1
NMTAP	118	192	0
NMTAP	118	192	7
NMTAP	118	288	1
NMTAP	118	288	6
NMTAP	119	0	2
NMTAP	119	0	5
BRSTR	119	96	3
NMSUR	119	96	3	96	96	0
BRSTR	119	96	4
NMSUL	119	96	4	96	96	7
CNSCR	119	288	0	0	672	2
CNSCL	119	288	7	0	672	5

T_REC_TAP	261
T_REC_BRK	5
T_REC_XTP	2
T_REC_BXX	2
T_REC_HLD	57
T_REC_XHO	2
T_REC_BHO	0
T_REC_BXH	0
T_REC_STR	44
T_REC_BST	2
T_REC_XST	4
T_REC_XBS	0
T_REC_TTP	25
T_REC_THO	2
T_REC_SLD	48
T_REC_BSL	3
T_REC_ALL	457
T_NUM_TAP	336
T_NUM_BRK	12
T_NUM_HLD	61
T_NUM_SLD	48
T_NUM_ALL	457
T_JUDGE_TAP	345
T_JUDGE_HLD	206
T_JUDGE_SLD	51
T_JUDGE_ALL	602
TTM_EACHPAIRS	104
TTM_SCR_TAP	168000
TTM_SCR_BRK	31200
TTM_SCR_HLD	61000
TTM_SCR_SLD	72000
TTM_SCR_ALL	332200
TTM_SCR_S	321100
TTM_SCR_SS	331000
TTM_RAT_ACV	10036

