VERSION	0.00.00	1.04.00
FES_MODE	0
BPM_DEF	204.000	204.000	204.000	204.000
MET_DEF	4	4
RESOLUTION	384
CLK_DEF	576
COMPATIBLE_CODE	MA2

BPM	0	0	204.000
MET	0	0	4	3

NMTAP	10	192	5
NMTAP	10	288	5
NMTAP	11	0	5
NMTAP	11	96	5
NMTAP	12	0	4
NMTAP	12	96	4
NMTAP	12	192	4
NMTAP	12	288	4
NMTAP	13	192	3
NMTAP	13	288	3
NMTAP	14	0	3
NMTAP	14	96	3
NMTAP	15	0	2
NMTAP	15	96	2
NMTAP	15	192	2
NMTAP	15	288	2
NMTAP	15	288	3
NMHLD	16	192	2	288
NMHLD	17	96	3	288
NMHLD	18	0	4	288
NMTAP	18	288	5
NMHLD	19	192	5	288
NMHLD	20	96	4	288
NMHLD	21	0	3	288
NMTAP	21	288	2
NMHLD	22	192	1	288
NMHLD	23	96	0	288
NMHLD	24	0	7	288
NMTAP	24	288	6
NMHLD	25	192	6	288
NMHLD	26	96	7	288
NMHLD	27	0	0	288
NMTAP	27	288	1
NMTAP	28	192	1
NMTAP	28	288	1
NMTAP	29	0	1
NMTAP	29	96	0
NMTAP	29	96	1
NMTAP	30	0	2
NMTAP	30	96	2
NMTAP	30	192	2
NMTAP	30	288	2
NMTAP	30	288	3
NMTAP	31	192	4
NMTAP	31	288	4
NMTAP	32	0	4
NMTAP	32	96	4
NMTAP	32	96	5
NMTAP	33	0	6
NMTAP	33	0	7
NMTAP	33	96	6
NMTAP	33	96	7
NMTAP	33	192	6
NMTAP	33	192	7
NMTAP	33	288	6
NMTAP	33	288	7
NMTAP	34	192	6
NMTAP	34	288	6
NMTAP	35	0	6
NMTAP	35	96	6
NMTAP	35	96	7
NMTAP	36	0	5
NMTAP	36	96	5
NMTAP	36	192	5
NMTAP	36	288	4
NMTAP	36	288	5
NMTAP	37	192	3
NMTAP	37	288	3
NMTAP	38	0	3
NMTAP	38	96	2
NMTAP	38	96	3
NMTAP	39	0	0
NMTAP	39	0	1
NMTAP	39	96	0
NMTAP	39	96	1
NMTAP	39	192	0
NMTAP	39	192	1
NMTAP	39	288	0
NMTAP	39	288	1
NMSTR	40	192	1
NMSCR	40	192	1	96	480	4
NMTAP	42	288	5
NMSTR	43	192	6
NMSCL	43	192	6	96	480	3
NMTAP	45	288	2
NMSTR	46	192	1
NMSXR	46	192	1	96	768	4
NMSTR	49	192	6
NMSXL	49	192	6	96	768	3
NMTTP	52	192	2	E	0	L1
NMTTP	52	288	2	B	0	L1
NMTTP	53	0	3	B	0	L1
NMTTP	53	96	4	E	0	L1
NMTTP	54	0	6	E	0	L1
NMTTP	54	96	5	B	0	L1
NMTTP	54	192	4	B	0	L1
NMTTP	54	288	4	E	0	L1
NMTTP	55	192	2	B	0	L1
NMTTP	55	288	1	B	0	L1
NMTTP	56	0	0	B	0	L1
NMTTP	56	96	7	B	0	L1
NMTTP	56	192	6	B	0	L1
NMTTP	56	288	5	B	0	L1
NMTTP	57	0	3	B	0	L1
NMTTP	57	0	4	B	0	L1
NMTAP	58	192	2
NMTAP	58	288	2
NMTAP	59	0	2
NMTAP	59	96	1
NMTAP	59	192	1
NMTAP	59	288	1
NMTAP	60	0	0
NMTAP	60	96	0
NMTAP	60	192	0
NMTAP	60	288	6
NMTAP	60	288	7
NMTAP	61	192	5
NMTAP	61	288	5
NMTAP	62	0	5
NMTAP	62	96	6
NMTAP	62	192	6
NMTAP	62	288	6
NMTAP	63	0	7
NMTAP	63	96	7
NMTAP	63	192	7
NMTAP	63	288	0
NMTAP	63	288	1
NMTAP	64	192	1
NMTAP	64	288	1
NMTAP	65	0	1
NMTAP	65	96	2
NMTAP	65	192	2
NMTAP	65	288	2
NMTAP	66	0	3
NMTAP	66	96	3
NMTAP	66	192	3
NMTAP	66	288	4
NMTAP	66	288	5
NMTAP	67	192	6
NMTAP	67	288	6
NMTAP	68	0	6
NMTAP	68	96	5
NMTAP	68	192	5
NMTAP	68	288	5
NMTAP	69	0	4
NMTAP	69	96	4
NMTAP	69	192	4
NMTAP	69	288	2
NMTAP	69	288	3
NMHLD	70	192	3	288
NMHLD	70	192	4	288
NMTAP	72	0	5
NMTAP	72	96	5
NMTAP	72	192	5
NMTAP	72	288	6
NMTAP	72	288	7
NMTAP	73	0	6
NMTAP	73	0	7
NMTAP	73	96	6
NMTAP	73	96	7
NMTAP	73	192	0
NMTAP	73	288	0
NMTAP	74	0	0
NMTAP	74	96	0
NMTAP	74	96	1
NMTAP	75	0	2
NMTAP	75	96	2
NMTAP	75	192	2
NMTAP	75	288	0
NMTAP	75	288	1
NMTAP	76	0	0
NMTAP	76	0	1
NMTAP	76	96	0
NMTAP	76	96	1
NMTAP	76	192	7
NMTAP	76	288	7
NMTAP	77	0	7
NMTAP	77	96	6
NMTAP	77	96	7
NMTAP	78	0	6
NMTAP	78	96	6
NMTAP	78	192	6
NMTAP	78	288	4
NMTAP	78	288	5
NMTAP	79	0	4
NMTAP	79	0	5
NMTAP	79	96	4
NMTAP	79	96	5
NMTAP	79	192	3
NMTAP	79	288	3
NMTAP	80	0	3
NMTAP	80	96	2
NMTAP	80	96	3
NMTAP	81	0	1
NMTAP	81	96	1
NMTAP	81	192	1
NMTAP	81	288	2
NMTAP	81	288	3
NMTAP	82	0	2
NMTAP	82	0	3
NMTAP	82	96	2
NMTAP	82	96	3
NMTAP	82	192	4
NMTAP	82	288	4
NMTAP	83	0	4
BXTAP	83	96	4
BXTAP	83	96	5
NMHLD	84	0	3	288
NMHLD	84	0	4	288
NMHLD	85	192	2	288
NMTAP	86	96	3
NMHLD	87	0	1	288
NMTAP	87	288	0
NMHLD	88	192	6	288
NMTAP	89	96	7
NMHLD	90	0	5	288
NMTAP	90	288	4
NMSTR	91	192	6
NMSI_	91	192	6	96	384	3
NMSTR	93	0	1
NMSI_	93	0	1	96	384	4
NMSTR	94	192	6
NMSI_	94	192	6	96	384	2
NMSTR	96	0	0
NMSI_	96	0	0	96	384	4
BRTAP	98	96	5
NMTAP	98	192	5
NMTAP	98	288	5
NMTAP	99	0	6
NMTAP	99	0	7
NMTAP	99	96	6
NMTAP	99	96	7
NMTAP	99	192	6
NMTAP	99	192	7
NMTAP	99	288	0
NMTAP	100	0	1
NMTAP	100	96	2
NMTAP	100	192	2
NMTAP	100	192	3
NMTAP	101	96	2
NMTAP	101	192	2
NMTAP	101	288	2
NMTAP	102	0	0
NMTAP	102	0	1
NMTAP	102	96	0
NMTAP	102	96	1
NMTAP	102	192	0
NMTAP	102	192	1
NMTAP	102	288	7
NMTAP	103	0	6
NMTAP	103	96	5
NMTAP	103	192	4
NMTAP	103	192	5
NMTAP	104	96	6
NMTAP	104	192	6
NMTAP	104	288	6
NMTAP	105	0	4
NMTAP	105	0	5
NMTAP	105	96	4
NMTAP	105	96	5
NMTAP	105	192	4
NMTAP	105	192	5
NMTAP	105	288	3
NMTAP	106	0	2
NMTAP	106	96	1
NMTAP	106	192	0
NMTAP	106	192	1
NMTAP	107	96	1
NMTAP	107	192	1
NMTAP	107	288	1
NMTAP	108	0	2
NMTAP	108	0	3
NMTAP	108	96	2
NMTAP	108	96	3
NMTAP	108	192	2
NMTAP	108	192	3
NMTAP	108	288	4
NMTAP	109	0	5
NMTAP	109	96	6
NMTAP	109	192	6
NMTAP	109	192	7
BXTAP	110	96	6
BXTAP	110	96	7
NMTAP	110	192	5
NMTAP	110	240	5
NMTAP	110	288	5
NMTAP	111	0	4
NMTAP	111	96	3
NMTAP	111	192	2
NMTAP	111	288	0
NMTAP	111	288	1
NMTAP	112	0	0
NMTAP	112	0	1
NMTAP	112	96	0
NMTAP	112	96	1
NMTAP	112	192	2
NMTAP	112	192	7
NMTAP	113	96	0
NMTAP	113	96	1
NMTAP	113	192	2
NMTAP	113	240	2
NMTAP	113	288	2
NMTAP	114	0	3
NMTAP	114	96	4
NMTAP	114	192	5
NMTAP	114	288	6
NMTAP	114	288	7
NMTAP	115	0	6
NMTAP	115	0	7
NMTAP	115	96	6
NMTAP	115	96	7
NMTAP	115	192	0
NMTAP	115	192	5
NMTAP	116	96	6
NMTAP	116	96	7
NMTAP	116	192	5
NMTAP	116	240	5
NMTAP	116	288	5
NMTAP	117	0	4
NMTAP	117	96	3
NMTAP	117	192	2
NMTAP	117	288	0
NMTAP	117	288	1
NMTAP	118	0	0
NMTAP	118	0	1
NMTAP	118	96	0
NMTAP	118	96	1
NMTAP	118	192	2
NMTAP	118	192	7
NMTAP	118	288	3
NMTAP	118	288	6
NMTAP	119	0	4
NMTAP	119	0	5
NMSTR	119	96	4
NMSCL	119	96	4	96	768	1
NMSTR	119	96	5
NMSCR	119	96	5	96	768	0

T_REC_TAP	276
T_REC_BRK	1
T_REC_XTP	0
T_REC_BXX	4
T_REC_HLD	20
T_REC_XHO	0
T_REC_BHO	0
T_REC_BXH	0
T_REC_STR	10
T_REC_BST	0
T_REC_XST	0
T_REC_XBS	0
T_REC_TTP	16
T_REC_THO	0
T_REC_SLD	10
T_REC_BSL	0
T_REC_ALL	337
T_NUM_TAP	302
T_NUM_BRK	5
T_NUM_HLD	20
T_NUM_SLD	10
T_NUM_ALL	337
T_JUDGE_TAP	307
T_JUDGE_HLD	120
T_JUDGE_SLD	10
T_JUDGE_ALL	437
TTM_EACHPAIRS	71
TTM_SCR_TAP	151000
TTM_SCR_BRK	13000
TTM_SCR_HLD	20000
TTM_SCR_SLD	15000
TTM_SCR_ALL	199000
TTM_SCR_S	192550
TTM_SCR_SS	198500
TTM_RAT_ACV	10025

