VERSION	0.00.00	1.04.00
FES_MODE	0
BPM_DEF	204.000	204.000	204.000	204.000
MET_DEF	4	4
RESOLUTION	384
CLK_DEF	576
COMPATIBLE_CODE	MA2

BPM	0	0	204.000
MET	0	0	4	3

NMTAP	1	192	3
NMTAP	2	96	3
NMTAP	3	0	3
NMTAP	4	192	4
NMTAP	5	96	4
NMTAP	6	0	4
NMHLD	7	192	3	576
NMHLD	7	192	4	576
NMSTR	10	192	3
NMSI_	10	192	3	96	480	0
NMSTR	13	192	7
NMSI_	13	192	7	96	480	4
NMHLD	16	192	2	576
NMHLD	16	192	3	576
NMHLD	19	192	0	576
NMHLD	19	192	1	576
NMHLD	22	192	6	576
NMHLD	22	192	7	576
NMHLD	25	192	4	576
NMHLD	25	192	5	576
NMTAP	28	192	4
NMTAP	29	96	4
NMTAP	30	0	5
NMTAP	30	288	5
NMTAP	31	192	6
NMTAP	32	96	6
NMTAP	33	0	0
NMTAP	33	0	7
NMTAP	34	192	0
NMTAP	35	96	0
NMTAP	36	0	1
NMTAP	36	288	1
NMTAP	37	192	2
NMTAP	38	96	2
NMTAP	39	0	3
NMTAP	39	0	4
NMTTP	40	192	3	B	0	L1
NMTTP	42	0	4	B	0	L1
NMTTP	43	192	2	B	0	L1
NMTTP	45	0	5	B	0	L1
NMTTP	46	192	1	B	0	L1
NMTTP	48	0	6	B	0	L1
NMTTP	49	192	0	B	0	L1
NMTTP	51	0	7	B	0	L1
NMTTP	52	192	0	E	0	L1
NMTTP	54	0	0	B	0	L1
NMTTP	54	0	7	B	0	L1
NMTHO	55	192	0	576	C	1	L1
NMTAP	58	192	0
NMTAP	58	288	0
NMTAP	59	96	1
NMTAP	59	192	1
NMTAP	60	0	2
NMTAP	60	96	2
NMTAP	60	288	2
NMTAP	60	288	3
NMTAP	61	192	4
NMTAP	61	288	4
NMTAP	62	96	5
NMTAP	62	192	5
NMTAP	63	0	6
NMTAP	63	96	6
NMTAP	63	288	6
NMTAP	63	288	7
NMTAP	64	192	7
NMTAP	64	288	7
NMTAP	65	96	6
NMTAP	65	192	6
NMTAP	66	0	5
NMTAP	66	96	5
NMTAP	66	288	3
NMTAP	66	288	4
NMTAP	67	192	3
NMTAP	67	288	3
NMTAP	68	96	2
NMTAP	68	192	2
NMTAP	69	0	1
NMTAP	69	96	1
NMTAP	69	288	0
NMTAP	69	288	7
BRTAP	70	192	0
BRTAP	70	192	7
NMTAP	72	0	0
NMTAP	72	96	0
NMTAP	72	288	1
NMTAP	73	0	1
NMTAP	73	192	2
NMTAP	73	288	2
NMTAP	74	96	3
NMTAP	74	192	3
NMTAP	75	0	4
NMTAP	75	96	4
NMTAP	75	288	5
NMTAP	76	0	5
NMTAP	76	192	6
NMTAP	76	288	6
NMTAP	77	96	6
NMTAP	77	96	7
NMTAP	78	0	7
NMTAP	78	96	7
NMTAP	78	288	6
NMTAP	79	0	6
NMTAP	79	192	5
NMTAP	79	288	5
NMTAP	80	96	4
NMTAP	80	192	4
NMTAP	81	0	3
NMTAP	81	96	3
NMTAP	81	288	2
NMTAP	82	0	2
NMTAP	82	192	1
NMTAP	82	288	1
NMTAP	83	96	0
NMTAP	83	192	0
BRTAP	84	0	0
BRTAP	84	0	7
NMSTR	85	192	0
NMSI_	85	192	0	96	480	4
NMSTR	88	192	7
NMSI_	88	192	7	96	480	3
NMSTR	91	192	1
NMSI_	91	192	1	96	480	5
NMSTR	94	192	6
NMSI_	94	192	6	96	480	2
BXTAP	98	96	0
NMTAP	98	192	0
NMTAP	99	0	1
NMTAP	99	96	1
NMTAP	99	288	2
NMTAP	100	0	2
NMTAP	100	192	2
NMTAP	100	192	3
NMTAP	100	288	2
NMTAP	100	288	3
NMTAP	101	96	4
NMTAP	101	192	4
NMTAP	102	0	5
NMTAP	102	96	5
NMTAP	102	288	6
NMTAP	103	0	6
NMTAP	103	192	6
NMTAP	103	192	7
NMTAP	103	288	6
NMTAP	103	288	7
NMTAP	104	96	7
NMTAP	104	192	7
NMTAP	105	0	6
NMTAP	105	96	6
NMTAP	105	288	5
NMTAP	106	0	5
NMTAP	106	192	3
NMTAP	106	192	4
NMTAP	106	288	3
NMTAP	106	288	4
NMTAP	107	96	3
NMTAP	107	192	3
NMTAP	108	0	2
NMTAP	108	96	2
NMTAP	108	288	1
NMTAP	109	0	1
NMTAP	109	192	0
NMTAP	109	192	7
BRTAP	110	96	0
NMTAP	110	192	0
NMTAP	111	0	0
NMTAP	111	0	1
NMTAP	111	96	0
NMTAP	111	96	1
NMTAP	111	288	2
NMTAP	112	0	2
NMTAP	112	192	2
NMTAP	112	192	3
NMTAP	112	288	2
NMTAP	112	288	3
NMTAP	113	96	4
NMTAP	113	192	4
NMTAP	114	0	4
NMTAP	114	0	5
NMTAP	114	96	4
NMTAP	114	96	5
NMTAP	114	288	6
NMTAP	115	0	6
NMTAP	115	192	6
NMTAP	115	192	7
NMTAP	115	288	6
NMTAP	115	288	7
NMTAP	116	96	0
NMTAP	116	96	7
NMTAP	116	192	0
NMTAP	116	192	7
NMTAP	117	0	1
NMTAP	117	0	6
NMTAP	117	96	1
NMTAP	117	96	6
NMTAP	117	288	2
NMTAP	117	288	5
NMTAP	118	0	2
NMTAP	118	0	5
NMTAP	118	192	3
NMTAP	118	192	4
NMTAP	118	288	3
NMTAP	118	288	4
NMHLD	119	96	2	864
NMHLD	119	96	5	864

T_REC_TAP	162
T_REC_BRK	5
T_REC_XTP	0
T_REC_BXX	1
T_REC_HLD	12
T_REC_XHO	0
T_REC_BHO	0
T_REC_BXH	0
T_REC_STR	6
T_REC_BST	0
T_REC_XST	0
T_REC_XBS	0
T_REC_TTP	11
T_REC_THO	1
T_REC_SLD	6
T_REC_BSL	0
T_REC_ALL	204
T_NUM_TAP	179
T_NUM_BRK	6
T_NUM_HLD	13
T_NUM_SLD	6
T_NUM_ALL	204
T_JUDGE_TAP	185
T_JUDGE_HLD	168
T_JUDGE_SLD	6
T_JUDGE_ALL	359
TTM_EACHPAIRS	38
TTM_SCR_TAP	89500
TTM_SCR_BRK	15600
TTM_SCR_HLD	13000
TTM_SCR_SLD	9000
TTM_SCR_ALL	127100
TTM_SCR_S	122750
TTM_SCR_SS	126500
TTM_RAT_ACV	10047

