VERSION	0.00.00	1.04.00
FES_MODE	0
BPM_DEF	175.000	175.000	175.000	175.000
MET_DEF	4	4
RESOLUTION	384
CLK_DEF	384
COMPATIBLE_CODE	MA2

BPM	0	0	175.000
MET	0	0	4	4

BRSTR	2	0	3
NMSI_	2	0	3	96	96	6
BRSTR	2	0	7
NMSI_	2	0	7	96	96	2
NMTAP	2	12	2
NMTAP	2	12	6
NMTAP	2	24	1
NMTAP	2	24	5
NMTAP	2	36	0
NMTAP	2	36	4
CNSI_	2	192	2	0	144	5
CNSI_	2	192	6	0	144	1
NMTTP	3	0	0	C	1	M1
NMTTP	3	0	3	B	0	M1
NMTTP	3	0	3	A	0	M1
NMTTP	3	0	7	B	0	M1
NMTTP	3	0	7	A	0	M1
NMTAP	3	192	1
NMTAP	3	192	6
NMTAP	3	240	0
NMTAP	3	264	7
NMTAP	3	288	0
NMTAP	3	336	1
NMTAP	3	336	6
NMSTR	4	0	3
NMSI_	4	0	3	96	576	0
NMSTR	4	0	4
NMSI_	4	0	4	96	576	7
CNSCL	5	288	0	0	672	4
CNSCR	5	288	7	0	672	3
NMTAP	8	0	4
NMHLD	8	96	4	384
NMTTP	8	192	4	E	0	M1
NMTAP	9	0	3
NMHLD	9	96	2	384
NMTTP	9	192	4	E	0	M1
NMTAP	10	0	4
NMHLD	10	96	5	288
NMTTP	10	192	4	E	0	M1
BRHLD	11	0	3	96
NMHLD	11	96	4	48
NMHLD	11	120	3	48
NMHLD	11	192	4	48
NMHLD	11	216	3	48
NMSTR	11	288	4
BRSCR	11	288	4	96	48	7
NMHLD	12	0	0	2688
NMSTR	12	0	4
NMSI_	12	0	4	96	48	2
CNSV_	12	144	2	0	144	1
CNSI_	12	288	1	0	96	7
CNSLL	13	0	7	0	960	3
NMTAP	16	0	3
NMTAP	16	96	3
NMTAP	16	192	2
NMTAP	16	288	2
NMTAP	17	0	1
NMTAP	17	96	1
NMTAP	17	192	7
NMTAP	17	288	7
NMTAP	18	0	6
NMTAP	18	96	6
NMTAP	18	192	5
NMTAP	18	288	5
NMSTR	19	0	4
NMSI_	19	0	4	96	48	1
NMSTR	19	96	0
NMSI_	19	96	0	96	48	6
CNSV_	19	240	6	0	72	3
NMHLD	20	0	2	48
NMHLD	20	0	4	48
NMHLD	20	72	2	48
NMHLD	20	72	4	48
NMHLD	20	144	3	48
NMHLD	20	144	5	48
NMHLD	20	216	4	48
NMHLD	20	216	6	48
NMTAP	20	288	5
NMTAP	20	336	5
NMHLD	21	0	4	48
NMHLD	21	0	6	48
NMHLD	21	72	3	48
NMHLD	21	72	5	48
NMHLD	21	144	2	48
NMHLD	21	144	4	48
NMHLD	21	216	1	48
NMHLD	21	216	3	48
NMTAP	21	288	0
NMTAP	21	336	0
NMHLD	22	0	1	48
NMHLD	22	0	3	48
NMHLD	22	72	2	48
NMHLD	22	72	4	48
NMHLD	22	144	3	48
NMHLD	22	144	5	48
NMHLD	22	216	4	48
NMHLD	22	216	6	48
NMTAP	22	288	5
NMTAP	22	336	5
NMHLD	23	0	4	48
NMHLD	23	0	6	48
NMHLD	23	72	3	48
NMHLD	23	72	5	48
NMTAP	23	144	2
NMTAP	23	144	4
NMSTR	23	192	2
BRSI_	23	192	2	96	48	6
NMTAP	23	192	4
NMTAP	23	264	5
NMTAP	23	336	7
NMHLD	24	0	5	48
NMHLD	24	0	7	48
NMHLD	24	72	4	24
NMHLD	24	72	6	48
NMHLD	24	144	3	48
NMHLD	24	144	5	48
NMHLD	24	216	2	24
NMHLD	24	216	4	48
NMTAP	24	288	1
NMTAP	24	336	1
NMHLD	25	0	0	48
NMHLD	25	0	2	48
NMHLD	25	72	1	24
NMHLD	25	72	3	48
NMHLD	25	144	2	48
NMHLD	25	144	4	48
NMHLD	25	216	3	48
NMHLD	25	216	5	24
NMTAP	25	288	6
NMTAP	25	336	6
NMHLD	26	0	5	48
NMHLD	26	0	7	48
NMTAP	26	72	0
NMTAP	26	96	6
NMHLD	26	144	0	48
NMHLD	26	144	2	48
NMTAP	26	216	7
NMTAP	26	240	1
NMTAP	26	288	3
NMTAP	26	288	5
NMTAP	26	336	2
NMTAP	26	336	4
NMTAP	27	0	3
NMTAP	27	24	4
NMSTR	27	72	2
NMSXL	27	72	2	96	120	7
NMSTR	27	72	5
NMSXR	27	72	5	96	120	0
NMTAP	27	144	2
NMTAP	27	144	5
BRSTR	28	0	1
NMSI_	28	0	1	96	48	3
BRSTR	28	0	7
NMSI_	28	0	7	96	48	3
NMSTR	28	96	1
NMSI_	28	96	1	96	48	5
NMTAP	28	96	7
NMTAP	28	192	1
NMTAP	28	192	6
NMTAP	28	288	7
NMTAP	28	336	7
NMTAP	29	0	2
NMTAP	29	24	6
NMTAP	29	48	2
NMTAP	29	72	6
NMTAP	29	96	1
NMTAP	29	120	5
NMTAP	29	144	1
NMTAP	29	168	5
NMSTR	29	192	0
NMSI_	29	192	0	96	48	4
NMTAP	29	240	4
NMTAP	29	288	0
NMTAP	30	0	3
NMSTR	30	0	5
NMSCR	30	0	5	96	48	0
NMSTR	30	96	1
NMSCR	30	96	1	96	48	4
NMTAP	30	96	5
NMTAP	30	192	1
NMSTR	30	192	4
NMSUL	30	192	4	96	72	7
NMTAP	30	288	6
NMTAP	30	336	6
NMTAP	31	0	6
NMTAP	31	24	5
NMTAP	31	48	4
NMTAP	31	72	3
NMTAP	31	96	0
NMTAP	31	120	1
NMTAP	31	144	2
NMTAP	31	168	3
NMTAP	31	192	7
NMTAP	31	240	7
BRTAP	31	288	1
BRTAP	31	288	5
NMSTR	32	0	0
NMSI_	32	0	0	96	48	4
NMSTR	32	0	6
NMSI_	32	0	6	96	48	4
NMTAP	32	96	0
NMSTR	32	96	6
NMSI_	32	96	6	96	48	2
NMTAP	32	192	1
NMTAP	32	192	6
NMTAP	32	288	0
NMTAP	32	336	0
NMTAP	33	0	5
NMTAP	33	24	1
NMTAP	33	48	5
NMTAP	33	72	1
NMTAP	33	96	6
NMTAP	33	120	2
NMTAP	33	144	6
NMTAP	33	168	2
NMSTR	33	192	7
NMSI_	33	192	7	96	48	3
NMTAP	33	240	3
NMTAP	33	288	7
NMSTR	34	0	2
NMSCL	34	0	2	96	48	7
NMTAP	34	0	4
NMTAP	34	96	2
NMSTR	34	96	6
NMSCL	34	96	6	96	48	3
NMSTR	34	192	3
NMSUR	34	192	3	96	72	0
NMTAP	34	192	6
NMTAP	34	288	1
NMTAP	34	336	1
NMTAP	35	0	1
NMTAP	35	24	2
NMTAP	35	48	3
NMTAP	35	72	4
NMTAP	35	96	7
NMTAP	35	120	6
NMTAP	35	144	5
NMTAP	35	168	4
NMSTR	35	192	3
BRSI_	35	192	3	96	48	6
NMSTR	35	192	7
BRSI_	35	192	7	96	48	2
EXHLD	36	0	2	48
NMTAP	36	48	4
NMHLD	36	72	3	48
NMTAP	36	120	5
NMHLD	36	144	4	48
NMTAP	36	192	6
NMHLD	36	216	5	48
NMTAP	36	264	7
NMTAP	36	288	5
NMTAP	36	336	5
NMHLD	37	0	6	48
NMTAP	37	48	4
NMHLD	37	72	5	48
NMTAP	37	120	3
NMHLD	37	144	4	48
NMTAP	37	192	2
NMHLD	37	216	3	48
NMTAP	37	264	1
NMTAP	37	288	3
NMTAP	37	336	0
NMTAP	37	336	4
NMHLD	38	0	1	48
NMTAP	38	48	0
NMHLD	38	72	2	48
NMTAP	38	120	7
NMHLD	38	144	3	48
NMTAP	38	192	6
NMHLD	38	216	4	48
NMTAP	38	264	5
NMTAP	38	288	4
NMTAP	38	336	5
NMHLD	39	0	6	48
NMTAP	39	48	7
NMHLD	39	72	5	48
NMTAP	39	120	0
NMHLD	39	144	4	48
NMTAP	39	192	1
NMHLD	39	216	3	48
NMTAP	39	264	2
NMTAP	39	288	3
NMTAP	39	336	2
NMTAP	39	336	4
EXHLD	40	0	5	48
NMTAP	40	48	4
NMTAP	40	72	5
NMTAP	40	96	3
NMTAP	40	120	4
NMHLD	40	144	2	48
NMTAP	40	192	3
NMTAP	40	216	2
NMTAP	40	240	4
NMTAP	40	264	3
NMTAP	40	288	5
NMTAP	40	336	4
NMTAP	40	336	5
NMHLD	41	0	6	48
NMTAP	41	48	7
NMTAP	41	72	6
NMTAP	41	96	0
NMTAP	41	120	7
NMHLD	41	144	1	48
NMTAP	41	192	0
NMTAP	41	216	1
NMTAP	41	240	7
NMTAP	41	264	0
NMHLD	41	288	6	48
NMTAP	41	336	7
NMHLD	42	0	0	48
NMTAP	42	0	5
NMTAP	42	48	4
NMTAP	42	72	1
NMTAP	42	96	3
NMTAP	42	120	2
NMHLD	42	144	5	48
NMTAP	42	192	3
NMTAP	42	216	7
NMTAP	42	240	3
NMTAP	42	264	7
NMSTR	42	288	0
NMSXR	42	288	0	96	288	5
NMSTR	42	288	4
NMSXR	42	288	4	96	288	1
NMTAP	42	336	0
NMTAP	42	336	4
NMTAP	43	0	0
NMTAP	43	0	4
BRTAP	44	0	2
BRTAP	44	0	6
NMTAP	44	96	3
NMTAP	44	96	4
NMTAP	44	144	5
NMTAP	44	168	5
NMTAP	44	192	3
NMTAP	44	216	4
NMTAP	44	240	2
NMSTR	44	288	1
BRSI_	44	288	1	96	48	3
NMTAP	44	288	5
NMTAP	44	336	0
NMTAP	44	336	6
BRTAP	45	0	1
BRSTR	45	0	5
NMSLL	45	0	5	96	192	1
NMTAP	45	192	1
CNSLL	45	288	1	0	192	5
NMSTR	46	0	5
NMSLL	46	0	5	96	192	1
NMTAP	46	192	1
CNSLL	46	288	1	0	192	5
NMTAP	46	288	3
NMSTR	47	0	5
NMSLL	47	0	5	96	192	1
NMTAP	47	192	1
CNSLL	47	288	1	0	192	5
NMHLD	48	0	3	192
NMHLD	48	192	4	192
NMTAP	48	288	3
NMSTR	49	0	2
NMSCL	49	0	2	96	384	2
NMTAP	49	192	6
NMSTR	50	0	2
NMSCL	50	0	2	96	384	2
NMTAP	50	192	6
NMTAP	50	288	4
NMSTR	51	0	2
NMSCL	51	0	2	96	384	2
NMTAP	51	192	6
NMHLD	52	0	6	192
NMHLD	52	192	4	96
NMHLD	52	288	3	96
NMSTR	53	0	1
NMSLR	53	0	1	96	192	5
NMTAP	53	96	7
NMTAP	53	144	6
NMSTR	53	192	5
NMSLR	53	192	5	96	192	1
NMTAP	53	288	3
NMSTR	54	0	1
NMSLR	54	0	1	96	192	5
NMSTR	54	192	5
NMSLR	54	192	5	96	192	1
NMTAP	54	288	3
NMTAP	54	336	2
NMSTR	55	0	1
NMSLR	55	0	1	96	192	5
NMSTR	55	192	5
NMSLR	55	192	5	96	192	1
NMTAP	55	288	3
NMTAP	55	336	2
NMTAP	56	0	1
NMTTP	56	96	4	E	0	M1
NMTTP	56	120	5	E	0	M1
NMTTP	56	144	6	E	0	M1
NMTTP	56	168	7	E	0	M1
NMTTP	56	192	0	E	0	M1
NMTTP	56	216	1	E	0	M1
NMTTP	56	240	2	E	0	M1
NMTTP	56	264	3	E	0	M1
NMTTP	56	288	0	C	0	M1
NMTTP	56	288	4	E	0	M1
NMTAP	57	0	2
NMSTR	57	0	6
NMSLL	57	0	6	96	192	2
NMTAP	57	96	0
NMTAP	57	144	1
NMSTR	57	192	2
NMSLL	57	192	2	96	192	6
NMTAP	57	288	7
NMSTR	58	0	6
NMSLL	58	0	6	96	192	2
NMTAP	58	144	2
NMSTR	58	192	2
NMSLL	58	192	2	96	192	6
NMTAP	58	288	4
NMSTR	59	0	6
NMSLL	59	0	6	96	192	2
NMTAP	59	192	2
NMSTR	59	288	1
BRSI_	59	288	1	96	48	7
NMSTR	60	0	7
BRSI_	60	0	7	96	48	3
NMTAP	60	48	6
NMSTR	60	96	5
NMSSR	60	96	5	96	96	1
NMHLD	61	0	1	384
NMHLD	61	0	7	96
NMHLD	61	144	5	96
NMSTR	61	288	3
NMSI_	61	288	3	96	48	5
NMSTR	62	0	3
NMSCL	62	0	3	96	96	7
NMTAP	62	96	6
NMTAP	62	144	5
NMHLD	62	192	4	192
NMTTP	62	288	5	B	0	M1
NMTTP	62	288	6	B	0	M1
NMHLD	63	0	2	144
NMTAP	63	96	3
NMHLD	63	144	3	144
NMTAP	63	240	4
NMSTR	63	288	4
NMSI_	63	288	4	96	48	2
NMTAP	63	336	4
CNSI_	64	48	2	0	48	0
CNSI_	64	96	0	0	96	6
NMTAP	64	192	5
NMTAP	64	240	4
NMTAP	64	288	3
EXTAP	65	0	2
EXHLD	65	0	4	144
NMTAP	65	96	3
NMSTR	65	144	3
NMSLL	65	144	3	96	192	5
NMTAP	65	192	3
NMTAP	65	288	5
NMSTR	65	336	5
NMSI_	65	336	5	96	96	0
NMTAP	66	144	7
NMTAP	66	192	7
NMTAP	66	240	6
NMTAP	66	288	5
EXHLD	67	0	3	96
NMTAP	67	0	4
NMSTR	67	96	2
NMSLL	67	96	2	96	96	6
NMTAP	67	144	2
NMTAP	67	240	3
CNSI_	67	288	6	0	48	4
NMSTR	67	336	1
NMSUR	67	336	1	96	96	5
NMTAP	68	48	6
NMTAP	68	96	6
NMSTR	68	192	7
NMSI_	68	192	7	96	48	3
NMTAP	69	0	0
NMHLD	69	0	4	192
NMTAP	69	96	0
NMTAP	69	144	1
NMHLD	69	192	2	384
NMTAP	69	288	3
NMTAP	69	336	3
NMTAP	70	48	1
NMTAP	70	96	1
NMHLD	70	192	4	192
NMTTP	70	288	4	E	0	M1
NMTTP	70	300	5	E	0	M1
NMTTP	70	312	6	E	0	M1
NMTTP	70	324	7	E	0	M1
NMTTP	70	336	0	E	0	M1
NMTTP	70	348	1	E	0	M1
NMTTP	70	360	2	E	0	M1
NMTTP	70	372	3	E	0	M1
EXHLD	71	0	3	240
NMTAP	71	96	5
NMHLD	71	144	5	96
NMTAP	71	288	2
NMTAP	71	288	4
NMHLD	71	336	1	192
NMTAP	71	336	3
NMTTP	72	48	0	C	0	M1
NMTTP	72	192	7	A	0	M1
NMTTP	72	216	6	A	0	M1
NMTTP	72	240	5	A	0	M1
NMTTP	72	264	4	A	0	M1
NMTTP	72	288	0	A	0	M1
NMTTP	72	312	1	A	0	M1
NMTTP	72	336	2	A	0	M1
NMTTP	72	360	3	A	0	M1
NMHLD	73	0	5	384
NMTAP	73	96	4
NMTTP	73	144	5	E	0	M1
NMTAP	73	240	4
NMTAP	73	288	3
NMTAP	73	336	2
NMHLD	74	0	1	96
NMTAP	74	96	3
NMTTP	74	144	4	B	0	M1
NMTTP	74	168	5	B	0	M1
NMTTP	74	192	6	E	0	M1
NMTAP	74	240	3
NMTAP	74	288	2
NMTAP	74	336	1
NMHLD	75	0	0	288
NMTAP	75	0	7
NMTAP	75	96	1
NMTAP	75	144	1
NMTAP	75	192	2
NMTAP	75	240	3
NMSTR	75	288	4
NMSI_	75	288	4	96	96	0
NMTAP	75	336	5
NMHLD	76	0	6	288
NMTAP	76	288	1
NMTAP	76	300	2
NMTAP	76	312	3
NMTAP	76	324	4
NMTAP	76	336	5
NMTAP	76	348	6
NMTAP	76	360	7
NMTAP	76	372	0
BRSTR	77	0	1
NMSV_	77	0	1	96	48	4
BRSTR	77	0	7
NMSV_	77	0	7	96	48	4
NMTAP	77	96	1
NMSTR	77	96	7
NMSI_	77	96	7	96	48	2
NMTAP	77	192	3
NMTAP	77	192	7
CNSI_	77	240	2	0	48	6
NMTAP	77	288	1
NMTAP	77	336	1
NMTAP	78	0	6
NMTAP	78	24	3
NMTAP	78	48	5
NMTAP	78	72	4
NMTAP	78	96	7
NMTAP	78	120	2
NMSTR	78	144	5
NMSV_	78	144	5	96	48	0
NMTAP	78	168	4
NMSTR	78	192	6
NMSI_	78	192	6	96	48	3
NMTAP	78	240	5
NMTAP	78	288	6
NMSTR	79	0	1
NMSCR	79	0	1	96	48	4
NMSTR	79	0	4
NMSCR	79	0	4	96	48	7
NMTAP	79	96	1
NMSTR	79	96	4
NMSXR	79	96	4	96	96	0
EXTAP	79	192	0
EXTAP	79	192	4
NMTAP	79	288	7
NMTAP	79	336	5
NMTAP	80	0	0
NMTAP	80	0	3
NMTAP	80	24	4
NMTAP	80	48	5
NMTAP	80	72	6
NMTAP	80	96	3
NMTAP	80	96	7
NMTAP	80	120	0
NMTAP	80	144	1
NMTAP	80	168	2
NMSTR	80	192	3
NMSCR	80	192	3	96	48	6
NMSTR	80	192	7
NMSCR	80	192	7	96	48	2
NMTAP	80	240	0
NMTAP	80	240	4
NMTAP	80	288	3
NMTAP	80	288	7
BXSTR	81	0	0
NMSV_	81	0	0	96	48	3
BXSTR	81	0	6
NMSV_	81	0	6	96	48	3
NMSTR	81	96	0
NMSI_	81	96	0	96	48	5
NMTAP	81	96	6
NMTAP	81	192	0
NMTAP	81	192	7
CNSI_	81	240	5	0	48	1
NMTAP	81	288	6
NMTAP	81	336	6
NMTAP	82	0	1
NMTAP	82	24	4
NMTAP	82	48	2
NMTAP	82	72	3
NMTAP	82	96	0
NMTAP	82	120	5
NMSTR	82	144	2
NMSV_	82	144	2	96	48	7
NMTAP	82	168	3
NMSTR	82	192	1
NMSI_	82	192	1	96	48	4
NMTAP	82	240	2
NMTAP	82	288	1
NMSTR	83	0	3
NMSCL	83	0	3	96	48	0
NMSTR	83	0	6
NMSCL	83	0	6	96	48	3
NMSTR	83	96	3
NMSXL	83	96	3	96	96	7
NMTAP	83	96	6
EXTAP	83	192	3
EXTAP	83	192	7
NMHLD	83	288	1	48
NMTAP	84	0	0
NMTAP	84	24	0
NMTAP	84	48	2
NMTAP	84	72	2
NMTAP	84	96	4
NMTAP	84	120	4
NMTAP	84	144	6
NMTAP	84	168	6
NMTAP	84	192	0
BRTAP	84	216	0
NMTAP	84	264	1
NMTAP	84	264	7
NMTAP	84	312	5
NMTAP	84	336	4
NMTAP	84	360	5
BRSTR	85	0	3
NMSCL	85	0	3	96	48	0
BRSTR	85	0	6
NMSCR	85	0	6	96	48	0
NMTAP	85	96	3
NMSTR	85	96	6
NMSCL	85	96	6	96	48	3
NMTAP	85	192	6
NMTAP	85	192	7
CNSI_	85	240	3	0	48	7
NMTAP	85	288	2
NMTAP	85	336	2
NMTAP	86	0	7
NMTAP	86	24	2
NMTAP	86	48	0
NMTAP	86	72	1
NMTAP	86	96	6
NMTAP	86	120	3
NMSTR	86	144	5
NMSI_	86	144	5	96	48	1
NMTAP	86	168	4
NMSTR	86	192	7
NMSI_	86	192	7	96	48	3
NMTAP	86	240	5
NMTAP	86	288	7
NMSTR	87	0	0
NMSCR	87	0	0	96	48	3
NMSTR	87	0	4
NMSCR	87	0	4	96	48	7
NMTAP	87	96	0
NMSTR	87	96	4
NMSXR	87	96	4	96	96	1
EXTAP	87	192	0
EXTAP	87	192	4
NMTAP	87	288	7
NMTAP	87	336	5
NMTAP	88	0	0
NMTAP	88	0	3
NMTAP	88	24	1
NMTAP	88	24	4
NMTAP	88	48	2
NMTAP	88	48	5
NMTAP	88	72	3
NMTAP	88	72	6
NMTAP	88	96	4
NMTAP	88	96	7
NMTAP	88	120	5
NMTAP	88	144	6
NMTAP	88	168	7
NMSTR	88	192	0
NMSI_	88	192	0	96	48	3
NMSTR	88	192	3
NMSI_	88	192	3	96	48	6
NMTAP	88	240	1
NMTAP	88	240	4
NMTAP	88	288	0
NMTAP	88	288	3
NMTAP	89	0	2
NMTAP	89	24	2
NMTAP	89	48	6
NMTAP	89	72	6
NMTAP	89	96	4
NMTAP	89	120	4
NMTAP	89	144	0
NMTAP	89	168	0
NMSTR	89	192	2
NMSI_	89	192	2	96	48	7
NMTAP	89	216	2
NMTAP	89	240	6
NMTAP	89	264	6
NMTAP	89	288	2
NMTAP	90	0	5
NMTAP	90	24	5
NMTAP	90	48	3
NMTAP	90	72	3
NMTAP	90	96	1
NMTAP	90	120	1
NMTAP	90	144	5
NMTAP	90	168	5
NMSTR	90	192	7
NMSI_	90	192	7	96	48	3
NMTAP	90	216	7
NMTAP	90	240	1
NMTAP	90	264	1
NMTAP	90	288	7
NMTAP	91	0	2
NMTAP	91	24	6
NMTAP	91	48	0
NMTAP	91	72	4
NMTAP	91	96	3
NMTAP	91	120	5
NMTAP	91	144	1
NMTAP	91	168	7
NMTAP	91	192	0
NMTAP	91	216	4
NMTAP	91	240	2
NMTAP	91	264	6
NMTAP	91	288	0
NMTAP	91	300	7
NMTAP	91	312	6
NMTAP	91	324	5
NMTAP	91	336	4
NMTAP	91	348	3
NMTAP	91	360	2
NMTAP	91	372	1
NMTAP	92	0	0
NMHLD	92	0	7	48
NMHLD	92	72	0	48
NMHLD	92	72	6	48
NMTAP	92	144	1
NMTAP	92	144	5
NMSTR	92	192	1
NMSV_	92	192	1	96	48	4
NMSTR	92	192	5
NMSI_	92	192	5	96	48	0
NMTAP	92	240	2
NMTAP	92	240	6
BRTAP	92	288	1
BRTAP	92	288	5
NMTAP	93	0	2
NMTAP	93	0	6
NMTAP	93	48	1
NMTAP	93	72	0
NMTAP	93	96	1
NMSTR	93	144	5
NMSI_	93	144	5	96	48	7
NMTAP	93	168	3
NMSTR	93	192	7
NMSI_	93	192	7	96	48	2
NMSI_	93	192	7	96	48	3
NMTAP	93	216	0
NMTAP	93	240	5
NMTAP	94	0	1
NMTAP	94	0	4
NMTAP	94	48	2
NMTAP	94	72	3
NMTAP	94	96	2
NMSTR	94	144	1
NMSI_	94	144	1	96	48	3
NMSTR	94	144	4
BRSI_	94	144	4	96	48	0
NMSTR	94	192	0
NMSCL	94	192	0	96	48	5
NMTAP	94	192	5
NMTAP	95	0	3
NMTAP	95	0	4
NMTAP	95	48	5
NMTAP	95	72	4
NMTAP	95	96	6
NMSTR	95	144	2
NMSI_	95	144	2	96	48	0
NMTAP	95	168	4
NMSTR	95	192	0
NMSI_	95	192	0	96	48	4
NMSI_	95	192	0	96	48	5
NMTAP	95	216	7
NMTAP	95	240	2
NMTAP	96	0	3
NMTAP	96	0	6
NMTAP	96	48	5
NMTAP	96	72	4
NMSTR	96	96	6
NMSI_	96	96	6	96	48	2
NMSTR	96	144	0
BRSI_	96	144	0	96	48	4
NMSTR	96	192	6
NMSCL	96	192	6	96	48	3
BRTAP	96	240	0
BRTAP	96	288	6
NMTAP	97	0	0
NMTAP	97	0	4
NMTAP	97	48	6
NMTAP	97	72	7
NMTAP	97	96	6
NMSTR	97	144	1
NMSI_	97	144	1	96	48	3
NMTAP	97	168	7
NMSTR	97	192	3
NMSI_	97	192	3	96	48	6
NMSI_	97	192	3	96	48	7
NMTAP	97	216	5
NMTAP	97	240	1
NMTAP	98	0	0
NMTAP	98	0	5
NMTAP	98	48	6
NMTAP	98	72	7
NMTAP	98	96	5
NMSTR	98	144	0
NMSCR	98	144	0	96	48	3
NMSTR	98	144	4
BRSI_	98	144	4	96	48	0
NMSTR	98	192	0
NMSCL	98	192	0	96	48	5
NMTAP	98	192	4
BRTAP	99	0	1
BRTAP	99	0	4
NMTAP	99	48	2
NMTAP	99	72	3
NMTAP	99	96	2
NMTAP	99	144	1
NMTAP	99	144	5
NMTAP	99	192	6
NMTAP	99	216	2
NMTAP	99	240	6
NMTAP	99	264	2
NMTAP	99	288	7
NMTAP	99	312	1
NMTAP	99	336	7
NMTAP	99	360	1
NMTAP	100	0	6
NMTAP	100	16	5
NMTAP	100	32	4
NMTAP	100	48	0
NMTAP	100	64	1
NMTAP	100	80	2
NMSTR	100	96	7
BRSCR	100	96	7	96	24	1
NMTAP	100	112	6
NMTAP	100	128	5
NMTAP	100	144	1
NMTAP	100	160	2
NMTAP	100	176	3
BRTAP	100	192	7
CNSI_	100	216	1	0	24	3
CNSCR	100	240	3	0	48	5
BRTAP	100	288	0
NMTAP	101	0	2
NMTAP	101	24	3
NMTAP	101	48	2
NMTAP	101	72	4
NMTAP	101	96	3
NMTAP	101	120	4
NMTAP	101	144	1
NMTAP	101	168	3
NMTAP	101	192	2
NMTAP	101	216	5
NMTAP	101	240	3
NMTAP	101	264	4
NMTAP	101	288	0
NMTAP	101	304	1
NMTAP	101	320	2
NMTAP	101	336	3
BRTAP	101	336	6
NMTAP	102	0	5
NMTAP	102	24	4
NMTAP	102	48	5
NMTAP	102	72	3
NMTAP	102	96	4
NMTAP	102	120	3
NMTAP	102	144	6
NMTAP	102	168	4
NMTAP	102	192	5
NMTAP	102	216	2
NMTAP	102	240	4
NMTAP	102	264	3
NMTAP	102	288	6
NMTAP	102	304	5
NMTAP	102	320	4
BRTAP	102	336	2
NMTAP	102	336	3
NMTAP	103	0	1
NMTAP	103	24	0
NMTAP	103	48	2
NMTAP	103	72	6
NMTAP	103	96	7
NMTAP	103	120	5
NMTAP	103	144	1
NMTAP	103	168	3
NMTAP	103	192	2
NMTAP	103	216	6
NMTAP	103	240	4
NMTAP	103	264	5
NMTAP	103	288	1
NMTAP	103	304	2
NMTAP	103	320	3
NMTAP	103	336	4
BRTAP	103	336	5
NMTAP	104	0	6
NMTAP	104	24	7
NMTAP	104	48	5
NMTAP	104	72	1
NMTAP	104	96	0
NMTAP	104	120	2
NMTAP	104	144	6
NMTAP	104	168	4
NMTAP	104	192	5
NMTAP	104	216	1
NMTAP	104	240	3
NMTAP	104	264	2
BXTAP	104	288	7
BRTAP	105	0	0
NMHLD	105	0	6	48
NMTAP	105	12	1
NMTAP	105	24	2
BRTAP	105	72	1
NMHLD	105	72	6	48
NMTAP	105	84	2
NMTAP	105	96	3
BRTAP	105	144	2
NMHLD	105	144	7	48
NMTAP	105	156	3
NMTAP	105	168	4
BRTAP	105	216	2
NMHLD	105	216	7	48
NMTAP	105	228	3
NMTAP	105	240	4
NMTAP	105	288	3
NMTAP	105	288	7
NMTAP	105	336	0
NMTAP	105	336	2
NMHLD	106	0	1	48
BRTAP	106	0	7
NMTAP	106	12	6
NMTAP	106	24	5
NMHLD	106	72	1	48
BRTAP	106	72	6
NMTAP	106	84	5
NMTAP	106	96	4
NMHLD	106	144	0	48
BRTAP	106	144	5
NMTAP	106	156	4
NMTAP	106	168	3
NMHLD	106	216	0	48
BRTAP	106	216	5
NMTAP	106	228	4
NMTAP	106	240	3
NMTAP	106	288	0
NMTAP	106	288	4
NMTAP	106	336	5
NMTAP	106	336	7
BRHLD	107	0	1	12
NMTAP	107	24	0
NMTAP	107	48	2
BRHLD	107	72	6	12
NMTAP	107	96	7
NMTAP	107	120	5
BRHLD	107	144	1	12
NMTAP	107	168	4
NMTAP	107	192	2
NMTAP	107	208	3
NMTAP	107	224	2
NMTAP	107	240	3
NMTAP	107	256	2
NMTAP	107	272	3
NMTAP	107	288	1
NMTAP	107	288	4
NMTAP	107	336	6
NMTAP	107	336	7
BRTAP	108	0	6
BRHLD	108	0	7	48
NMTAP	108	12	5
NMTAP	108	24	4
NMTAP	108	36	3
BRHLD	108	72	0	48
BRTAP	108	72	1
NMTAP	108	84	2
NMTAP	108	96	3
NMTAP	108	108	4
BRTAP	108	144	3
BRTAP	108	144	7
NMTAP	108	156	2
NMTAP	108	156	6
NMTAP	108	168	1
NMTAP	108	168	5
NMTAP	108	180	0
NMTAP	108	180	4
NMTAP	108	192	3
NMTAP	108	192	7

T_REC_TAP	580
T_REC_BRK	29
T_REC_XTP	7
T_REC_BXX	1
T_REC_HLD	109
T_REC_XHO	5
T_REC_BHO	6
T_REC_BXH	0
T_REC_STR	96
T_REC_BST	9
T_REC_XST	0
T_REC_XBS	2
T_REC_TTP	41
T_REC_THO	0
T_REC_SLD	99
T_REC_BSL	11
T_REC_ALL	995
T_NUM_TAP	724
T_NUM_BRK	58
T_NUM_HLD	114
T_NUM_SLD	99
T_NUM_ALL	995
T_JUDGE_TAP	765
T_JUDGE_HLD	264
T_JUDGE_SLD	110
T_JUDGE_ALL	1139
TTM_EACHPAIRS	146
TTM_SCR_TAP	362000
TTM_SCR_BRK	150800
TTM_SCR_HLD	114000
TTM_SCR_SLD	148500
TTM_SCR_ALL	775300
TTM_SCR_S	746450
TTM_SCR_SS	769500
TTM_RAT_ACV	10075

