VERSION	0.00.00	1.04.00
FES_MODE	0
BPM_DEF	175.000	175.000	175.000	175.000
MET_DEF	4	4
RESOLUTION	384
CLK_DEF	384
COMPATIBLE_CODE	MA2

BPM	0	0	175.000
MET	0	0	4	4

NMSTR	2	0	2
NMSLL	2	0	2	96	288	5
NMSTR	2	0	6
NMSLL	2	0	6	96	288	1
NMHLD	3	192	1	72
NMHLD	3	192	6	72
EXTAP	3	288	1
EXTAP	3	288	6
EXTAP	3	336	2
EXTAP	3	336	5
BRSTR	4	0	3
NMSCL	4	0	3	96	672	4
BRSTR	4	0	4
NMSCR	4	0	4	96	672	3
CNSSR	6	0	3	0	576	7
CNSSL	6	0	4	0	576	0
NMHLD	8	0	5	144
NMHLD	8	144	4	144
NMTAP	8	288	3
NMHLD	9	0	2	288
NMTAP	9	144	4
NMTAP	9	192	4
NMSTR	9	288	6
NMSCL	9	288	6	96	240	0
NMHLD	11	0	1	96
NMHLD	11	0	6	168
NMTAP	11	240	0
NMTAP	11	240	7
NMTAP	11	288	0
NMTAP	11	288	7
NMTHO	12	0	0	1344	C	0	M1
NMTTP	12	0	2	E	0	M1
NMTTP	12	0	6	E	0	M1
NMTAP	16	0	6
NMTAP	16	96	4
NMTAP	16	96	5
NMTAP	16	192	3
NMTAP	16	192	4
NMTAP	16	288	2
NMTAP	16	288	3
NMTAP	17	0	1
NMTAP	17	96	2
NMTAP	17	96	3
NMTAP	17	192	3
NMTAP	17	192	4
NMTAP	17	288	4
NMTAP	17	288	5
NMTAP	18	0	4
NMTAP	18	0	6
NMTAP	18	96	3
NMTAP	18	96	4
NMTAP	18	192	1
NMTAP	18	192	3
NMTAP	18	288	3
NMTAP	18	288	4
NMTAP	19	0	4
NMTAP	19	0	6
NMSTR	19	96	3
NMSCL	19	96	3	96	96	0
NMSTR	19	96	4
NMSCR	19	96	4	96	96	7
NMTAP	20	0	0
NMTAP	20	0	7
NMTAP	20	48	6
NMTAP	20	72	4
NMTAP	20	144	3
NMTAP	20	144	4
NMTAP	20	192	1
NMTAP	20	216	3
NMTAP	20	288	0
NMTAP	20	288	7
NMTAP	21	0	0
NMTAP	21	0	7
NMTAP	21	48	1
NMTAP	21	72	3
NMTAP	21	144	3
NMTAP	21	144	4
NMTAP	21	192	6
NMTAP	21	216	4
NMTAP	21	288	0
NMTAP	21	288	7
NMTAP	22	0	2
NMTAP	22	0	3
NMTAP	22	48	1
NMTAP	22	72	0
NMTAP	22	144	4
NMTAP	22	144	5
NMTAP	22	192	6
NMTAP	22	216	7
NMTAP	22	288	2
NMTAP	22	288	3
NMTAP	23	0	4
NMTAP	23	0	5
NMTAP	23	48	6
NMTAP	23	72	7
NMTAP	23	144	2
NMTAP	23	144	3
NMHLD	23	192	2	96
NMHLD	23	192	3	96
NMTAP	24	0	0
NMTAP	24	0	7
NMTAP	24	48	1
NMTAP	24	72	3
NMTAP	24	144	3
NMTAP	24	144	4
NMTAP	24	192	6
NMTAP	24	216	4
NMTAP	24	288	0
NMTAP	24	288	7
NMTAP	24	336	0
NMTAP	24	336	7
NMTAP	25	0	0
NMTAP	25	0	7
NMTAP	25	48	6
NMTAP	25	72	4
NMTAP	25	144	3
NMTAP	25	144	4
NMTAP	25	192	1
NMTAP	25	216	3
NMTAP	25	288	2
NMTAP	25	288	4
NMTAP	25	336	2
NMTAP	25	336	4
NMTAP	26	0	4
NMTAP	26	0	5
NMTAP	26	48	6
NMTAP	26	72	7
NMTAP	26	144	2
NMTAP	26	144	3
NMTAP	26	192	1
NMTAP	26	216	0
NMTAP	26	288	4
NMTAP	26	288	5
NMTAP	26	336	4
NMTAP	26	336	5
NMTAP	27	0	3
NMTAP	27	0	5
NMTAP	27	72	2
NMTAP	27	72	4
NMTAP	27	144	0
NMTAP	27	144	7
BRSTR	27	192	0
NMSI_	27	192	0	96	48	4
BRSTR	27	192	7
NMSI_	27	192	7	96	48	3
NMSTR	28	0	1
NMSCL	28	0	1	96	96	4
NMHLD	28	0	5	192
NMTAP	28	288	2
NMTAP	28	336	1
NMTAP	28	336	3
NMTAP	29	48	7
NMTAP	29	96	6
NMTAP	29	144	5
NMTAP	29	192	2
NMTAP	29	240	1
NMTAP	29	288	0
NMTAP	29	288	7
NMSTR	30	0	2
NMSCR	30	0	2	96	96	7
NMHLD	30	0	6	192
NMTAP	30	288	1
NMTAP	30	336	0
NMTAP	30	336	2
NMTAP	31	48	4
NMTAP	31	96	5
NMTAP	31	144	6
NMTAP	31	192	2
NMTAP	31	240	3
NMTAP	31	288	4
NMTAP	31	288	5
NMHLD	32	0	2	192
NMSTR	32	0	6
NMSCR	32	0	6	96	96	3
NMTAP	32	288	5
NMTAP	32	336	4
NMTAP	32	336	6
NMTAP	33	48	0
NMTAP	33	96	1
NMTAP	33	144	2
NMTAP	33	192	5
NMTAP	33	240	6
NMTAP	33	288	0
NMTAP	33	288	7
NMHLD	34	0	1	192
NMSTR	34	0	5
NMSCL	34	0	5	96	96	0
NMTAP	34	288	6
NMTAP	34	336	5
NMTAP	34	336	7
NMTAP	35	48	3
NMSTR	35	96	2
NMSXR	35	96	2	96	144	3
NMTAP	35	144	2
NMTAP	35	192	5
NMTAP	35	240	5
NMTAP	36	0	6
NMTAP	36	48	6
NMTAP	36	72	4
NMTAP	36	120	4
NMTAP	36	144	3
NMTAP	36	192	3
NMTAP	36	216	1
NMTAP	36	288	2
NMTAP	36	288	3
NMTAP	37	0	1
NMTAP	37	48	1
NMTAP	37	72	3
NMTAP	37	120	3
NMTAP	37	144	4
NMTAP	37	192	4
NMTAP	37	216	6
NMTAP	37	288	4
NMTAP	37	288	5
NMTAP	38	0	2
NMTAP	38	48	2
NMTAP	38	72	0
NMTAP	38	120	0
NMTAP	38	144	7
NMTAP	38	192	7
NMTAP	38	216	5
NMTAP	38	288	2
NMTAP	38	288	4
NMTAP	39	0	5
NMTAP	39	48	5
NMTAP	39	72	7
NMTAP	39	120	7
NMTAP	39	144	0
NMTAP	39	192	0
NMTAP	39	216	2
NMTAP	39	288	3
NMTAP	39	288	5
NMTAP	40	0	1
NMTAP	40	48	1
NMTAP	40	72	3
NMTAP	40	120	3
NMTAP	40	144	4
NMTAP	40	192	4
NMTAP	40	216	6
NMTAP	40	264	6
NMTAP	40	288	0
NMTAP	40	336	3
NMTAP	40	336	5
NMTAP	41	0	6
NMTAP	41	48	6
NMTAP	41	72	4
NMTAP	41	120	4
NMTAP	41	144	3
NMTAP	41	192	3
NMTAP	41	216	1
NMTAP	41	264	1
NMTAP	41	288	7
NMTAP	41	336	2
NMTAP	41	336	4
NMTAP	42	0	5
NMTAP	42	48	5
NMTAP	42	72	7
NMTAP	42	120	7
NMTAP	42	144	0
NMTAP	42	192	0
NMTAP	42	216	2
NMTAP	42	264	2
BRSTR	42	288	4
NMSXL	42	288	4	96	240	7
NMSXR	42	288	4	96	240	1
NMHLD	44	0	3	96
NMHLD	44	0	6	168
NMTAP	44	240	4
NMTAP	44	240	5
NMTAP	44	288	4
NMTAP	44	288	5
BXTAP	45	0	0
BXSTR	45	0	7
NMSCL	45	0	7	96	480	2
NMHLD	47	0	2	576
NMTTP	47	192	2	E	0	M1
NMTTP	48	0	3	E	0	M1
NMHLD	48	192	3	1536
NMSTR	49	0	2
NMSUL	49	0	2	96	192	4
NMSTR	50	0	5
NMSLL	50	0	5	96	192	0
NMSTR	51	0	7
NMSCL	51	0	7	96	288	4
CNSXL	52	0	4	0	192	1
NMHLD	53	0	2	144
NMTAP	53	144	3
NMTAP	53	192	3
NMTAP	53	288	4
NMSTR	54	0	5
NMSI_	54	0	5	96	48	3
NMSTR	54	192	1
NMSI_	54	192	1	96	48	7
NMHLD	55	0	5	144
NMTAP	55	144	4
NMTAP	55	192	4
NMTAP	55	288	3
NMSTR	56	0	2
NMSI_	56	0	2	96	48	0
NMSTR	56	192	6
NMSI_	56	192	6	96	48	4
NMHLD	57	0	2	144
NMTAP	57	144	3
NMTAP	57	192	3
NMTAP	57	288	4
NMHLD	58	0	4	96
NMHLD	58	0	5	96
NMTAP	58	144	3
NMTAP	58	192	3
NMTAP	58	288	2
NMTAP	58	288	3
NMHLD	59	0	1	192
NMSTR	59	0	4
NMSV_	59	0	4	96	96	3
NMSTR	59	288	3
NMSI_	59	288	3	96	48	1
NMSI_	59	288	3	96	48	5
EXTAP	60	96	7
BRHLD	60	192	1	96
BRHLD	60	192	5	96
NMTAP	61	0	0
NMSTR	61	0	6
NMSCL	61	0	6	96	48	3
NMTAP	61	144	2
NMHLD	61	192	2	96
NMTAP	61	288	4
NMSTR	62	0	5
NMSI_	62	0	5	96	48	3
NMTAP	62	192	1
NMTAP	62	288	2
NMTAP	62	288	4
NMSTR	63	0	1
NMSI_	63	0	1	96	48	3
NMTAP	63	144	6
NMTAP	63	192	6
NMSTR	63	288	4
NMSXR	63	288	4	96	96	2
NMSTR	63	288	5
NMSXL	63	288	5	96	96	7
NMTAP	64	192	5
NMTAP	64	288	3
NMTAP	65	0	2
NMSTR	65	0	5
NMSCR	65	0	5	96	48	0
NMTAP	65	144	3
NMTAP	65	192	3
NMTAP	65	288	6
NMHLD	66	0	1	288
NMSTR	66	0	7
NMSLR	66	0	7	96	192	5
NMSTR	67	0	2
NMSXR	67	0	2	96	288	7
NMSTR	67	0	6
NMSXR	67	0	6	96	288	3
NMTAP	68	192	3
NMTAP	68	192	7
NMTAP	68	288	2
NMSTR	69	0	1
NMSI_	69	0	1	96	48	3
NMTAP	69	144	5
NMTAP	69	192	5
NMSTR	69	288	6
NMSLL	69	288	6	96	96	2
NMTAP	70	144	1
NMTAP	70	192	1
NMTAP	70	288	0
NMTAP	70	288	1
NMSTR	71	0	2
NMSI_	71	0	2	96	96	5
NMTAP	71	0	7
CNSI_	71	192	5	0	96	3
NMSTR	72	0	2
NMSXR	72	0	2	96	192	3
NMSTR	72	0	6
NMSXR	72	0	6	96	192	7
NMHLD	73	0	1	96
NMHLD	73	0	5	96
NMTAP	73	144	6
NMTAP	73	192	7
NMTAP	73	240	0
NMTAP	73	288	1
NMHLD	74	0	2	96
NMHLD	74	0	4	96
NMTAP	74	144	2
NMTAP	74	192	3
NMTAP	74	240	4
NMTAP	74	288	5
EXSTR	75	0	4
NMSF_	75	0	4	96	192	0
EXTAP	75	0	5
NMHLD	76	0	2	168
NMHLD	76	0	6	96
NMTAP	76	240	6
NMSTR	76	288	7
NMSI_	76	288	7	96	48	3
NMSTR	77	0	1
NMSI_	77	0	1	96	48	5
NMSTR	77	96	6
NMSI_	77	96	6	96	48	3
NMTAP	77	192	0
NMTAP	77	288	1
NMTAP	77	288	4
NMTAP	77	336	1
NMTAP	77	336	4
EXTAP	78	0	2
NMTAP	78	24	3
NMTAP	78	48	2
EXTAP	78	96	5
NMTAP	78	120	4
NMTAP	78	144	5
NMTAP	78	192	6
NMTAP	78	240	7
NMSTR	78	288	0
NMSI_	78	288	0	96	48	4
NMSTR	79	0	6
NMSI_	79	0	6	96	48	2
NMSTR	79	96	1
NMSI_	79	96	1	96	48	4
NMTAP	79	192	7
NMTAP	79	288	3
NMTAP	79	288	5
NMTAP	79	336	3
NMTAP	79	336	5
NMHLD	80	0	6	96
NMTAP	80	48	4
NMHLD	80	96	2	96
NMTAP	80	144	3
NMHLD	80	192	4	96
NMTAP	80	240	1
NMSTR	80	288	0
NMSI_	80	288	0	96	48	4
NMSTR	81	0	6
NMSI_	81	0	6	96	48	2
NMSTR	81	96	1
NMSI_	81	96	1	96	48	4
NMTAP	81	192	7
NMTAP	81	288	3
NMTAP	81	288	6
NMTAP	81	336	3
NMTAP	81	336	6
EXTAP	82	0	5
NMTAP	82	24	4
NMTAP	82	48	5
EXTAP	82	96	2
NMTAP	82	120	3
NMTAP	82	144	2
NMTAP	82	192	1
NMTAP	82	240	0
NMSTR	82	288	7
NMSI_	82	288	7	96	48	3
NMSTR	83	0	1
NMSI_	83	0	1	96	48	5
NMSTR	83	96	6
NMSI_	83	96	6	96	48	3
NMTAP	83	192	0
NMTAP	83	288	2
NMTAP	83	288	4
NMTAP	83	336	2
NMTAP	83	336	4
NMTTP	84	0	3	E	0	M1
NMTTP	84	24	4	E	0	M1
NMTTP	84	48	5	E	0	M1
NMTTP	84	72	6	E	0	M1
NMTTP	84	96	7	E	0	M1
NMTTP	84	120	0	E	0	M1
NMTTP	84	144	1	E	0	M1
NMTTP	84	168	2	E	0	M1
NMTTP	84	192	3	E	0	M1
EXTAP	84	264	4
EXTAP	84	264	5
EXTAP	84	336	0
EXTAP	84	336	7
BXSTR	85	0	0
NMSI_	85	0	0	96	48	4
BXSTR	85	0	7
NMSI_	85	0	7	96	48	3
NMTAP	85	192	1
NMTAP	85	192	6
NMTAP	85	288	4
NMTAP	85	288	5
NMTAP	85	336	4
NMTAP	85	336	5
EXTAP	86	0	6
NMTAP	86	24	7
NMTAP	86	48	6
EXTAP	86	96	1
NMTAP	86	120	0
NMTAP	86	144	1
NMTAP	86	192	2
NMTAP	86	192	3
NMTAP	86	240	4
NMSTR	86	288	5
NMSI_	86	288	5	96	48	2
NMSTR	87	0	1
NMSI_	87	0	1	96	48	5
NMSTR	87	96	7
NMSI_	87	96	7	96	48	3
NMTAP	87	192	0
NMTAP	87	288	2
NMTAP	87	288	4
NMTAP	87	336	2
NMTAP	87	336	4
NMHLD	88	0	1	96
NMTAP	88	48	3
NMHLD	88	96	5	96
NMTAP	88	144	4
NMTAP	88	192	3
NMTAP	88	240	2
NMTAP	88	240	6
NMTAP	88	288	2
NMTAP	88	288	6
EXSTR	89	0	1
NMSI_	89	0	1	96	48	3
NMTAP	89	48	1
EXSTR	89	96	7
NMSI_	89	96	7	96	48	5
NMTAP	89	144	7
EXSTR	89	192	0
NMSI_	89	192	0	96	48	4
NMTAP	89	240	0
EXTAP	89	288	4
EXSTR	90	0	6
NMSI_	90	0	6	96	48	4
NMTAP	90	48	6
EXSTR	90	96	0
NMSI_	90	96	0	96	48	2
NMTAP	90	144	0
EXSTR	90	192	7
NMSI_	90	192	7	96	48	3
NMTAP	90	240	7
EXTAP	90	288	1
BRTAP	91	0	0
NMTAP	91	24	1
NMTAP	91	48	2
NMTAP	91	72	3
NMTAP	91	96	4
NMTAP	91	120	5
NMTAP	91	144	6
NMTAP	91	168	7
NMTAP	91	192	0
NMTAP	91	216	1
NMTAP	91	240	2
NMTAP	91	264	3
NMTAP	91	288	4
NMTAP	91	312	5
NMTAP	91	336	6
NMTAP	91	360	7
NMTAP	92	0	0
EXTAP	92	72	2
EXTAP	92	72	3
EXTAP	92	144	4
EXTAP	92	144	6
BRTAP	92	192	0
BRTAP	92	192	7
BRTAP	92	240	0
BRTAP	92	240	7
BRTAP	92	288	0
BRTAP	92	288	7
NMTAP	93	0	6
NMTAP	93	48	6
NMTAP	93	72	4
NMTAP	93	120	4
NMTAP	93	144	3
NMTAP	93	192	3
NMTAP	93	216	1
NMTAP	93	264	1
NMTAP	93	288	7
NMTAP	93	336	0
NMTAP	93	336	6
NMTAP	94	0	1
NMTAP	94	48	1
NMTAP	94	72	3
NMTAP	94	120	3
NMTAP	94	144	4
NMTAP	94	192	4
NMTAP	94	216	6
NMTAP	94	264	6
NMHLD	94	288	0	48
NMTAP	94	336	4
NMTAP	95	0	5
NMTAP	95	48	5
NMTAP	95	72	7
NMTAP	95	120	7
NMTAP	95	144	0
NMTAP	95	192	0
NMTAP	95	216	2
NMTAP	95	264	2
NMTAP	95	288	4
NMTAP	95	336	3
NMTAP	95	336	5
NMTAP	96	0	2
NMTAP	96	48	2
NMTAP	96	72	0
NMTAP	96	120	0
NMTAP	96	144	7
BRSTR	96	192	1
NMSI_	96	192	1	96	48	4
BRHLD	96	192	5	96
NMTAP	97	0	6
NMTAP	97	48	6
NMTAP	97	72	4
NMTAP	97	120	4
NMTAP	97	144	2
NMTAP	97	192	2
NMTAP	97	216	0
NMTAP	97	264	0
NMTAP	97	288	6
NMTAP	97	336	2
NMTAP	97	336	4
NMTAP	98	0	1
NMTAP	98	48	1
NMTAP	98	72	3
NMTAP	98	120	3
NMTAP	98	144	5
NMTAP	98	192	5
NMTAP	98	216	7
NMTAP	98	264	7
NMTAP	98	288	1
NMTAP	98	336	3
NMTAP	98	336	5
NMTAP	99	0	2
NMTAP	99	48	2
NMTAP	99	72	0
NMTAP	99	120	0
NMTAP	99	144	6
NMTAP	99	192	6
NMTAP	99	216	4
NMTAP	99	264	4
NMTAP	99	288	2
NMTAP	99	336	1
NMTAP	99	336	5
NMTAP	100	0	1
NMTAP	100	0	5
NMTAP	100	72	3
NMTAP	100	72	6
NMTAP	100	144	0
NMTAP	100	144	4
BXHLD	100	192	0	96
BXHLD	100	192	4	96
NMTAP	101	0	2
NMTAP	101	0	3
NMSTR	101	72	3
BRSI_	101	72	3	96	48	7
NMTAP	101	72	4
NMTAP	101	144	5
NMTAP	101	216	4
CNSI_	101	216	7	0	72	2
NMTAP	101	288	6
NMTAP	101	336	6
NMTAP	102	0	4
NMTAP	102	0	6
NMTAP	102	72	3
NMSTR	102	72	5
BRSI_	102	72	5	96	48	0
NMTAP	102	144	4
CNSI_	102	216	0	0	72	4
NMTAP	102	216	3
NMTAP	102	288	2
NMTAP	102	336	2
NMTAP	103	0	2
NMTAP	103	0	3
NMTAP	103	72	0
NMSTR	103	72	1
BRSI_	103	72	1	96	48	4
NMTAP	103	144	7
CNSI_	103	216	4	0	72	0
NMTAP	103	216	5
NMTAP	103	288	6
NMTAP	103	336	6
NMTAP	104	0	0
NMTAP	104	0	6
NMTAP	104	72	1
NMSTR	104	72	7
BRSI_	104	72	7	96	48	3
NMTAP	104	144	0
NMHLD	104	192	0	96
CNSI_	104	216	3	0	72	6
NMTAP	105	0	1
NMTAP	105	48	1
NMTAP	105	72	3
NMTAP	105	120	3
NMTAP	105	144	4
NMSTR	105	192	4
BRSI_	105	192	4	96	48	2
NMTAP	105	216	6
EXTAP	105	264	7
EXTAP	105	288	7
CNSI_	105	336	2	0	48	7
NMTAP	106	0	6
NMTAP	106	48	6
NMTAP	106	72	4
NMTAP	106	120	4
NMTAP	106	144	3
NMSTR	106	192	3
BRSI_	106	192	3	96	48	5
NMTAP	106	216	1
EXTAP	106	264	0
EXTAP	106	288	0
CNSI_	106	336	5	0	48	0
NMTAP	107	0	2
NMTAP	107	48	2
NMTAP	107	72	0
NMTAP	107	120	0
NMTAP	107	144	7
NMSTR	107	192	7
BRSI_	107	192	7	96	48	2
NMTAP	107	216	5
EXTAP	107	264	4
EXTAP	107	288	4
CNSI_	107	336	2	0	48	4
NMSTR	108	0	6
NMSI_	108	0	6	96	48	2
BRSTR	108	72	3
BRSF_	108	72	3	96	48	7

T_REC_TAP	462
T_REC_BRK	7
T_REC_XTP	28
T_REC_BXX	1
T_REC_HLD	38
T_REC_XHO	0
T_REC_BHO	3
T_REC_BXH	2
T_REC_STR	56
T_REC_BST	7
T_REC_XST	7
T_REC_XBS	3
T_REC_TTP	13
T_REC_THO	1
T_REC_SLD	67
T_REC_BSL	8
T_REC_ALL	703
T_NUM_TAP	566
T_NUM_BRK	31
T_NUM_HLD	39
T_NUM_SLD	67
T_NUM_ALL	703
T_JUDGE_TAP	584
T_JUDGE_HLD	182
T_JUDGE_SLD	75
T_JUDGE_ALL	841
TTM_EACHPAIRS	129
TTM_SCR_TAP	283000
TTM_SCR_BRK	80600
TTM_SCR_HLD	39000
TTM_SCR_SLD	100500
TTM_SCR_ALL	503100
TTM_SCR_S	485000
TTM_SCR_SS	500000
TTM_RAT_ACV	10062

