VERSION	0.00.00	1.04.00
FES_MODE	0
BPM_DEF	175.000	175.000	175.000	175.000
MET_DEF	4	4
RESOLUTION	384
CLK_DEF	384
COMPATIBLE_CODE	MA2

BPM	0	0	175.000
MET	0	0	4	4

NMHLD	4	0	5	384
NMHLD	5	0	4	384
NMHLD	6	0	3	384
NMTAP	7	0	2
NMHLD	8	0	1	384
NMHLD	9	0	2	384
NMHLD	10	0	3	384
NMTAP	11	0	4
NMSTR	12	0	5
NMSUL	12	0	5	96	480	2
NMSTR	14	0	1
NMSUR	14	0	1	96	480	4
NMSTR	16	0	6
NMSUL	16	0	6	96	480	3
NMSTR	18	0	1
NMSI_	18	0	1	96	192	4
EXTAP	19	0	5
EXTAP	19	96	5
NMTAP	19	192	3
NMTAP	19	192	4
NMTAP	20	0	5
NMTAP	20	96	5
NMTAP	20	192	6
NMTAP	20	288	6
NMTAP	21	0	7
NMTAP	21	96	7
NMTAP	21	192	0
NMTAP	21	192	1
NMTAP	22	0	2
NMTAP	22	96	2
NMTAP	22	192	1
NMTAP	22	288	1
NMTAP	23	0	0
NMTAP	23	96	0
NMTAP	23	192	6
NMTAP	23	192	7
NMTAP	24	0	6
NMTAP	24	96	6
NMTAP	24	192	5
NMTAP	24	288	5
NMTAP	25	0	4
NMTAP	25	96	4
NMTAP	25	192	2
NMTAP	25	192	3
NMTAP	26	0	1
NMTAP	26	96	1
NMTAP	26	192	2
NMTAP	26	288	2
NMTAP	27	0	3
NMTAP	27	96	3
NMTAP	27	192	4
NMTAP	27	192	5
NMHLD	28	0	5	192
NMTAP	28	192	4
NMTAP	29	0	4
NMTAP	29	0	5
NMTAP	29	96	4
NMTAP	29	96	5
NMTAP	29	192	4
NMTAP	29	192	5
NMHLD	30	0	6	192
NMTAP	30	192	7
NMTAP	31	0	6
NMTAP	31	0	7
NMTAP	31	96	6
NMTAP	31	96	7
NMTAP	31	192	6
NMTAP	31	192	7
NMHLD	32	0	1	192
NMTAP	32	192	0
NMTAP	33	0	0
NMTAP	33	0	1
NMTAP	33	96	0
NMTAP	33	96	1
NMTAP	33	192	0
NMTAP	33	192	1
NMHLD	34	0	2	192
NMTAP	34	192	3
NMTAP	35	0	2
NMTAP	35	0	3
NMTAP	35	192	3
NMTAP	35	192	4
NMTAP	36	0	5
NMTAP	36	96	5
NMTAP	36	192	6
NMTAP	36	192	7
NMTAP	36	288	6
NMTAP	36	288	7
NMTAP	37	0	0
NMTAP	37	96	0
NMTAP	37	192	0
NMTAP	37	192	1
NMTAP	38	0	2
NMTAP	38	96	2
NMTAP	38	192	0
NMTAP	38	192	1
NMTAP	38	288	0
NMTAP	38	288	1
NMTAP	39	0	7
NMTAP	39	96	7
NMTAP	39	192	6
NMTAP	39	192	7
NMTAP	40	0	6
NMTAP	40	96	6
NMTAP	40	192	4
NMTAP	40	192	5
NMTAP	40	288	4
NMTAP	40	288	5
NMTAP	41	0	3
NMTAP	41	96	3
NMTAP	41	192	2
NMTAP	41	192	3
NMTAP	42	0	1
NMTAP	42	96	1
NMTAP	42	192	2
NMTAP	42	192	3
NMTAP	42	288	2
NMTAP	42	288	3
NMTAP	43	0	4
NMTAP	43	96	4
NMTAP	43	192	4
NMTAP	43	192	5
BRTAP	44	0	3
BRTAP	44	0	4
NMSTR	45	0	2
NMSI_	45	0	2	96	192	5
NMSTR	46	0	6
NMSI_	46	0	6	96	192	3
NMSTR	47	0	1
NMSI_	47	0	1	96	192	4
NMSTR	48	0	6
NMSI_	48	0	6	96	192	2
NMSTR	49	0	1
NMSI_	49	0	1	96	192	5
NMSTR	50	0	7
NMSI_	50	0	7	96	192	3
NMSTR	51	0	2
NMSCL	51	0	2	96	192	7
NMSTR	52	0	6
NMSCL	52	0	6	96	192	3
NMTAP	53	0	2
NMTAP	53	96	2
NMTAP	53	192	2
NMTAP	53	192	3
NMTAP	54	0	1
NMTAP	54	96	1
NMTAP	54	192	0
NMTAP	54	192	1
NMTAP	55	0	7
NMTAP	55	96	7
NMTAP	55	192	6
NMTAP	55	192	7
NMTAP	56	0	4
NMTAP	56	0	5
NMTAP	56	96	4
NMTAP	56	96	5
NMTAP	56	192	4
NMTAP	56	192	5
NMTAP	57	0	5
NMTAP	57	96	5
NMTAP	57	192	4
NMTAP	57	192	5
NMTAP	58	0	6
NMTAP	58	96	6
NMTAP	58	192	6
NMTAP	58	192	7
NMTAP	59	0	0
NMTAP	59	96	0
NMTAP	59	192	0
NMTAP	59	192	1
NMTAP	60	0	2
NMTAP	60	0	3
NMTAP	60	96	2
NMTAP	60	96	3
NMTAP	60	192	2
NMTAP	60	192	3
NMTTP	61	0	1	B	0	L1
NMTTP	61	96	2	B	0	L1
NMTTP	61	192	3	B	0	L1
NMTTP	62	0	6	B	0	L1
NMTTP	62	96	5	B	0	L1
NMTTP	62	192	4	B	0	L1
NMTTP	63	0	0	B	0	L1
NMTTP	63	96	1	B	0	L1
NMTTP	63	192	2	B	0	L1
NMTTP	63	288	3	B	0	L1
NMTTP	64	0	4	B	0	L1
NMTTP	64	0	5	B	0	L1
NMTTP	65	0	7	B	0	L1
NMTTP	65	96	6	B	0	L1
NMTTP	65	192	4	B	0	L1
NMTTP	65	192	5	B	0	L1
NMTTP	66	0	0	B	0	L1
NMTTP	66	96	1	B	0	L1
NMTTP	66	192	2	B	0	L1
NMTTP	66	192	3	B	0	L1
NMTTP	67	0	5	B	0	L1
NMTTP	67	96	4	B	0	L1
NMTTP	67	192	3	B	0	L1
NMTTP	67	288	2	B	0	L1
NMTTP	68	0	0	C	0	L1
NMHLD	69	0	1	192
NMTAP	69	192	0
NMTAP	70	0	0
NMTAP	70	0	1
NMTAP	70	192	0
NMTAP	70	192	1
NMHLD	71	0	2	192
NMTAP	71	192	3
NMTAP	72	0	2
NMTAP	72	0	3
NMTAP	72	192	2
NMTAP	72	192	3
NMHLD	73	0	5	192
NMTAP	73	192	4
NMTAP	74	0	4
NMTAP	74	0	5
NMTAP	74	192	4
NMTAP	74	192	5
NMHLD	75	0	6	192
NMTAP	75	192	7
NMTAP	76	0	6
NMTAP	76	0	7
NMTAP	76	192	6
NMTAP	76	192	7
BRTAP	77	0	5
NMTAP	77	96	5
NMTAP	77	192	6
NMTAP	77	192	7
NMTAP	77	288	6
NMTAP	77	288	7
NMTAP	78	0	0
NMTAP	78	96	0
NMTAP	78	192	0
NMTAP	78	192	1
NMTAP	79	0	2
NMTAP	79	96	2
NMTAP	79	192	0
NMTAP	79	192	1
NMTAP	79	288	0
NMTAP	79	288	1
NMTAP	80	0	7
NMTAP	80	96	7
NMTAP	80	192	6
NMTAP	80	192	7
NMTAP	81	0	6
NMTAP	81	96	6
NMTAP	81	192	4
NMTAP	81	192	5
NMTAP	81	288	4
NMTAP	81	288	5
NMTAP	82	0	3
NMTAP	82	96	3
NMTAP	82	192	2
NMTAP	82	192	3
NMTAP	83	0	1
NMTAP	83	96	1
NMTAP	83	192	2
NMTAP	83	192	3
NMTAP	83	288	2
NMTAP	83	288	3
NMTAP	84	0	4
NMTAP	84	96	4
NMTAP	84	192	4
NMTAP	84	192	5
NMTAP	85	0	5
NMTAP	85	96	5
NMTAP	85	192	6
NMTAP	85	192	7
NMTAP	85	288	6
NMTAP	85	288	7
NMTAP	86	0	0
NMTAP	86	96	1
NMTAP	86	192	2
NMTAP	86	192	3
NMTAP	87	0	2
NMTAP	87	96	2
NMTAP	87	192	0
NMTAP	87	192	1
NMTAP	87	288	0
NMTAP	87	288	1
NMTAP	88	0	7
NMTAP	88	96	6
NMTAP	88	192	4
NMTAP	88	192	5
NMTAP	89	0	6
NMTAP	89	96	6
NMTAP	89	192	4
NMTAP	89	192	5
NMTAP	89	288	4
NMTAP	89	288	5
NMTAP	90	0	3
NMTAP	90	96	2
NMTAP	90	192	0
NMTAP	90	192	1
NMTAP	91	0	1
NMTAP	91	96	1
NMTAP	91	192	2
NMTAP	91	192	3
NMTAP	91	288	2
NMTAP	91	288	3
NMTAP	92	0	4
NMTAP	92	96	5
NMTAP	92	192	6
NMTAP	92	192	7
NMTAP	93	0	5
NMTAP	93	48	5
NMTAP	93	96	5
NMTAP	93	192	4
NMTAP	93	192	5
NMTAP	93	288	4
NMTAP	93	288	5
NMTAP	94	0	6
NMTAP	94	48	6
NMTAP	94	96	6
NMTAP	94	192	6
NMTAP	94	192	7
NMTAP	94	288	6
NMTAP	94	288	7
NMTAP	95	0	0
NMTAP	95	48	0
NMTAP	95	96	0
NMTAP	95	192	0
NMTAP	95	192	1
NMTAP	95	288	0
NMTAP	95	288	1
NMTAP	96	0	2
NMTAP	96	48	2
NMTAP	96	96	2
NMTAP	96	192	2
NMTAP	96	192	3
NMTAP	97	0	2
NMTAP	97	48	2
NMTAP	97	96	2
NMTAP	97	192	2
NMTAP	97	192	3
NMTAP	97	288	2
NMTAP	97	288	3
NMTAP	98	0	1
NMTAP	98	48	1
NMTAP	98	96	1
NMTAP	98	192	0
NMTAP	98	192	1
NMTAP	98	288	0
NMTAP	98	288	1
NMTAP	99	0	7
NMTAP	99	48	7
NMTAP	99	96	7
NMTAP	99	192	6
NMTAP	99	192	7
NMTAP	99	288	6
NMTAP	99	288	7
NMTAP	100	0	5
NMTAP	100	48	5
NMTAP	100	96	5
EXTAP	100	192	3
EXTAP	100	192	4
NMSTR	101	0	5
NMSI_	101	0	5	96	192	2
NMSTR	102	0	1
NMSI_	102	0	1	96	192	5
NMSTR	103	0	6
NMSI_	103	0	6	96	192	2
NMTAP	104	0	1
NMTAP	104	96	1
NMTAP	104	192	0
NMTAP	104	192	7
NMTAP	105	0	7
NMTAP	105	96	6
NMTAP	105	192	5
NMTAP	105	288	4
NMTAP	106	0	3
NMTAP	106	96	2
NMTAP	106	192	1
NMTAP	106	288	0
NMTAP	107	0	0
NMTAP	107	0	7
NMTAP	107	96	0
NMTAP	107	96	7
NMTAP	107	192	1
NMTAP	107	192	6
NMTAP	107	288	2
NMTAP	107	288	5
BXTAP	108	0	3
BXTAP	108	0	4
BXTAP	108	72	3
BXTAP	108	72	4
BXTAP	108	144	3
BXTAP	108	144	4

T_REC_TAP	307
T_REC_BRK	3
T_REC_XTP	4
T_REC_BXX	6
T_REC_HLD	14
T_REC_XHO	0
T_REC_BHO	0
T_REC_BXH	0
T_REC_STR	15
T_REC_BST	0
T_REC_XST	0
T_REC_XBS	0
T_REC_TTP	25
T_REC_THO	0
T_REC_SLD	15
T_REC_BSL	0
T_REC_ALL	389
T_NUM_TAP	351
T_NUM_BRK	9
T_NUM_HLD	14
T_NUM_SLD	15
T_NUM_ALL	389
T_JUDGE_TAP	360
T_JUDGE_HLD	80
T_JUDGE_SLD	15
T_JUDGE_ALL	455
TTM_EACHPAIRS	95
TTM_SCR_TAP	175500
TTM_SCR_BRK	23400
TTM_SCR_HLD	14000
TTM_SCR_SLD	22500
TTM_SCR_ALL	235400
TTM_SCR_S	227500
TTM_SCR_SS	234500
TTM_RAT_ACV	10038

