VERSION	0.00.00	1.04.00
FES_MODE	0
BPM_DEF	178.000	178.000	178.000	178.000
MET_DEF	4	4
RESOLUTION	384
CLK_DEF	384
COMPATIBLE_CODE	MA2

BPM	0	0	178.000
MET	0	0	4	4
MET	37	0	4	2
MET	37	192	4	4

NMTTP	1	0	1	E	0	M1
NMTTP	1	48	2	E	0	M1
NMTTP	1	96	3	E	0	M1
NMTTP	1	144	4	E	0	M1
NMTTP	1	192	5	E	0	M1
NMTTP	1	240	6	E	0	M1
NMTTP	1	288	7	E	0	M1
NMTAP	2	96	2
NMTAP	2	192	3
NMTAP	2	288	4
NMHLD	3	0	5	144
NMHLD	3	144	4	144
NMSTR	3	288	3
NMSI_	3	288	3	96	144	7
NMTAP	4	192	1
NMTAP	4	216	0
NMTAP	4	240	7
NMTAP	4	264	6
NMTAP	4	288	5
NMTAP	4	312	4
BRTAP	4	336	3
BRSTR	4	336	7
NMSI_	4	336	7	96	48	3
NMTAP	5	48	1
NMSTR	5	96	1
NMSCR	5	96	1	96	48	4
NMTAP	5	192	5
NMHLD	5	240	5	96
NMSTR	5	336	0
NMSI_	5	336	0	96	48	4
NMTAP	6	48	6
NMSTR	6	96	6
NMSCL	6	96	6	96	48	3
NMTAP	6	192	2
NMTAP	6	240	2
NMTAP	6	288	1
NMHLD	6	336	0	96
NMTAP	7	48	3
NMSTR	7	96	3
NMSI_	7	96	3	96	48	7
NMTAP	7	192	2
NMSTR	7	240	1
NMSCR	7	240	1	96	48	4
NMTAP	7	336	0
NMTAP	7	336	1
NMSTR	8	48	5
NMSUL	8	48	5	96	144	3
NMTAP	8	96	5
NMTAP	8	144	3
EXTAP	8	240	0
EXTAP	8	288	0
NMTAP	9	0	2
NMTAP	9	48	2
NMTAP	9	96	3
NMSTR	9	144	1
NMSI_	9	144	1	96	48	5
NMTAP	9	144	4
NMTAP	9	240	7
NMTAP	9	288	7
NMTAP	10	0	5
NMTAP	10	48	5
NMTAP	10	96	4
NMTAP	10	144	3
NMSTR	10	144	6
NMSI_	10	144	6	96	48	2
NMSTR	10	240	0
NMSCR	10	240	0	96	48	3
NMTAP	10	240	6
NMTAP	10	336	0
NMSTR	10	336	7
NMSCL	10	336	7	96	48	4
NMTAP	11	48	3
NMTAP	11	96	2
NMSTR	11	144	0
NMSI_	11	144	0	96	48	5
NMSTR	11	144	1
NMSI_	11	144	1	96	48	4
NMTAP	11	240	0
NMTAP	11	240	1
NMTAP	11	336	3
NMTAP	11	336	7
NMTAP	12	0	3
NMHLD	12	0	7	192
NMTAP	12	192	4
NMSTR	12	240	4
NMSI_	12	240	4	96	48	2
NMSTR	12	336	6
NMSI_	12	336	6	96	48	4
NMTAP	13	48	1
NMHLD	13	96	1	96
NMTAP	13	192	0
NMTAP	13	240	1
NMSTR	13	288	2
NMSCR	13	288	2	96	96	5
NMTAP	13	288	7
NMSTR	14	0	5
NMSCR	14	0	5	96	96	0
NMSTR	14	96	0
NMSCR	14	96	0	96	96	3
NMTAP	14	192	3
NMTAP	14	288	6
NMHLD	14	336	6	96
NMTAP	15	48	4
NMHLD	15	96	4	96
NMTAP	15	192	5
NMTAP	15	240	4
NMTAP	15	288	3
NMSTR	15	288	6
NMSUL	15	288	6	96	144	4
EXTAP	16	0	0
EXTAP	16	0	6
NMTAP	16	192	3
NMSTR	16	240	3
NMSI_	16	240	3	96	48	7
NMSTR	16	336	1
NMSI_	16	336	1	96	48	3
NMTAP	17	48	6
NMHLD	17	96	6	96
NMTAP	17	192	7
NMTAP	17	240	6
NMSTR	17	288	0
NMSI_	17	288	0	96	48	4
NMTAP	17	288	5
EXTAP	18	0	0
EXTAP	18	0	7
NMTAP	18	96	3
NMTAP	18	96	5
NMTAP	18	192	2
NMTAP	18	192	6
NMTAP	18	240	1
NMTAP	18	264	0
NMTAP	18	288	1
NMSTR	18	336	2
NMSI_	18	336	2	96	48	4
NMTAP	18	336	7
NMSTR	19	48	6
NMSI_	19	48	6	96	48	2
NMTAP	19	144	0
NMTAP	19	240	1
NMTAP	19	288	1
NMTAP	20	0	3
NMHLD	20	0	7	96
NMTAP	20	96	4
NMTAP	20	144	3
NMHLD	20	144	5	96
NMTAP	20	240	2
NMTAP	20	288	1
NMHLD	20	288	3	96
NMTAP	21	0	0
NMHLD	21	48	1	96
NMTAP	21	48	7
NMTAP	21	144	3
NMTAP	21	192	2
NMTAP	21	192	4
NMTAP	21	288	1
NMTAP	21	288	5
NMSTR	21	336	6
NMSI_	21	336	6	96	48	3
NMTAP	22	0	7
NMTAP	22	48	6
NMSTR	22	144	1
NMSI_	22	144	1	96	48	4
NMTAP	22	192	0
NMTAP	22	240	1
NMTAP	22	336	7
NMSTR	23	0	6
NMSI_	23	0	6	96	48	2
NMSTR	23	96	1
NMSI_	23	96	1	96	48	7
NMSTR	23	192	5
NMSI_	23	192	5	96	48	3
NMSTR	23	288	2
NMSI_	23	288	2	96	48	6
NMTAP	24	0	4
NMHLD	24	144	1	96
NMTAP	24	144	7
NMHLD	24	240	3	96
NMHLD	24	336	5	144
NMTAP	25	96	7
NMSTR	25	144	7
NMSXR	25	144	7	96	144	7
NMTAP	25	240	0
NMHLD	26	0	1	96
NMTAP	26	96	0
NMHLD	26	192	2	96
NMTAP	26	192	7
NMTAP	26	288	3
NMHLD	27	0	5	96
NMTAP	27	96	4
NMTAP	27	192	3
NMHLD	27	192	6	96
NMTAP	27	288	7
NMHLD	28	0	0	96
NMTAP	28	0	5
NMTAP	28	96	3
NMTAP	28	192	2
NMHLD	28	192	7	96
NMTAP	28	288	4
NMTAP	28	336	2
NMTAP	28	360	3
NMTAP	29	0	1
NMTAP	29	48	5
NMTAP	29	72	4
NMTAP	29	96	6
NMTAP	29	144	2
NMTAP	29	168	3
NMTAP	29	192	0
NMTAP	29	240	5
NMTAP	29	264	4
NMTAP	29	288	7
NMTAP	30	0	3
NMSTR	30	0	4
NMSCR	30	0	4	96	48	7
NMTAP	30	96	2
NMTAP	30	144	3
NMSTR	30	192	4
NMSCL	30	192	4	96	48	1
NMTAP	30	288	5
NMTAP	30	336	4
NMSTR	31	0	3
NMSCR	31	0	3	96	48	6
NMTAP	31	96	1
NMTAP	31	144	2
NMSTR	31	192	3
NMSCL	31	192	3	96	48	0
NMTAP	31	288	3
NMTAP	31	288	4
NMTAP	32	0	6
NMTAP	32	0	7
NMTAP	32	96	4
NMTAP	32	96	5
NMTAP	32	144	3
NMTAP	32	192	4
NMTAP	32	192	6
NMTAP	32	240	2
NMTAP	32	288	3
NMTAP	32	288	7
NMTAP	32	336	2
NMTAP	33	0	0
NMTAP	33	0	1
NMTAP	33	96	2
NMTAP	33	96	3
NMTAP	33	144	4
NMTAP	33	192	1
NMTAP	33	192	3
NMTAP	33	240	5
NMTAP	33	288	0
NMTAP	33	288	4
NMTAP	33	336	5
NMTAP	34	0	6
NMTAP	34	0	7
NMTAP	34	96	4
NMTAP	34	144	3
NMTAP	34	144	5
NMTAP	34	192	2
NMTAP	34	192	6
NMTAP	34	240	1
NMSTR	34	240	7
NMSCL	34	240	7	96	72	2
NMTAP	34	288	0
NMTAP	34	336	0
NMTAP	35	96	0
NMTAP	35	96	1
NMTAP	35	144	2
NMTAP	35	168	3
NMTAP	35	192	1
NMTAP	35	240	5
NMTAP	35	264	4
NMTAP	35	288	6
NMTAP	35	336	0
NMTAP	35	360	7
NMTTP	36	0	1	B	0	M1
NMTTP	36	16	2	B	0	M1
NMTTP	36	32	3	B	0	M1
NMTTP	36	48	4	B	0	M1
NMTTP	36	64	5	B	0	M1
NMTTP	36	80	6	B	0	M1
NMTTP	36	96	0	E	0	M1
NMTTP	36	112	1	E	0	M1
NMTTP	36	128	2	E	0	M1
NMTTP	36	144	3	E	0	M1
NMTTP	36	160	4	E	0	M1
NMTTP	36	176	5	D	0	M1
NMTTP	36	192	6	D	0	M1
NMTTP	36	208	7	D	0	M1
NMTTP	36	224	0	D	0	M1
NMTTP	36	240	1	D	0	M1
NMTTP	36	256	2	D	0	M1
NMTTP	36	272	3	D	0	M1
NMTTP	36	288	4	D	0	M1
EXTAP	37	0	2
EXTAP	37	0	5
EXSTR	37	48	0
BRSI_	37	48	0	96	48	4
EXSTR	37	48	7
BRSI_	37	48	7	96	48	3
NMTTP	37	144	0	E	1	M1
EXTAP	37	240	1
EXTAP	37	240	6
NMSTR	37	288	1
NMSXL	37	288	1	96	144	7
EXTAP	37	288	6
NMTAP	38	0	4
NMTAP	38	96	6
NMHLD	38	144	6	96
NMTAP	38	240	7
NMHLD	38	288	0	96
NMTAP	38	288	5
NMHLD	39	0	2	96
NMSTR	39	96	4
NMSCR	39	96	4	96	96	2
NMTAP	39	144	4
EXSTR	39	288	3
NMSI_	39	288	3	96	48	7
NMSTR	40	0	1
NMSCR	40	0	1	96	48	4
NMTAP	40	0	3
NMTAP	40	96	1
NMSTR	40	96	6
NMSUL	40	96	6	96	48	2
NMTAP	40	192	6
NMTAP	40	192	7
NMTAP	40	288	0
NMSTR	40	336	1
NMSV_	40	336	1	96	48	4
NMSTR	40	336	7
NMSV_	40	336	7	96	48	4
NMTAP	41	48	1
NMTAP	41	48	7
NMTAP	41	144	2
NMTAP	41	144	6
NMTAP	41	192	2
NMTAP	41	192	6
NMTAP	41	240	7
NMTAP	41	288	1
NMTAP	41	336	3
NMTAP	42	0	5
NMSTR	42	48	7
NMSF_	42	48	7	96	48	3
NMTAP	42	144	7
NMSTR	42	288	1
NMSCR	42	288	1	96	48	4
NMTAP	42	288	5
NMSTR	43	0	1
NMSCL	43	0	1	96	48	6
NMTAP	43	0	6
NMSTR	43	96	1
NMSXR	43	96	1	96	144	4
NMTAP	43	96	4
NMTAP	43	192	5
NMTAP	43	288	6
NMTAP	43	336	6
NMTAP	44	0	5
NMSTR	44	48	3
NMSI_	44	48	3	96	48	7
NMTAP	44	96	2
NMTAP	44	144	1
NMTAP	44	240	1
NMTAP	44	264	0
NMTAP	44	288	1
NMTAP	44	336	6
NMTAP	44	360	7
NMTAP	45	0	6
NMTAP	45	48	3
NMTAP	45	72	4
NMTAP	45	96	3
NMTAP	45	144	2
NMTAP	45	192	0
NMSTR	45	192	1
NMSCR	45	192	1	96	48	4
NMTAP	45	288	1
NMTAP	45	336	5
NMSTR	46	0	6
NMSUL	46	0	6	96	48	2
NMTAP	46	0	7
NMTAP	46	96	6
NMTAP	46	144	0
NMSTR	46	192	1
NMSI_	46	192	1	96	48	5
NMTAP	46	192	7
NMTAP	46	288	1
NMTAP	46	336	6
NMTAP	47	0	0
NMSTR	47	0	7
NMSF_	47	0	7	96	48	3
NMTAP	47	96	7
NMTAP	47	192	1
NMTAP	47	192	5
NMTAP	47	240	2
NMTAP	47	288	3
NMTAP	47	288	6
NMTAP	47	336	5
NMTAP	48	0	3
NMTAP	48	0	4
NMTAP	48	48	2
NMHLD	48	96	1	144
NMHLD	48	96	7	144
NMTTP	48	248	2	D	0	M1
NMTTP	48	248	7	D	0	M1
NMTTP	48	256	2	A	0	M1
NMTTP	48	256	6	A	0	M1
NMTTP	48	264	3	D	0	M1
NMTTP	48	264	6	D	0	M1
NMTTP	48	272	3	A	0	M1
NMTTP	48	272	5	A	0	M1
NMTTP	48	280	4	D	0	M1
NMTTP	48	280	5	D	0	M1
NMTTP	48	288	4	A	1	M1
NMHLD	49	192	0	96
NMHLD	49	192	1	96
NMTAP	49	336	2
NMTAP	49	336	3
NMTAP	50	48	4
NMTAP	50	48	5
NMHLD	50	144	6	96
NMHLD	50	144	7	96
NMTAP	50	288	1
NMTAP	50	288	3
NMTAP	51	0	4
NMTAP	51	0	6
NMSTR	51	96	3
NMSCL	51	96	3	96	48	0
NMSTR	51	96	4
NMSCR	51	96	4	96	48	7
NMTAP	51	288	0
NMTAP	51	312	7
NMTAP	51	336	0
NMTAP	51	360	7
NMTAP	52	0	0
NMTAP	52	24	7
NMTAP	52	48	0
NMTAP	52	72	7
NMTAP	52	96	0
NMTAP	52	120	7
NMTAP	52	144	0
NMTAP	52	168	7
EXTAP	52	192	1
EXTAP	52	192	6
NMTTP	52	288	5	A	0	M1
NMTTP	53	0	4	E	0	M1
NMTTP	53	96	2	A	0	M1
BRHLD	53	192	7	192
NMHLD	54	0	1	144
NMTAP	54	48	7
NMTAP	54	96	6
NMHLD	54	144	5	144
NMTAP	54	288	3
NMTAP	54	336	5
NMTAP	55	0	4
NMTAP	55	0	5
NMTAP	55	72	3
NMTAP	55	72	4
NMTAP	55	144	2
NMTAP	55	144	3
NMTAP	55	192	0
NMHLD	55	192	6	192
NMTAP	56	0	4
NMTAP	56	48	3
NMSTR	56	48	7
NMSCL	56	48	7	96	48	4
NMHLD	56	144	2	96
NMTAP	56	144	7
NMTAP	56	240	3
NMTAP	56	288	1
NMTAP	56	288	4
NMTAP	56	336	5
NMTAP	57	0	2
NMTAP	57	0	6
NMTAP	57	48	1
EXTAP	57	96	0
EXTAP	57	96	7
NMTAP	57	192	1
NMTAP	57	216	2
NMTAP	57	240	3
NMTAP	57	264	4
NMTAP	57	288	7
NMTAP	57	312	6
NMTAP	57	336	5
NMTAP	57	360	4
NMTAP	58	0	0
NMTAP	58	24	1
NMTAP	58	48	2
NMTAP	58	72	3
NMTAP	58	96	4
NMTAP	58	96	5
NMTAP	58	144	2
NMHLD	58	144	6	96
NMSTR	58	240	7
NMSCR	58	240	7	96	48	2
NMTAP	58	288	6
NMTAP	58	336	5
NMSTR	59	48	0
NMSCL	59	48	0	96	48	5
NMTAP	59	96	1
NMTAP	59	144	2
NMTAP	59	240	0
NMTAP	59	240	6
EXTAP	59	288	1
NMTAP	59	304	5
NMTAP	59	320	1
EXTAP	59	336	5
NMTAP	59	352	1
NMTAP	59	368	5
EXTAP	60	0	1
NMTAP	60	48	2
NMTAP	60	48	4
NMTAP	60	96	3
NMHLD	60	144	1	96
NMTAP	60	144	5
NMSTR	60	240	0
BRSCL	60	240	0	96	168	2
NMTTP	60	288	0	C	1	M1
NMTAP	61	192	0
NMSTR	61	192	1
NMSI_	61	192	1	96	48	4
NMTAP	61	288	1
NMTAP	61	288	7
NMTAP	62	0	0
NMSTR	62	0	1
NMSCR	62	0	1	96	48	4
NMTAP	62	96	1
NMTAP	62	96	7
NMSTR	62	192	6
NMSI_	62	192	6	96	48	3
NMTAP	62	192	7
NMTAP	62	288	0
NMTAP	62	288	6
NMSTR	63	0	6
NMSCL	63	0	6	96	48	3
NMTAP	63	0	7
NMTAP	63	96	0
NMTAP	63	96	6
NMTAP	63	192	0
NMSTR	63	192	1
NMSI_	63	192	1	96	48	4
NMTAP	63	288	1
NMSTR	63	288	5
NMSI_	63	288	5	96	48	0
NMSTR	64	0	2
NMSI_	64	0	2	96	48	7
NMTAP	64	0	5
NMTAP	64	96	2
NMSTR	64	96	6
NMSI_	64	96	6	96	48	3
NMTAP	64	192	0
NMTAP	64	192	6
NMTAP	64	288	1
NMTAP	64	288	2
NMTAP	64	336	2
NMTAP	64	336	3
NMTAP	65	0	3
NMTAP	65	0	4
NMTAP	65	48	4
NMTAP	65	48	5
NMTAP	65	96	5
NMTAP	65	96	6
EXTAP	65	144	0
EXTAP	65	144	7
NMTAP	65	240	1
NMTAP	65	264	0
NMTAP	65	288	1
NMTAP	65	336	6
NMTAP	65	360	7
NMTAP	66	0	6
NMTAP	66	48	0
NMTAP	66	72	7
NMSTR	66	96	1
NMSI_	66	96	1	96	576	5
NMTAP	66	120	6
NMTAP	66	144	2
NMTAP	66	168	5
NMTAP	68	168	3
NMTAP	68	180	2
NMHLD	68	192	1	384
NMHLD	69	192	3	192
NMHLD	70	0	4	192
NMHLD	70	192	6	768
NMTAP	71	0	4
NMTAP	71	168	4
NMTAP	71	180	3
NMHLD	71	192	2	384
NMSTR	73	0	4
NMSXL	73	0	4	384	336	7
NMSTR	73	192	3
NMSXR	73	192	3	192	336	0
NMTAP	75	0	1
NMTAP	75	0	6
NMSTR	75	48	1
NMSI_	75	48	1	96	24	4
NMSTR	75	48	6
NMSI_	75	48	6	96	24	3
NMTTP	75	144	4	E	1	M1
NMTAP	75	240	0
NMTAP	75	240	7
NMTAP	75	264	0
NMTAP	75	264	7
BRHLD	75	288	1	192
BRHLD	75	288	6	192
NMTAP	76	144	1
NMTAP	76	144	6
NMTAP	76	288	2
BRSTR	76	288	6
NMSI_	76	288	6	96	48	3
BRSTR	77	0	1
NMSUR	77	0	1	96	96	4
NMTAP	77	0	6
NMTTP	77	96	0	C	1	M1
BXTAP	77	144	7
CNSCR	77	192	4	0	192	3
NMSTR	78	0	7
NMSCL	78	0	7	96	48	4
NMSTR	78	96	0
NMSCR	78	96	0	96	48	3
NMTAP	78	96	7
NMTAP	78	192	0
NMSTR	78	192	6
NMSI_	78	192	6	96	48	2
NMTAP	78	288	0
NMSTR	78	336	0
NMSF_	78	336	0	96	48	4
NMTAP	79	48	0
NMTAP	79	144	2
NMTAP	79	144	6
NMTAP	79	192	2
NMTAP	79	192	6
NMTAP	79	240	3
NMTAP	79	288	4
NMTAP	79	336	2
NMTAP	79	336	5
NMTAP	80	0	1
NMTAP	80	0	6
NMTAP	80	48	0
NMSTR	80	48	7
NMSCL	80	48	7	96	96	4
NMSTR	80	144	4
NMSUL	80	144	4	96	144	3
NMSTR	80	288	3
NMSCL	80	288	3	96	96	0
NMSTR	81	0	0
NMSCL	81	0	0	96	96	5
NMSTR	81	96	5
NMSCL	81	96	5	96	48	3
NMTAP	81	192	2
NMSTR	81	288	0
BRSI_	81	288	0	96	48	4
NMSTR	81	288	1
BRSI_	81	288	1	96	48	5
NMTAP	81	336	0
NMTAP	81	336	1
NMSTR	82	96	6
BRSI_	82	96	6	96	48	2
NMSTR	82	96	7
BRSI_	82	96	7	96	48	3
NMTAP	82	144	6
NMTAP	82	144	7
NMTAP	82	288	0
NMTAP	82	288	1
NMTAP	82	336	2
NMTAP	82	360	3
NMTAP	83	0	1
NMTAP	83	48	5
NMTAP	83	72	4
NMTAP	83	96	6
NMTAP	83	144	0
NMTAP	83	144	7
NMSTR	83	192	6
NMSI_	83	192	6	96	48	3
NMTAP	83	240	6
NMTAP	83	288	0
NMTAP	83	336	2
NMTAP	83	360	2
NMSTR	84	0	4
NMSI_	84	0	4	96	48	7
NMTAP	84	48	4
NMSTR	84	96	1
NMSI_	84	96	1	96	48	5
NMTAP	84	144	1
NMSTR	84	192	6
NMSI_	84	192	6	96	48	3
NMTAP	84	240	6
NMTAP	84	288	0
NMTAP	84	336	2
NMTAP	84	360	2
NMSTR	85	0	4
NMSI_	85	0	4	96	48	7
NMTAP	85	48	4
NMTAP	85	96	0
NMTAP	85	144	0
NMSTR	85	192	1
NMSI_	85	192	1	96	48	3
EXSTR	85	192	7
NMSI_	85	192	7	96	48	3
NMSTR	85	288	1
NMSI_	85	288	1	96	48	5
NMSTR	85	288	7
NMSI_	85	288	7	96	48	5
NMSTR	86	0	7
BRSF_	86	0	7	96	48	3
BXTAP	86	96	7
EXTAP	86	192	2
EXHLD	86	192	4	96
NMTAP	86	288	5
NMTAP	86	304	6
NMTAP	86	320	7
NMTAP	86	336	0
NMTAP	86	352	1
NMTAP	86	368	2
NMTAP	87	0	3
NMTAP	87	16	4
BXTAP	87	32	5
NMTTP	87	192	0	C	1	M1
NMTTP	87	192	2	B	0	M1
NMTTP	87	192	2	A	0	M1
NMTTP	87	192	6	B	0	M1
NMTTP	87	192	6	A	0	M1
EXTAP	89	144	4
EXTAP	89	168	4
NMTAP	89	192	3
NMTAP	89	216	5
NMTAP	89	240	3
NMTAP	89	264	5
NMTAP	89	288	3
NMTAP	89	312	5
NMTAP	89	336	3
NMTAP	89	360	5
NMTAP	90	0	3
NMTAP	90	24	5
NMTAP	90	48	3
NMTAP	90	72	5
NMTAP	90	96	3
NMTAP	90	120	5
NMTAP	90	144	3
NMTAP	90	168	5
NMSTR	90	192	2
NMSI_	90	192	2	96	48	7
NMSTR	90	192	6
NMSI_	90	192	6	96	48	3
BRTAP	91	0	0
BRTAP	91	0	4
BRTAP	91	48	0
BRTAP	91	48	4
NMHLD	91	144	6	96
NMTAP	91	240	7
NMTAP	91	288	0
NMSTR	91	288	5
NMSCL	91	288	5	96	48	2
NMTAP	92	0	1
NMSTR	92	48	1
NMSI_	92	48	1	96	48	4
NMHLD	92	144	5	96
NMTAP	92	240	4
NMTAP	92	288	3
NMTAP	92	288	6
NMTAP	93	0	0
NMTAP	93	0	7
NMTAP	93	48	5
NMTAP	93	96	3
NMHLD	93	144	1	96
NMTAP	93	240	0
NMSTR	93	288	2
NMSCR	93	288	2	96	48	5
NMTAP	93	288	7
NMTAP	94	0	6
NMSTR	94	48	6
NMSI_	94	48	6	96	48	3
NMHLD	94	144	2	96
NMTAP	94	240	3
NMTAP	94	288	2
NMTAP	94	336	1
NMHLD	94	336	5	96
NMTAP	95	48	4
NMTAP	95	96	3
NMTAP	95	96	7
NMSTR	95	192	1
NMSI_	95	192	1	96	48	5
NMSTR	95	240	6
NMSI_	95	240	6	96	48	2
NMTAP	95	288	1
NMTAP	95	336	6
NMTAP	96	48	3
NMTAP	96	48	4
NMTAP	96	96	1
NMTAP	96	96	6
NMTAP	96	192	0
NMTAP	96	192	7
NMTAP	96	240	1
NMTAP	96	240	6
NMTAP	96	288	2
NMTAP	96	288	5
NMSTR	96	336	3
NMSI_	96	336	3	96	48	7
NMSTR	96	336	4
NMSI_	96	336	4	96	48	6
NMSTR	97	48	3
NMSI_	97	48	3	96	48	1
NMSTR	97	48	4
NMSI_	97	48	4	96	48	0
NMTAP	97	144	3
NMTAP	97	144	4
NMHLD	97	240	7	288
NMTAP	97	288	0
NMTAP	97	336	0
NMTAP	98	0	0
NMTAP	98	48	0
NMTAP	98	96	0
NMTAP	98	144	0
NMTAP	98	192	6
NMTAP	98	192	7
NMTAP	98	240	0
NMTAP	98	240	1
NMTAP	98	288	4
NMTAP	98	288	5
NMTAP	98	336	2
NMTAP	98	336	3
BRSTR	99	48	0
BRSI_	99	48	0	96	48	4
BRSTR	99	48	7
BRSI_	99	48	7	96	48	3
BRTAP	99	96	2
BRTAP	99	96	5
NMTTP	99	144	0	C	1	M1

T_REC_TAP	459
T_REC_BRK	7
T_REC_XTP	23
T_REC_BXX	3
T_REC_HLD	48
T_REC_XHO	1
T_REC_BHO	3
T_REC_BXH	0
T_REC_STR	104
T_REC_BST	5
T_REC_XST	4
T_REC_XBS	0
T_REC_TTP	50
T_REC_THO	0
T_REC_SLD	103
T_REC_BSL	10
T_REC_ALL	820
T_NUM_TAP	640
T_NUM_BRK	28
T_NUM_HLD	49
T_NUM_SLD	103
T_NUM_ALL	820
T_JUDGE_TAP	655
T_JUDGE_HLD	155
T_JUDGE_SLD	113
T_JUDGE_ALL	923
TTM_EACHPAIRS	155
TTM_SCR_TAP	320000
TTM_SCR_BRK	72800
TTM_SCR_HLD	49000
TTM_SCR_SLD	154500
TTM_SCR_ALL	596300
TTM_SCR_S	575700
TTM_SCR_SS	593500
TTM_RAT_ACV	10047

