VERSION	0.00.00	1.04.00
FES_MODE	0
BPM_DEF	178.000	178.000	178.000	178.000
MET_DEF	4	4
RESOLUTION	384
CLK_DEF	384
COMPATIBLE_CODE	MA2

BPM	0	0	178.000
MET	0	0	4	4
MET	37	0	4	2
MET	37	192	4	4

NMTHO	1	0	0	768	C	0	M1
EXHLD	4	192	0	96
EXHLD	4	192	7	96
BXTAP	4	336	0
BXTAP	4	336	7
NMTAP	5	48	2
NMHLD	5	96	2	96
NMTAP	5	192	3
NMTAP	5	240	3
NMTAP	5	336	0
NMTAP	5	336	6
NMTAP	6	48	5
NMHLD	6	96	5	96
NMTAP	6	192	4
NMTAP	6	240	4
NMTAP	6	336	1
NMTAP	6	336	7
NMTAP	7	48	2
NMHLD	7	96	2	96
NMTAP	7	192	3
NMTAP	7	240	3
NMTAP	7	336	2
NMTAP	7	336	4
NMTAP	8	48	4
NMTAP	8	48	5
NMTAP	8	144	6
NMTAP	8	144	7
NMTAP	8	240	0
NMTAP	8	288	0
NMHLD	9	0	1	96
NMHLD	9	0	7	96
NMTAP	9	144	1
NMTAP	9	144	7
NMTAP	9	240	4
NMTAP	9	240	5
NMTAP	9	336	2
NMTAP	10	0	2
NMTAP	10	48	3
NMTAP	10	144	0
NMHLD	10	144	1	96
NMTAP	10	240	7
NMTAP	10	336	6
NMTAP	10	336	7
NMTAP	11	48	5
NMTAP	11	96	5
NMTAP	11	144	4
EXTAP	11	240	2
EXTAP	11	240	6
BXTAP	11	288	2
BXTAP	11	288	6
NMSTR	12	0	5
NMSCL	12	0	5	96	144	2
NMTAP	12	288	1
NMSTR	13	0	2
NMSCR	13	0	2	96	144	5
NMTAP	13	288	6
NMSTR	14	0	5
NMSCL	14	0	5	96	144	2
NMSTR	14	288	1
NMSUR	14	288	1	96	288	4
NMHLD	16	0	3	192
NMHLD	16	0	5	192
NMTAP	16	288	3
NMTAP	16	288	5
NMHLD	17	0	2	192
NMHLD	17	0	4	192
NMTAP	17	288	2
NMTAP	17	288	4
NMTAP	18	0	3
NMTAP	18	0	5
NMTAP	18	96	3
NMTAP	18	96	5
NMTAP	18	192	6
NMHLD	18	240	6	96
NMHLD	18	336	5	96
NMTAP	19	48	4
NMTAP	19	144	3
NMTAP	19	144	4
NMTAP	19	240	2
NMTAP	19	240	3
BRTAP	19	288	2
BRTAP	19	288	3
NMHLD	20	0	1	96
NMTAP	20	96	0
NMTAP	20	144	0
NMTAP	20	240	2
NMTAP	20	240	7
NMTAP	20	336	3
NMHLD	20	336	6	96
NMTAP	21	48	4
NMTAP	21	96	4
NMTAP	21	192	4
NMHLD	21	192	5	144
NMTAP	21	336	7
NMTAP	22	0	7
NMHLD	22	48	7	96
NMTAP	22	144	0
NMTAP	22	192	0
NMHLD	22	240	0	96
NMTAP	22	336	1
NMTAP	23	0	1
NMTAP	23	96	2
NMTAP	23	96	3
NMTAP	23	192	4
NMTAP	23	192	5
NMTAP	23	288	0
NMTAP	23	288	7
BXTAP	24	0	1
BXTAP	24	0	6
NMHLD	24	144	5	96
NMTAP	24	240	3
NMTAP	24	336	2
NMTAP	24	336	3
NMTAP	25	48	1
NMTAP	25	96	1
NMTAP	25	144	0
EXTAP	25	240	2
EXTAP	25	240	6
EXTAP	25	288	2
EXTAP	25	288	6
NMTAP	26	0	1
EXSTR	26	0	5
NMSI_	26	0	5	96	96	0
NMTTP	26	192	1	E	0	M1
NMTTP	26	288	0	C	0	M1
NMTTP	27	0	5	E	0	M1
NMTTP	27	96	4	E	0	M1
NMTTP	27	192	2	B	0	M1
NMTTP	27	192	3	B	0	M1
NMTTP	27	192	3	E	0	M1
NMSTR	28	0	1
NMSCL	28	0	1	96	96	6
NMSTR	28	192	5
NMSCL	28	192	5	96	96	2
EXTAP	29	0	1
EXTAP	29	96	0
EXTAP	29	96	1
EXTAP	29	192	0
EXTAP	29	192	7
EXTAP	29	288	6
EXTAP	29	288	7
NMSTR	30	0	5
NMSCR	30	0	5	96	96	0
NMTTP	30	192	0	B	0	M1
NMTTP	30	192	1	E	0	M1
NMTTP	30	288	2	E	0	M1
NMTTP	31	0	3	B	0	M1
NMTTP	31	0	3	E	0	M1
NMTTP	31	96	5	E	0	M1
NMTTP	31	192	6	B	0	M1
NMTTP	31	192	6	E	0	M1
EXHLD	32	0	7	96
NMTAP	32	96	4
NMTAP	32	144	4
NMTAP	32	192	6
NMTAP	32	288	3
NMTAP	32	288	5
NMTAP	33	0	2
NMTAP	33	0	3
NMHLD	33	96	1	96
NMTAP	33	192	4
NMTAP	33	288	1
NMTAP	33	288	4
NMTAP	34	0	2
NMTAP	34	48	2
NMTAP	34	96	4
NMTAP	34	144	4
NMTAP	34	192	3
NMTAP	34	240	3
NMTAP	34	288	5
NMSTR	34	336	5
NMSXL	34	336	5	96	336	0
BXHLD	36	0	2	384
EXTAP	37	0	3
EXTAP	37	48	3
BRTAP	37	144	0
BRTAP	37	144	6
NMTAP	37	240	5
NMSTR	37	288	5
NMSI_	37	288	5	96	48	3
NMHLD	38	0	1	96
NMTAP	38	96	0
NMTAP	38	144	0
NMTAP	38	240	6
NMTAP	38	240	7
NMTAP	38	288	6
NMTAP	38	288	7
NMTAP	39	0	4
NMTAP	39	0	5
EXTAP	39	96	1
EXTAP	39	96	3
BXTAP	39	144	1
BXTAP	39	144	3
NMTAP	39	240	0
NMHLD	39	288	0	96
NMHLD	40	0	2	96
NMHLD	40	96	4	96
NMSTR	40	192	6
NMSLR	40	192	6	96	144	2
NMTAP	41	192	2
NMTAP	41	240	2
NMTAP	41	288	3
NMTAP	41	336	1
NMTAP	42	0	7
NMTAP	42	48	7
NMTAP	42	144	2
NMTAP	42	144	6
NMTAP	42	240	0
NMHLD	42	288	0	96
NMHLD	43	0	2	96
NMHLD	43	96	4	96
NMHLD	43	192	6	96
NMTAP	43	288	0
NMTAP	43	336	0
NMSTR	44	48	1
NMSUR	44	48	1	96	240	4
NMTAP	44	48	7
NMSTR	45	96	6
NMSI_	45	96	6	96	48	3
NMTAP	45	96	7
NMTAP	45	288	0
NMSTR	45	288	1
NMSI_	45	288	1	96	48	4
NMTAP	46	96	6
NMSTR	46	96	7
NMSI_	46	96	7	96	48	2
NMSTR	46	288	0
NMSI_	46	288	0	96	48	5
NMTAP	46	288	1
NMTAP	47	96	6
NMTAP	47	96	7
NMTAP	47	192	4
NMTAP	47	192	5
NMTAP	47	288	2
NMTAP	47	288	3
NMSTR	48	0	0
NMSCL	48	0	0	96	192	3
NMSTR	48	0	1
NMSUL	48	0	1	96	192	2
NMTAP	49	96	0
NMTAP	49	144	1
NMHLD	49	192	2	96
NMTAP	49	288	3
NMTAP	49	336	3
NMTAP	50	48	2
NMTAP	50	48	4
NMTAP	50	144	4
NMHLD	50	144	6	96
NMTAP	50	240	7
NMSTR	50	288	7
NMSF_	50	288	7	96	96	3
BRTAP	51	192	1
BRTAP	51	192	5
NMTAP	51	288	2
NMTAP	51	288	3
NMTAP	52	0	1
NMTAP	52	0	4
NMTAP	52	96	4
NMTAP	52	96	5
NMTAP	52	192	3
NMHLD	52	192	6	384
NMTTP	53	192	0	C	1	M1
NMTTP	53	192	3	B	0	M1
NMTTP	53	192	4	B	0	M1
NMTTP	53	192	4	E	0	M1
NMTAP	54	96	0
NMTAP	54	96	7
NMTAP	54	144	0
NMTAP	54	144	7
NMTAP	54	240	1
NMTAP	54	240	6
NMTAP	54	288	1
NMTAP	54	288	6
NMHLD	55	0	2	72
NMHLD	55	72	3	72
NMTAP	55	144	2
NMTTP	55	192	0	C	1	M1
NMTAP	56	48	0
NMTAP	56	96	0
NMTAP	56	144	6
NMTAP	56	240	1
NMTAP	56	240	5
NMSTR	56	288	1
NMSCR	56	288	1	96	96	4
NMSTR	56	288	5
NMSCR	56	288	5	96	96	0
BXTAP	57	192	3
BXTAP	57	192	7
NMTAP	57	288	6
NMTAP	57	336	6
NMTAP	58	0	4
NMTAP	58	48	5
NMTAP	58	96	3
NMHLD	58	144	2	96
NMTAP	58	240	7
NMTAP	58	288	6
NMHLD	58	336	5	96
NMTAP	59	48	7
NMTAP	59	96	0
NMHLD	59	144	1	96
NMTAP	59	240	6
NMSTR	59	288	6
NMSI_	59	288	6	96	96	2
NMSTR	60	96	0
NMSCR	60	96	0	96	192	5
EXTAP	61	96	6
EXTAP	61	96	7
NMTAP	61	192	0
NMTAP	61	192	1
NMTAP	61	288	2
NMTAP	61	288	3
NMTAP	62	0	5
NMTAP	62	48	4
NMTAP	62	96	3
NMTAP	62	96	5
NMTAP	62	192	6
NMTAP	62	192	7
NMTAP	62	288	4
NMTAP	62	288	5
NMTAP	63	0	2
NMTAP	63	48	3
NMTAP	63	96	2
NMTAP	63	96	4
NMHLD	63	192	5	96
NMHLD	63	288	7	96
NMHLD	64	0	1	96
NMTAP	64	96	3
NMTAP	64	192	2
NMTAP	64	192	3
NMTAP	64	288	1
NMTAP	64	336	1
NMTAP	65	0	3
NMTAP	65	48	2
NMTAP	65	96	7
BRTAP	65	144	7
NMTAP	65	240	0
NMTAP	65	240	6
NMTAP	65	288	0
NMSTR	65	288	6
NMSI_	65	288	6	96	96	1
CNSI_	66	96	1	0	96	4
BXHLD	66	192	7	672
NMTAP	68	192	0
NMHLD	68	192	7	2304
NMTTP	69	192	0	E	0	M1
NMTTP	70	0	0	C	0	M1
NMTTP	70	192	3	B	0	M1
NMTTP	70	192	4	B	0	M1
NMTTP	70	192	4	E	0	M1
NMTHO	71	192	0	384	C	0	M1
NMHLD	73	192	0	384
NMTAP	75	0	0
NMTAP	75	0	7
NMTAP	75	48	0
NMTAP	75	48	7
NMTAP	75	144	1
NMTAP	75	144	6
NMTAP	75	240	3
NMTAP	75	240	4
NMHLD	75	288	3	192
NMHLD	75	288	4	192
EXTAP	76	144	3
EXTAP	76	144	4
NMTAP	76	240	1
NMHLD	76	288	1	96
NMTAP	77	0	0
NMTAP	77	96	0
NMTAP	77	96	1
BXTAP	77	144	2
BXTAP	77	144	7
NMTAP	77	240	4
NMTAP	77	240	5
NMTAP	77	288	4
NMTAP	77	288	5
NMTAP	78	0	2
NMTAP	78	0	3
NMTAP	78	96	4
NMTAP	78	96	6
NMTAP	78	192	0
NMTAP	78	192	1
NMTAP	78	288	6
NMHLD	78	336	6	96
NMTAP	79	48	7
NMTAP	79	96	0
NMTAP	79	96	5
NMTAP	79	192	2
NMTAP	79	192	3
NMHLD	79	288	1	96
NMHLD	80	0	7	96
NMHLD	80	96	5	96
NMHLD	80	192	3	96
NMSTR	80	288	1
NMSCL	80	288	1	96	96	5
EXTAP	81	192	3
EXTAP	81	192	4
NMTAP	81	288	2
NMTAP	81	336	2
NMTAP	82	0	3
NMTAP	82	48	1
NMTAP	82	96	7
BRTAP	82	144	7
NMTAP	82	240	0
NMTAP	82	240	6
NMTAP	82	288	0
NMTAP	82	288	6
NMTAP	83	0	1
NMTAP	83	0	3
NMTAP	83	96	3
NMTAP	83	96	4
NMSTR	83	192	6
NMSI_	83	192	6	96	48	3
NMSTR	83	192	7
NMSI_	83	192	7	96	48	3
NMSTR	84	0	0
NMSI_	84	0	0	96	48	4
NMSTR	84	0	1
NMSI_	84	0	1	96	48	4
NMSTR	84	192	6
NMSI_	84	192	6	96	48	2
NMSTR	84	192	7
NMSI_	84	192	7	96	48	2
NMSTR	85	0	0
NMSI_	85	0	0	96	48	5
NMSTR	85	0	1
NMSI_	85	0	1	96	48	5
BRTAP	85	192	6
BRTAP	85	192	7
BRTAP	85	288	0
BRTAP	85	288	1
BRTAP	86	0	2
BRTAP	86	0	3
BRSTR	86	96	4
BRSUR	86	96	4	96	192	3
BRSTR	86	96	5
BRSCR	86	96	5	96	192	2
NMTAP	87	96	3
NMTAP	87	96	4
NMHLD	87	192	2	672
NMHLD	87	192	5	672
BRTAP	89	192	0
BRTAP	89	192	7
NMTAP	89	288	0
NMTAP	89	288	1
NMTAP	89	336	0
NMTAP	89	336	1
NMTAP	90	0	2
NMTAP	90	0	7
NMTAP	90	96	6
NMTAP	90	96	7
NMTAP	90	144	6
NMTAP	90	144	7
NMHLD	90	192	0	192
EXTAP	90	192	5
NMTAP	91	0	3
NMSTR	91	48	3
BRSI_	91	48	3	96	48	7
BXTAP	91	144	2
EXTAP	91	240	0
EXTAP	91	240	6
EXTAP	91	288	0
EXTAP	91	288	6
NMTAP	92	0	5
NMTAP	92	48	4
NMTAP	92	96	3
NMHLD	92	144	2	96
NMTAP	92	240	3
NMTAP	92	288	1
NMTAP	92	288	4
NMSTR	93	0	5
NMSI_	93	0	5	96	48	1
NMTAP	93	96	0
BRSTR	93	144	0
BRSCR	93	144	0	96	336	7
NMTAP	95	0	0
NMTAP	95	0	7
NMTAP	95	96	3
NMTAP	95	96	4
NMTAP	95	192	2
NMTAP	95	240	3
NMTAP	95	288	4
NMHLD	95	336	5	96
NMTAP	96	48	4
NMTAP	96	96	3
NMTAP	96	96	6
NMTAP	96	192	1
NMTAP	96	240	0
NMTAP	96	288	7
NMTAP	96	336	2
NMTAP	96	336	6
NMTAP	97	48	3
NMTAP	97	48	4
NMTHO	97	144	0	480	C	0	M1
NMTTP	97	144	2	B	0	M1
NMTTP	97	144	5	B	0	M1
BRTAP	99	48	0
BRTAP	99	48	7
BRTAP	99	96	1
BRTAP	99	96	6
BRTAP	99	144	2
BRTAP	99	144	5

T_REC_TAP	272
T_REC_BRK	22
T_REC_XTP	28
T_REC_BXX	13
T_REC_HLD	53
T_REC_XHO	3
T_REC_BHO	0
T_REC_BXH	2
T_REC_STR	34
T_REC_BST	3
T_REC_XST	1
T_REC_XBS	0
T_REC_TTP	27
T_REC_THO	3
T_REC_SLD	34
T_REC_BSL	4
T_REC_ALL	499
T_NUM_TAP	362
T_NUM_BRK	44
T_NUM_HLD	59
T_NUM_SLD	34
T_NUM_ALL	499
T_JUDGE_TAP	400
T_JUDGE_HLD	265
T_JUDGE_SLD	38
T_JUDGE_ALL	703
TTM_EACHPAIRS	129
TTM_SCR_TAP	181000
TTM_SCR_BRK	114400
TTM_SCR_HLD	59000
TTM_SCR_SLD	51000
TTM_SCR_ALL	405400
TTM_SCR_S	389000
TTM_SCR_SS	401000
TTM_RAT_ACV	10109

