VERSION	0.00.00	1.04.00
FES_MODE	0
BPM_DEF	184.000	184.000	184.000	184.000
MET_DEF	4	4
RESOLUTION	384
CLK_DEF	384
COMPATIBLE_CODE	MA2

BPM	0	0	184.000
MET	0	0	4	4

EXTAP	1	0	2
NMTAP	1	24	4
NMTAP	1	48	3
NMTAP	1	72	4
NMTAP	1	96	3
NMTAP	1	120	4
EXTAP	1	144	2
NMTAP	1	168	4
NMTAP	1	192	3
NMTAP	1	216	4
NMTAP	1	240	3
NMTAP	1	264	4
EXTAP	1	288	2
NMTAP	1	312	4
NMTAP	1	336	3
NMTAP	1	360	4
EXTAP	2	0	2
NMTAP	2	24	4
NMTAP	2	48	3
NMTAP	2	72	4
NMTAP	2	96	3
NMTAP	2	120	4
EXTAP	2	144	2
NMTAP	2	168	4
NMTAP	2	192	3
NMTAP	2	216	4
NMTAP	2	240	3
NMTAP	2	264	4
EXTAP	2	288	2
NMTAP	2	312	4
NMTAP	2	336	3
NMTAP	2	360	4
EXTAP	3	0	2
NMTAP	3	24	4
NMTAP	3	48	3
NMTAP	3	72	4
NMTAP	3	96	3
NMTAP	3	120	4
EXTAP	3	144	2
NMTAP	3	168	4
NMTAP	3	192	3
NMTAP	3	216	4
NMTAP	3	240	3
NMTAP	3	264	4
EXTAP	3	288	2
NMTAP	3	312	4
NMTAP	3	336	3
NMTAP	3	360	4
EXTAP	4	0	2
NMTAP	4	24	4
NMTAP	4	48	3
NMTAP	4	72	4
NMTAP	4	96	3
NMTAP	4	120	4
EXTAP	4	144	2
NMTAP	4	168	4
NMTAP	4	192	3
NMTAP	4	216	4
NMTAP	4	240	3
NMTAP	4	264	4
EXTAP	4	288	2
NMTAP	4	312	4
NMTAP	4	336	3
NMTAP	4	360	4
EXTAP	5	0	1
NMTAP	5	24	5
NMTAP	5	48	4
NMTAP	5	72	5
NMTAP	5	96	4
NMTAP	5	120	5
EXTAP	5	144	1
NMTAP	5	168	5
NMTAP	5	192	4
NMTAP	5	216	5
NMTAP	5	240	4
NMTAP	5	264	5
EXTAP	5	288	1
NMTAP	5	312	5
NMTAP	5	336	4
NMTAP	5	360	5
EXTAP	6	0	1
NMTAP	6	24	5
NMTAP	6	48	4
NMTAP	6	72	5
NMTAP	6	96	4
NMTAP	6	120	5
EXTAP	6	144	1
NMTAP	6	168	5
NMTAP	6	192	4
NMTAP	6	216	5
NMTAP	6	240	4
NMTAP	6	264	5
EXTAP	6	288	1
NMTAP	6	312	5
NMTAP	6	336	4
NMTAP	6	360	5
EXTAP	7	0	3
EXTAP	7	0	6
NMTAP	7	48	3
NMTAP	7	48	6
NMTAP	7	96	2
NMTAP	7	96	4
NMTAP	7	144	2
NMTAP	7	144	4
NMTAP	7	192	1
NMTAP	7	192	5
NMTAP	7	240	1
NMTAP	7	240	5
NMTAP	7	288	0
NMTAP	7	288	6
NMTAP	7	336	0
NMTAP	7	336	6
NMTAP	8	0	7
NMTAP	8	24	0
NMTAP	8	48	1
NMTAP	8	72	2
NMTAP	8	96	7
NMTAP	8	120	6
NMTAP	8	144	5
NMTAP	8	168	4
NMTAP	8	192	1
NMTAP	8	204	2
NMTAP	8	216	3
NMTAP	8	228	4
NMTAP	8	240	5
NMTAP	8	252	6
NMTAP	8	264	7
NMTAP	8	276	0
EXTAP	8	288	1
EXTAP	8	288	5
BRTAP	9	0	2
BRTAP	9	0	4
NMTAP	9	48	3
NMTAP	9	96	5
NMHLD	9	144	7	96
NMTAP	9	240	5
NMTAP	9	288	4
NMTAP	9	336	6
NMTAP	10	0	3
NMTAP	10	0	5
NMTAP	10	48	4
NMTAP	10	96	2
NMHLD	10	144	0	96
NMTAP	10	240	2
NMTAP	10	288	3
NMTAP	10	336	1
NMTAP	11	0	2
NMTAP	11	0	4
NMTAP	11	48	2
NMTAP	11	96	2
NMTAP	11	144	3
NMTAP	11	144	6
NMTAP	11	192	6
NMTAP	11	240	6
NMTAP	11	288	1
NMTAP	11	288	5
NMHLD	11	336	0	96
EXTAP	12	48	7
NMTAP	12	96	2
EXTAP	12	96	6
NMTAP	12	144	3
EXTAP	12	192	4
EXTAP	12	192	5
BRTAP	12	240	3
BRTAP	12	240	7
NMSTR	13	0	1
NMSI_	13	0	1	96	48	4
NMTAP	13	0	5
NMTAP	13	96	5
NMSTR	13	192	3
NMSI_	13	192	3	96	48	0
NMTAP	13	192	5
NMTAP	13	288	5
NMTAP	14	0	6
NMSTR	14	0	7
NMSI_	14	0	7	96	48	2
NMTAP	14	96	6
NMSTR	14	192	1
NMSUR	14	192	1	96	192	4
NMTAP	14	192	6
NMTAP	14	288	6
NMTAP	15	0	7
NMTAP	15	96	6
NMTAP	15	192	4
NMTAP	15	192	5
NMTAP	15	288	3
NMSTR	15	288	6
NMSCR	15	288	6	96	96	1
NMSTR	16	0	1
NMSCR	16	0	1	96	96	4
NMSTR	16	96	4
NMSCR	16	96	4	96	96	7
NMSTR	16	192	7
NMSCR	16	192	7	96	96	2
NMSTR	16	288	2
NMSCL	16	288	2	96	192	4
NMHLD	17	0	3	192
NMTAP	17	288	2
NMTAP	17	288	4
NMSTR	18	0	1
NMSI_	18	0	1	96	48	4
NMTAP	18	0	5
NMTAP	18	96	0
NMTAP	18	192	2
NMSTR	18	192	6
NMSI_	18	192	6	96	48	3
NMTAP	18	288	7
NMSTR	19	0	0
NMSI_	19	0	0	96	48	3
NMTAP	19	0	1
NMTAP	19	96	4
NMTAP	19	192	6
NMSTR	19	192	7
NMSI_	19	192	7	96	48	4
NMTAP	19	288	3
NMTAP	20	0	0
NMHLD	20	0	1	96
NMTAP	20	96	3
NMTAP	20	144	2
NMTAP	20	144	4
NMTAP	20	240	6
NMTAP	20	240	7
NMSTR	20	288	1
NMSCR	20	288	1	96	48	4
NMTAP	20	288	5
NMSTR	21	0	7
NMSI_	21	0	7	96	48	3
NMSTR	21	96	2
NMSLR	21	96	2	96	72	1
NMTAP	21	192	4
NMSTR	21	240	6
NMSI_	21	240	6	96	48	2
NMTAP	21	336	6
NMTAP	21	336	7
NMTAP	22	48	0
NMTAP	22	48	1
NMTAP	22	96	2
NMTAP	22	96	7
NMTAP	22	192	4
NMTAP	22	192	5
NMTAP	22	240	4
NMTAP	22	240	5
NMTAP	22	288	2
NMSTR	22	288	6
NMSCL	22	288	6	96	48	3
NMSTR	23	0	0
NMSI_	23	0	0	96	48	4
NMSTR	23	96	5
NMSLL	23	96	5	96	72	6
NMTAP	23	192	3
NMSTR	23	240	1
NMSI_	23	240	1	96	48	5
NMTAP	23	336	0
NMTAP	23	336	1
NMTAP	24	48	6
NMTAP	24	48	7
NMTAP	24	96	0
NMTAP	24	96	5
NMTAP	24	192	2
NMTAP	24	192	3
NMTAP	24	240	2
NMTAP	24	240	3
NMTAP	24	288	1
NMSTR	24	288	5
NMSUL	24	288	5	96	168	3
NMHLD	25	0	3	96
NMTAP	25	0	5
EXSTR	25	144	0
NMSI_	25	144	0	96	48	4
EXSTR	25	288	5
NMSUL	25	288	5	96	168	3
NMHLD	26	0	3	96
NMTAP	26	0	5
EXSTR	26	144	0
NMSI_	26	144	0	96	48	4
EXTAP	26	288	5
NMTAP	27	0	3
NMTTP	27	0	7	A	0	M1
NMTAP	27	64	3
NMTTP	27	64	6	A	0	M1
NMTAP	27	128	3
NMTTP	27	128	5	A	0	M1
NMTTP	27	192	2	A	0	M1
NMTAP	27	192	4
NMTTP	27	256	1	A	0	M1
NMTAP	27	256	4
NMTTP	27	320	0	A	0	M1
NMTAP	27	320	4
NMSTR	28	0	3
NMSF_	28	0	3	96	48	7
NMTAP	28	96	3
NMTAP	28	192	1
NMTAP	28	192	5
NMTTP	28	288	2	E	0	M1
NMTTP	28	288	3	B	1	M1
NMTTP	28	288	3	E	0	M1
NMTTP	28	288	4	E	0	M1
NMTTP	28	288	5	E	0	M1
EXTAP	29	0	6
EXTAP	29	0	7
NMTAP	29	48	0
NMTAP	29	96	6
NMTAP	29	96	7
NMTAP	29	144	5
NMTAP	29	192	3
NMTAP	29	192	4
NMTAP	29	240	2
NMTAP	29	288	1
NMTAP	29	312	0
NMTAP	29	336	1
NMTAP	30	0	2
NMTAP	30	0	7
NMTAP	30	48	3
NMTAP	30	96	4
NMTAP	30	96	5
NMTAP	30	144	6
NMTAP	30	192	1
NMTAP	30	216	0
NMTAP	30	240	1
NMTAP	30	264	0
NMTAP	30	288	7
NMTAP	30	312	6
BRTAP	30	336	5
NMTAP	31	0	2
NMTAP	31	0	3
NMTAP	31	48	3
NMTAP	31	48	4
NMTAP	31	96	4
NMTAP	31	96	5
BRTAP	31	144	0
NMTAP	31	192	2
NMTAP	31	192	3
NMTAP	31	240	3
NMTAP	31	240	4
NMTAP	31	288	4
NMTAP	31	288	5
BRTAP	31	336	0
NMTAP	32	0	2
NMTAP	32	0	3
NMTAP	32	24	4
NMTAP	32	48	5
NMTAP	32	72	6
NMTAP	32	96	3
NMTAP	32	120	2
NMTAP	32	144	1
NMTAP	32	192	7
NMTAP	32	216	0
NMTAP	32	240	7
NMTAP	32	264	0
BRTAP	32	288	1
BRTAP	32	288	6
NMTAP	33	0	4
NMTAP	33	0	5
NMTAP	33	48	3
NMTAP	33	48	4
NMTAP	33	96	2
NMTAP	33	120	3
NMTAP	33	144	2
NMTAP	33	168	3
NMTAP	33	192	1
NMTAP	33	216	4
NMTAP	33	240	1
NMTAP	33	264	4
NMTAP	33	288	0
NMTAP	33	312	5
NMTAP	33	336	0
NMTAP	33	360	5
NMTAP	34	0	7
NMTAP	34	24	0
NMTAP	34	48	1
NMTAP	34	72	2
NMTAP	34	96	7
NMTAP	34	120	6
NMTAP	34	144	5
NMTAP	34	168	4
NMSTR	34	192	1
NMSI_	34	192	1	96	48	4
NMSTR	34	192	3
BRSI_	34	192	3	96	48	7
NMTAP	34	240	1
NMTAP	34	240	3
NMTAP	35	0	0
NMTAP	35	24	7
NMTAP	35	48	6
NMTAP	35	72	5
NMTAP	35	96	0
NMTAP	35	120	1
NMTAP	35	144	2
NMTAP	35	168	3
NMSTR	35	192	4
BRSI_	35	192	4	96	48	0
NMSTR	35	192	6
NMSI_	35	192	6	96	48	3
NMTAP	35	240	4
NMTAP	35	240	6
NMTAP	36	0	7
NMTAP	36	24	3
NMTAP	36	48	7
NMTAP	36	72	3
NMTAP	36	96	0
NMTAP	36	120	4
NMTAP	36	144	0
NMTAP	36	168	4
EXSTR	36	192	1
NMSI_	36	192	1	96	48	4
EXSTR	36	192	5
NMSV_	36	192	5	96	48	0
EXTAP	36	240	2
EXTAP	36	240	6
BRTAP	36	288	1
BRTAP	36	288	5
NMHLD	37	0	7	96
NMTAP	37	48	4
NMTAP	37	96	4
NMHLD	37	144	6	96
NMTAP	37	192	3
NMTAP	37	240	3
NMTAP	37	288	4
NMTAP	37	288	5
NMTAP	37	336	6
NMHLD	38	0	0	96
NMTAP	38	48	3
NMTAP	38	96	3
NMHLD	38	144	1	96
NMTAP	38	192	4
NMTAP	38	240	4
NMTAP	38	288	2
NMTAP	38	288	3
NMTAP	38	336	1
NMTAP	39	0	0
NMTAP	39	0	7
NMTAP	39	48	5
NMTAP	39	96	0
NMTAP	39	96	7
NMTAP	39	144	2
NMTTP	39	192	5	A	0	M1
NMTTP	39	208	6	E	0	M1
NMTTP	39	224	7	E	0	M1
NMTTP	39	240	7	A	0	M1
NMTTP	39	288	2	A	0	M1
NMTTP	39	304	2	E	0	M1
NMTTP	39	320	1	E	0	M1
NMTTP	39	336	0	A	0	M1
NMTTP	40	0	4	E	0	M1
NMTTP	40	16	0	C	0	M1
NMTTP	40	32	0	E	0	M1
NMTAP	40	96	1
NMTAP	40	120	6
NMTAP	40	144	1
NMTAP	40	168	6
NMTAP	40	192	1
NMTAP	40	216	6
NMTAP	40	240	1
NMTAP	40	264	6
EXSTR	40	288	0
BRSSL	40	288	0	96	48	4
EXSTR	40	288	7
BRSSR	40	288	7	96	48	3
NMTTP	41	0	0	E	1	M1
NMTAP	41	96	1
NMTAP	41	96	6
NMTAP	41	192	2
NMTAP	41	192	4
NMTAP	41	240	3
NMSTR	41	288	4
NMSI_	41	288	4	96	48	0
NMSTR	41	288	6
NMSI_	41	288	6	96	48	4
NMTAP	42	0	4
NMTAP	42	0	6
NMTAP	42	96	1
NMTTP	42	96	3	B	0	M1
NMTTP	42	96	4	E	0	M1
NMTTP	42	192	5	B	0	M1
NMTTP	42	192	5	E	0	M1
NMTTP	42	192	5	A	0	M1
NMTAP	42	192	7
NMSTR	42	288	0
NMSUR	42	288	0	96	48	4
NMSTR	42	288	1
NMSCR	42	288	1	96	48	4
NMTAP	43	0	0
NMTAP	43	0	1
NMSTR	43	96	0
NMSUR	43	96	0	96	48	4
NMSTR	43	96	1
NMSCR	43	96	1	96	48	4
NMTAP	43	192	0
NMTAP	43	192	1
NMSTR	43	288	7
NMSI_	43	288	7	96	48	3
NMTAP	43	336	0
NMSTR	44	0	1
NMSCR	44	0	1	96	48	4
NMTAP	44	96	1
NMSTR	44	96	6
NMSUL	44	96	6	96	48	2
NMSTR	44	192	0
NMSF_	44	192	0	96	48	4
NMTAP	44	192	6
NMTAP	44	288	0
BRTAP	45	0	2
BRTAP	45	0	6
NMSTR	45	96	5
NMSXL	45	96	5	96	120	4
NMTAP	45	192	3
NMTAP	45	192	5
NMSTR	45	288	1
NMSXL	45	288	1	96	120	0
NMTAP	46	0	1
NMTAP	46	0	7
NMSTR	46	96	5
NMSXL	46	96	5	96	120	4
NMTAP	46	192	3
NMTAP	46	192	5
NMHLD	46	288	1	96
NMSTR	47	0	0
NMSCL	47	0	0	96	96	2
EXSTR	47	96	2
NMSLR	47	96	2	96	72	6
NMSTR	47	192	0
NMSCL	47	192	0	96	96	2
EXSTR	47	288	2
NMSLR	47	288	2	96	72	6
NMTAP	48	0	0
EXTAP	48	96	2
NMTAP	48	192	1
NMTAP	48	216	0
NMTAP	48	240	1
NMTAP	48	288	6
NMTAP	48	312	7
NMTAP	48	336	6
NMTAP	48	360	7
BRTAP	49	0	0
BRTAP	49	0	5
NMTAP	49	96	2
NMTAP	49	96	3
NMTAP	49	144	5
NMSTR	49	192	1
NMSI_	49	192	1	96	48	3
NMTAP	49	192	7
NMTAP	49	288	1
NMSTR	49	288	4
NMSI_	49	288	4	96	48	0
NMTAP	50	0	4
NMTAP	50	0	6
NMTAP	50	96	1
NMTTP	50	96	3	B	0	M1
NMTTP	50	96	4	E	0	M1
NMTTP	50	192	5	B	0	M1
NMTTP	50	192	5	E	0	M1
NMTTP	50	192	5	A	0	M1
NMTAP	50	192	7
NMTAP	50	288	0
NMTAP	50	288	1
NMSTR	51	0	3
NMSI_	51	0	3	96	48	7
NMSTR	51	0	4
NMSI_	51	0	4	96	48	6
NMTAP	51	96	3
NMTAP	51	96	4
NMSTR	51	192	3
NMSI_	51	192	3	96	48	1
NMSTR	51	192	4
NMSI_	51	192	4	96	48	0
NMTAP	51	288	3
NMTAP	51	288	4
NMSTR	52	0	6
NMSCL	52	0	6	96	48	3
NMTAP	52	0	7
NMSTR	52	96	1
NMSUR	52	96	1	96	48	5
NMTAP	52	96	6
NMTAP	52	192	1
NMSTR	52	192	7
NMSF_	52	192	7	96	48	3
NMTAP	52	288	7
BRTAP	53	0	1
BRTAP	53	0	5
NMSTR	53	96	2
NMSI_	53	96	2	96	48	7
NMSTR	53	96	6
NMSI_	53	96	6	96	48	3
NMTAP	53	192	2
NMTAP	53	192	6
NMTAP	53	288	0
NMTAP	53	336	1
NMSTR	53	336	7
NMSCL	53	336	7	96	48	4
NMSTR	54	48	0
NMSCR	54	48	0	96	48	3
NMTAP	54	48	7
NMTAP	54	144	0
NMTAP	54	144	7
NMTAP	54	240	4
NMTAP	54	240	6
NMTAP	54	288	3
NMTAP	54	288	5
NMTAP	54	336	2
NMTAP	54	336	4
NMTAP	55	0	1
NMSTR	55	0	3
NMSI_	55	0	3	96	48	7
NMTAP	55	96	0
NMSTR	55	144	0
NMSI_	55	144	0	96	48	4
NMTAP	55	240	0
NMSTR	55	240	5
NMSCR	55	240	5	96	120	3
NMTAP	55	336	3
NMTAP	55	336	5
NMTAP	56	96	0
NMTAP	56	192	1
NMTAP	56	224	3
NMTAP	56	256	2
NMTAP	56	288	5
NMTAP	56	320	4
NMTAP	56	352	6
NMTAP	57	0	3
NMTAP	57	0	7
NMTAP	57	48	3
NMHLD	57	48	7	96
NMTAP	57	144	4
NMTAP	57	192	3
NMHLD	57	192	5	96
NMTAP	57	288	2
NMTAP	57	336	1
NMHLD	57	336	3	96
NMTAP	58	48	0
NMSTR	58	96	1
NMSI_	58	96	1	96	48	4
NMTAP	58	96	7
NMSTR	58	192	6
NMSI_	58	192	6	96	48	3
NMHLD	58	288	0	96
NMHLD	59	0	2	96
NMHLD	59	96	4	96
NMTAP	59	192	6
NMTAP	59	216	5
NMTAP	59	240	4
NMTAP	59	264	3
NMTAP	59	288	0
NMTAP	59	312	1
NMTAP	59	336	2
NMTAP	59	360	3
NMTAP	60	0	7
NMTTP	60	96	4	B	0	M1
NMTTP	60	96	4	A	0	M1
NMTAP	60	96	5
NMTAP	60	192	1
NMTTP	60	192	3	E	0	M1
NMTTP	60	192	3	D	0	M1
NMTTP	60	288	5	E	0	M1
NMTTP	60	288	5	A	0	M1
NMSTR	60	288	7
NMSCR	60	288	7	96	48	2
NMTAP	61	0	6
NMTAP	61	0	7
NMTAP	61	96	4
NMTAP	61	120	5
NMTAP	61	144	6
NMTAP	61	168	7
NMTAP	61	192	3
NMTAP	61	216	4
NMTAP	61	240	5
NMTAP	61	264	6
NMTAP	61	288	2
NMTAP	61	312	3
NMTAP	61	336	4
NMTAP	61	360	5
NMTAP	62	0	1
NMTAP	62	24	2
NMTAP	62	48	3
NMTAP	62	72	4
NMTAP	62	96	0
NMTAP	62	120	1
NMTAP	62	144	2
NMTAP	62	168	3
NMTAP	62	192	7
NMSTR	62	240	7
BRSF_	62	240	7	96	48	3
NMTTP	62	336	0	C	1	M1
NMTAP	63	96	1
NMTAP	63	96	5
NMTAP	63	144	1
NMTAP	63	144	5
NMHLD	63	192	2	72
NMTAP	63	264	3
NMTAP	63	288	2
NMTAP	63	336	1
NMTAP	63	336	4
NMHLD	64	0	5	72
NMTAP	64	72	4
NMTAP	64	96	5
NMTAP	64	144	3
NMTAP	64	144	6
NMTAP	64	192	2
NMTAP	64	192	4
NMTAP	64	264	0
NMTAP	64	264	1
NMTAP	64	336	2
NMTAP	64	336	7
NMHLD	65	0	6	72
NMTAP	65	72	7
NMTAP	65	96	6
NMTAP	65	144	0
NMTAP	65	144	5
NMHLD	65	192	1	72
NMTAP	65	264	0
NMTAP	65	288	1
NMTAP	65	336	2
NMTAP	65	336	7
NMTAP	66	0	3
NMTAP	66	0	6
NMTAP	66	48	5
NMTAP	66	96	1
NMTAP	66	96	4
NMTAP	66	144	2
NMTAP	66	192	3
NMTAP	66	192	5
NMTAP	66	264	6
NMTAP	66	264	7
NMTAP	66	336	0
NMTAP	66	336	5
NMHLD	67	0	2	72
NMTAP	67	72	3
NMTAP	67	96	2
NMTAP	67	144	1
NMTAP	67	144	4
NMHLD	67	192	5	72
NMTAP	67	264	4
NMTAP	67	288	5
NMTAP	67	336	3
NMTAP	67	336	6
NMHLD	68	0	1	72
NMTAP	68	72	0
NMTAP	68	96	1
NMTAP	68	144	2
NMTAP	68	144	7
NMHLD	68	192	6	72
NMTAP	68	264	7
NMTAP	68	288	6
NMTAP	68	336	0
NMTAP	68	336	5
NMTAP	69	0	1
NMTAP	69	0	4
NMTAP	69	48	2
NMTAP	69	96	3
NMTAP	69	96	6
NMTAP	69	144	5
NMTAP	69	192	3
NMTAP	69	192	4
NMTAP	69	240	2
NMTAP	69	240	5
NMSTR	69	288	1
NMSI_	69	288	1	96	48	4
NMSTR	69	288	6
NMSI_	69	288	6	96	48	3
NMTAP	69	336	0
NMTAP	69	336	7
NMTAP	70	0	1
NMTAP	70	0	6
NMTAP	70	96	0
NMTAP	70	120	7
NMTAP	70	144	1
NMTAP	70	168	6
NMTAP	70	192	2
NMTAP	70	216	5
NMTAP	70	240	3
NMTAP	70	264	4
BRTAP	70	288	1
BXTAP	70	288	6
NMTAP	71	0	3
NMTAP	71	0	4
NMTAP	71	24	2
NMTAP	71	48	1
NMTAP	71	72	0
NMTAP	71	96	6
NMTAP	71	96	7
NMTAP	71	120	5
NMTAP	71	144	4
NMTAP	71	168	3
NMTAP	71	192	0
NMTAP	71	216	1
NMTAP	71	240	2
NMTAP	71	264	3
NMTAP	71	288	4
NMTAP	71	288	5
NMTAP	71	312	6
NMTAP	71	336	7
NMTAP	71	360	0
NMTAP	72	0	1
NMSTR	72	0	2
NMSCR	72	0	2	96	48	5
NMTAP	72	96	2
NMSTR	72	96	7
NMSCR	72	96	7	96	48	2
NMSTR	72	192	4
NMSCR	72	192	4	96	48	7
NMTAP	72	192	7
NMTAP	72	288	3
NMTAP	72	288	4
NMTAP	73	0	0
NMTAP	73	0	1
NMTAP	73	24	2
NMTAP	73	48	3
NMTAP	73	72	4
NMTAP	73	96	7
NMTAP	73	120	6
NMTAP	73	144	5
NMTAP	73	168	4
NMTAP	73	192	2
NMTAP	73	192	3
NMTAP	73	216	1
NMTAP	73	240	0
NMTAP	73	264	7
NMTAP	73	288	3
NMTAP	73	312	4
NMTAP	73	336	5
NMTAP	73	360	6
NMSTR	74	0	2
NMSCL	74	0	2	96	96	4
NMTAP	74	0	7
NMTAP	74	96	4
NMSTR	74	192	3
NMSLL	74	192	3	96	48	7
NMTAP	74	288	0
CNSI_	74	336	7	0	48	5
NMTAP	75	0	4
NMTAP	75	48	4
NMTAP	75	96	3
NMTAP	75	144	6
NMTAP	75	192	6
NMSTR	75	240	7
NMSCL	75	240	7	96	48	4
NMTAP	75	288	4
NMTAP	75	336	7
NMSTR	76	48	0
NMSCR	76	48	0	96	48	3
NMTAP	76	96	3
NMTAP	76	144	0
NMSTR	76	240	7
NMSCL	76	240	7	96	720	0
NMTAP	76	288	0
NMTAP	76	336	7
NMTTP	78	288	2	E	0	M1
NMTTP	78	312	3	E	0	M1
NMTTP	78	336	4	E	0	M1
NMTTP	78	360	5	E	0	M1
NMTTP	79	0	6	E	0	M1
NMTTP	81	0	2	E	0	M1
NMTTP	81	0	3	E	0	M1
NMTTP	81	192	5	E	0	M1
NMTTP	81	192	6	E	0	M1
NMTAP	82	0	2
NMTAP	82	0	3
NMTAP	82	48	1
NMTAP	82	96	0
NMTAP	82	144	4
NMTAP	82	144	5
NMTAP	82	192	6
NMTAP	82	240	7
NMTAP	82	288	2
NMTAP	82	288	3
NMTAP	82	336	1
NMSTR	82	336	5
BRSCR	82	336	5	96	96	3
NMTTP	83	80	6	A	0	M1
NMTTP	83	88	7	A	0	M1
NMTTP	83	96	0	A	1	M1
NMTTP	83	104	1	A	0	M1
NMTTP	83	112	2	A	0	M1
EXTAP	83	192	4
EXTAP	83	192	5
EXTAP	83	240	3
EXTAP	83	288	2
EXSTR	83	288	6
NMSXR	83	288	6	96	120	7
NMTAP	84	0	0
NMTAP	84	0	6
EXSTR	84	96	2
NMSXR	84	96	2	96	120	3
NMTAP	84	192	2
NMTAP	84	192	4
EXHLD	84	288	6	96
NMSTR	85	0	7
NMSCR	85	0	7	96	96	5
EXSTR	85	96	5
NMSLL	85	96	5	96	72	1
NMSTR	85	192	7
NMSCR	85	192	7	96	96	5
EXSTR	85	288	5
NMSLL	85	288	5	96	72	1
NMTAP	86	0	7
EXTAP	86	96	6
EXTAP	86	96	7
NMTAP	86	192	5
NMTAP	86	216	4
NMTAP	86	240	6
NMTAP	86	288	1
NMTAP	86	312	0
NMTAP	86	336	1
NMTAP	86	360	0
BRTAP	87	0	2
BRTAP	87	0	7
NMTAP	87	96	4
NMTAP	87	96	5
NMTAP	87	144	6
NMSTR	87	192	1
NMSI_	87	192	1	96	48	3
NMTAP	87	192	7
NMTAP	87	288	1
NMSTR	87	288	4
NMSI_	87	288	4	96	48	0
NMTAP	88	0	4
NMTAP	88	0	6
NMTAP	88	96	1
NMTTP	88	96	3	B	1	M1
NMTTP	88	96	4	E	0	M1
NMTTP	88	192	5	B	0	M1
NMTTP	88	192	5	E	1	M1
NMTTP	88	192	5	A	0	M1
NMTAP	88	192	7
NMTAP	88	288	0
NMTTP	88	288	1	B	1	M1
NMTTP	88	288	1	A	0	M1
NMTTP	88	288	2	E	0	M1
NMTTP	88	288	2	D	0	M1
NMSTR	89	0	4
NMSCL	89	0	4	96	48	1
EXTAP	89	0	6
NMTAP	89	96	7
NMTAP	89	144	5
EXTAP	89	192	1
NMSTR	89	192	3
NMSCR	89	192	3	96	48	6
NMTAP	89	288	0
NMTAP	89	336	2
NMSTR	90	0	4
NMSI_	90	0	4	96	48	1
NMSTR	90	0	7
NMSI_	90	0	7	96	48	4
NMTAP	90	96	4
NMTAP	90	96	7
NMSTR	90	192	0
NMSI_	90	192	0	96	48	3
NMSTR	90	192	3
NMSI_	90	192	3	96	48	6
NMTAP	90	288	0
NMTAP	90	288	3
NMTAP	91	0	4
NMSTR	91	0	7
NMSCL	91	0	7	96	48	4
NMSTR	91	96	0
NMSCR	91	96	0	96	48	3
NMTAP	91	96	7
NMTAP	91	192	3
NMTAP	91	240	4
NMTAP	91	288	5
NMSTR	91	336	2
NMSI_	91	336	2	96	48	4
NMSTR	91	336	6
NMSI_	91	336	6	96	48	0
NMSTR	92	48	6
NMSI_	92	48	6	96	48	2
NMTAP	92	144	0
NMTAP	92	192	0
NMTAP	92	240	1
NMTAP	92	240	3
NMTAP	92	288	2
NMTAP	92	288	4
NMTAP	92	336	3
NMTAP	92	336	5
NMSTR	93	0	4
NMSI_	93	0	4	96	48	0
NMTAP	93	0	6
NMTAP	93	96	7
NMSTR	93	144	7
NMSI_	93	144	7	96	48	3
NMSTR	93	240	2
NMSCL	93	240	2	96	120	4
NMTAP	93	240	7
NMTAP	93	336	2
NMTAP	93	336	4
BRTAP	94	96	7
NMTAP	94	192	6
NMTAP	94	224	4
NMTAP	94	256	5
NMTAP	94	288	2
NMTAP	94	320	3
NMTAP	94	352	1
NMTAP	95	0	0
NMTAP	95	0	4
NMTAP	95	48	0
NMTAP	95	48	4
NMTAP	95	144	2
NMTAP	95	144	6
NMTAP	95	192	2
NMTAP	95	192	6
NMTAP	95	240	3
NMTAP	95	288	5
NMTAP	95	336	7
NMSTR	96	0	1
NMSI_	96	0	1	96	48	4
NMTAP	96	96	5
NMSTR	96	144	6
NMSI_	96	144	6	96	48	3
NMTAP	96	240	3
NMTAP	96	288	2
NMTAP	96	336	1
NMHLD	97	0	0	96
NMHLD	97	96	6	96
NMTAP	97	192	4
NMTAP	97	216	3
NMTAP	97	240	2
NMTAP	97	264	1
NMTAP	97	288	7
NMTAP	97	312	6
NMTAP	97	336	5
NMTAP	97	360	4
NMTAP	98	0	0
NMTAP	98	96	2
NMTTP	98	96	3	B	0	M1
NMTTP	98	96	3	A	1	M1
NMTTP	98	192	4	A	0	M1
NMTTP	98	192	5	E	1	M1
NMTTP	98	192	5	D	0	M1
NMTAP	98	192	6
NMSTR	98	288	0
NMSCL	98	288	0	96	96	4
NMTTP	98	288	1	B	0	M1
NMTTP	98	288	2	B	0	M1
NMTTP	98	288	2	E	1	M1
NMSTR	99	0	4
NMSCL	99	0	4	96	96	0
EXSTR	99	96	0
NMSCL	99	96	0	96	96	4
NMSTR	99	192	4
NMSCL	99	192	4	96	96	0
EXSTR	99	288	0
NMSCL	99	288	0	96	96	4
NMSTR	100	0	4
NMSCL	100	0	4	96	96	0
EXTAP	100	96	0
NMTAP	100	192	7
NMSTR	100	240	7
BRSF_	100	240	7	96	48	3
NMTTP	100	336	0	C	1	M1
NMSTR	101	96	1
NMSI_	101	96	1	96	48	5
NMTAP	101	96	5
NMSTR	101	192	0
NMSI_	101	192	0	96	48	4
NMTAP	101	192	1
NMTAP	101	288	0
NMSTR	101	288	7
NMSI_	101	288	7	96	48	3
NMSTR	102	0	6
NMSI_	102	0	6	96	48	2
NMTAP	102	0	7
NMSTR	102	96	1
BRSI_	102	96	1	96	48	5
NMTAP	102	96	6
NMTAP	102	192	7
NMTAP	102	240	7
BRTAP	102	288	0
BRTAP	102	288	6
BXTAP	103	0	3
NMTAP	103	16	4
NMTAP	103	32	2
NMTAP	103	48	3
NMTAP	103	96	0
NMTAP	103	96	1
BXTAP	103	144	4
NMTAP	103	160	3
NMTAP	103	176	5
NMTAP	103	192	4
NMTAP	103	240	6
NMTAP	103	240	7
BXTAP	103	288	0
NMTAP	103	312	1
NMTAP	103	336	2
NMTAP	103	360	3
NMTAP	104	0	4
NMTAP	104	0	5
NMTAP	104	24	6
NMTAP	104	48	7
NMTAP	104	72	0
NMTAP	104	96	4
NMTAP	104	120	3
NMTAP	104	144	2
NMTAP	104	168	1
NMTAP	104	192	0
NMTAP	104	192	7
NMTAP	104	204	6
NMTAP	104	216	5
NMTAP	104	228	4
NMTAP	104	240	3
NMTAP	104	252	2
NMTAP	104	264	1
NMTAP	104	276	0
NMTTP	104	288	0	C	1	M1
BRTAP	104	288	7
NMTAP	105	0	0
NMTAP	105	0	6
NMSTR	105	48	1
NMSCR	105	48	1	96	48	4
NMTAP	105	96	5
NMHLD	105	144	7	96
NMTAP	105	240	5
NMTAP	105	288	4
NMTAP	105	336	6
NMTAP	106	0	1
NMTAP	106	0	7
NMSTR	106	48	6
NMSCL	106	48	6	96	48	3
NMTAP	106	96	2
NMHLD	106	144	0	96
NMTAP	106	240	2
NMTAP	106	288	3
NMTAP	106	336	1
NMSTR	107	0	6
NMSI_	107	0	6	96	48	2
NMTAP	107	48	7
NMTAP	107	96	6
NMSTR	107	144	1
NMSI_	107	144	1	96	48	5
NMTAP	107	192	0
NMTAP	107	240	1
NMTAP	107	288	7
NMTAP	107	336	0
NMTAP	107	336	6
EXTAP	108	48	2
NMTAP	108	48	3
EXTAP	108	96	0
NMTAP	108	96	4
NMTAP	108	144	1
NMTAP	108	192	4
EXTAP	108	192	5
NMSTR	108	240	3
NMSXR	108	240	3	96	1584	0
EXSTR	108	240	7
NMSXR	108	240	7	96	1584	4
BRTAP	108	336	3
BRTAP	108	336	7

T_REC_TAP	718
T_REC_BRK	26
T_REC_XTP	44
T_REC_BXX	4
T_REC_HLD	30
T_REC_XHO	1
T_REC_BHO	0
T_REC_BXH	0
T_REC_STR	108
T_REC_BST	0
T_REC_XST	16
T_REC_XBS	0
T_REC_TTP	73
T_REC_THO	0
T_REC_SLD	116
T_REC_BSL	8
T_REC_ALL	1144
T_NUM_TAP	959
T_NUM_BRK	38
T_NUM_HLD	31
T_NUM_SLD	116
T_NUM_ALL	1144
T_JUDGE_TAP	989
T_JUDGE_HLD	64
T_JUDGE_SLD	124
T_JUDGE_ALL	1177
TTM_EACHPAIRS	206
TTM_SCR_TAP	479500
TTM_SCR_BRK	98800
TTM_SCR_HLD	31000
TTM_SCR_SLD	174000
TTM_SCR_ALL	783300
TTM_SCR_S	756150
TTM_SCR_SS	779500
TTM_RAT_ACV	10048

