VERSION	0.00.00	1.04.00
FES_MODE	0
BPM_DEF	184.000	184.000	184.000	184.000
MET_DEF	4	4
RESOLUTION	384
CLK_DEF	384
COMPATIBLE_CODE	MA2

BPM	0	0	184.000
MET	0	0	4	4

NMHLD	1	0	1	96
NMTAP	1	96	3
NMTAP	1	144	3
NMTAP	1	240	2
NMTAP	1	288	2
NMHLD	2	0	6	96
NMTAP	2	96	4
NMTAP	2	144	4
NMTAP	2	240	5
NMTAP	2	288	5
NMHLD	3	0	0	96
NMTAP	3	96	3
NMTAP	3	144	3
NMTAP	3	240	2
NMTAP	3	288	2
NMTAP	4	0	3
NMTAP	4	0	5
NMTAP	4	96	3
NMTAP	4	96	5
NMTAP	4	192	2
NMTAP	4	192	6
NMTAP	4	288	2
NMTAP	4	288	6
NMHLD	5	0	7	96
NMTAP	5	96	4
NMTAP	5	144	4
NMTAP	5	240	5
NMTAP	5	288	5
NMHLD	6	0	0	96
NMTAP	6	96	3
NMTAP	6	144	3
NMTAP	6	240	2
NMTAP	6	288	2
NMTAP	7	0	3
NMTAP	7	0	4
NMTAP	7	96	5
NMTAP	7	144	5
NMTAP	7	192	0
NMTAP	7	240	0
NMTAP	7	288	7
NMTAP	7	336	7
NMTAP	8	0	2
NMTAP	8	48	2
NMTAP	8	96	4
NMTAP	8	144	4
NMSTR	8	192	3
NMSI_	8	192	3	96	48	7
BRTAP	9	0	0
BRTAP	9	0	5
NMTAP	9	96	6
NMHLD	9	144	6	96
NMTAP	9	240	7
NMTAP	9	288	6
NMTAP	9	288	7
NMTAP	10	0	0
NMTAP	10	0	7
NMTAP	10	96	1
NMHLD	10	144	1	96
NMTAP	10	240	0
NMTAP	10	288	0
NMTAP	10	288	1
NMTAP	11	0	7
NMHLD	11	48	7	96
NMTAP	11	144	5
NMHLD	11	192	5	96
NMTAP	11	288	3
NMHLD	11	336	3	96
NMTAP	12	48	1
NMTAP	12	96	1
BRTAP	12	192	0
BRTAP	12	192	7
BRTAP	12	240	0
BRTAP	12	240	7
NMTAP	13	0	2
NMTAP	13	96	2
NMTAP	13	192	2
NMHLD	13	288	2	480
NMTTP	14	0	1	E	0	M1
NMTTP	14	96	2	E	0	M1
NMTTP	14	192	3	E	0	M1
NMTTP	14	288	4	E	0	M1
NMTAP	15	0	5
NMTAP	15	96	5
NMTAP	15	192	5
NMHLD	15	288	5	480
NMTTP	16	0	7	E	0	M1
NMTTP	16	96	6	E	0	M1
NMTTP	16	192	5	E	0	M1
NMTTP	16	288	4	E	0	M1
NMTAP	17	0	1
NMTAP	17	96	1
NMTAP	17	192	1
NMHLD	17	288	1	384
NMTTP	18	0	2	E	0	M1
NMTTP	18	96	3	E	0	M1
NMTTP	18	192	4	E	0	M1
NMTTP	18	288	5	E	0	M1
NMHLD	19	0	6	96
NMHLD	19	96	4	96
NMHLD	19	192	3	96
NMTAP	19	288	1
NMTAP	20	0	2
NMTAP	20	0	3
NMTAP	20	96	3
NMTAP	20	96	4
NMTAP	20	144	3
NMTAP	20	144	4
BRTAP	20	240	2
BRTAP	20	240	5
NMTAP	21	0	4
NMTAP	21	0	5
NMTAP	21	96	6
NMTAP	21	192	0
NMTAP	21	192	7
NMTAP	21	288	0
NMTAP	21	288	7
NMTAP	22	0	1
NMTAP	22	96	2
NMTAP	22	96	3
NMTAP	22	192	4
NMTAP	22	240	4
NMTAP	22	288	3
NMTAP	23	0	2
NMTAP	23	0	3
NMTAP	23	96	1
NMTAP	23	192	0
NMTAP	23	192	7
NMTAP	23	288	0
NMTAP	23	288	7
NMTAP	24	0	6
NMTAP	24	96	4
NMTAP	24	96	5
NMTAP	24	192	3
NMTAP	24	240	3
NMTAP	24	288	4
NMHLD	25	0	6	96
NMTAP	25	96	4
NMTAP	25	144	4
EXTAP	25	288	3
EXTAP	25	288	7
NMHLD	26	0	1	96
NMTAP	26	96	3
NMTAP	26	144	3
EXTAP	26	288	0
EXTAP	26	288	4
EXTAP	27	0	0
EXTAP	27	64	1
EXTAP	27	128	2
EXTAP	27	192	3
EXTAP	27	256	4
EXTAP	27	320	5
EXTAP	28	0	6
EXTAP	28	0	7
NMTAP	28	96	3
NMTAP	28	96	4
BRTAP	28	192	1
BRTAP	28	192	5
NMTAP	29	0	2
NMTAP	29	48	2
NMTAP	29	96	1
NMTAP	29	96	3
NMTAP	29	192	6
NMTAP	29	240	6
NMTAP	29	288	5
NMTAP	29	288	7
NMTAP	30	0	1
NMTAP	30	48	1
NMTAP	30	96	0
NMTAP	30	144	0
NMSTR	30	192	2
NMSI_	30	192	2	96	48	4
NMTAP	31	0	5
NMTAP	31	48	5
NMTAP	31	96	4
NMTAP	31	96	6
NMTAP	31	192	1
NMTAP	31	240	1
NMTAP	31	288	0
NMTAP	31	288	2
NMTAP	32	0	6
NMTAP	32	48	6
NMTAP	32	96	7
NMTAP	32	144	7
NMSTR	32	192	5
NMSI_	32	192	5	96	48	0
NMTAP	33	0	1
NMHLD	33	48	1	48
NMTAP	33	96	3
NMHLD	33	144	3	48
NMTAP	33	192	2
NMTAP	33	288	2
NMTAP	33	288	4
NMTAP	34	0	6
NMHLD	34	48	6	48
NMTAP	34	96	4
NMHLD	34	144	4	48
NMTAP	34	192	5
NMTAP	34	288	3
NMTAP	34	288	5
NMTAP	35	0	2
NMTAP	35	48	2
NMTAP	35	96	3
NMTAP	35	144	1
NMTAP	35	192	7
NMTAP	35	240	7
NMTAP	35	288	0
NMTAP	35	288	6
NMTAP	36	0	5
NMTAP	36	48	5
NMTAP	36	96	4
NMTAP	36	144	6
NMTAP	36	192	0
NMTAP	36	240	0
NMTAP	36	288	1
NMTAP	36	288	7
NMSTR	37	0	1
NMSCR	37	0	1	96	96	4
NMSTR	37	192	5
NMSCR	37	192	5	96	96	0
NMSTR	38	0	2
NMSCL	38	0	2	96	96	7
NMSTR	38	192	6
NMSCL	38	192	6	96	96	3
NMSTR	39	0	1
NMSI_	39	0	1	96	96	4
NMSTR	39	192	6
NMSI_	39	192	6	96	96	3
NMTAP	40	0	2
NMTAP	40	96	2
NMTAP	40	192	0
NMTAP	40	192	7
NMTAP	40	240	0
NMTAP	40	240	7
BRSTR	41	0	0
NMSI_	41	0	0	96	48	4
BRSTR	41	0	1
NMSI_	41	0	1	96	48	4
NMSTR	41	192	6
NMSI_	41	192	6	96	48	3
NMSTR	41	192	7
NMSI_	41	192	7	96	48	3
NMSTR	42	0	0
NMSI_	42	0	0	96	48	4
NMSTR	42	0	1
NMSI_	42	0	1	96	48	4
NMTAP	42	192	6
NMTAP	42	192	7
NMTAP	42	288	6
NMTAP	42	288	7
NMTAP	43	0	4
NMTAP	43	0	5
NMTAP	43	96	6
NMTAP	43	144	6
NMTAP	43	192	5
NMTAP	43	192	7
NMTAP	43	288	2
NMTAP	43	336	2
NMTAP	44	0	1
NMTAP	44	0	3
NMTAP	44	96	4
NMTAP	44	96	5
NMTAP	44	192	6
NMTAP	44	192	7
NMHLD	44	288	0	96
NMHLD	44	288	5	96
NMSTR	45	96	2
NMSCR	45	96	2	96	48	5
NMTAP	45	192	6
NMSTR	45	288	6
NMSI_	45	288	6	96	48	3
NMTAP	46	0	0
NMSTR	46	96	0
NMSI_	46	96	0	96	48	4
NMTAP	46	192	5
NMTAP	46	288	5
NMTAP	47	0	4
NMTAP	47	0	5
NMTAP	47	96	6
NMTAP	47	96	7
NMTAP	47	192	0
NMTAP	47	192	1
NMTAP	47	288	2
NMTAP	47	288	3
NMTAP	48	0	2
NMTAP	48	0	3
NMTAP	48	96	0
NMTAP	48	96	1
BRTAP	48	192	6
BRTAP	48	192	7
BRTAP	48	288	0
BRTAP	48	288	5
NMSTR	49	0	6
NMSI_	49	0	6	96	48	3
NMSTR	49	0	7
NMSI_	49	0	7	96	48	3
NMSTR	49	192	0
NMSI_	49	192	0	96	48	4
NMSTR	49	192	1
NMSI_	49	192	1	96	48	4
NMSTR	50	0	6
NMSI_	50	0	6	96	48	3
NMSTR	50	0	7
NMSI_	50	0	7	96	48	3
NMTAP	50	192	0
NMTAP	50	192	1
NMTAP	50	288	0
NMTAP	50	288	1
NMTAP	51	0	2
NMTAP	51	0	3
NMTAP	51	96	1
NMTAP	51	144	1
NMTAP	51	192	0
NMTAP	51	192	2
NMTAP	51	288	5
NMTAP	51	336	5
NMTAP	52	0	4
NMTAP	52	0	6
NMTAP	52	96	2
NMTAP	52	96	3
NMTAP	52	192	0
NMTAP	52	192	1
NMHLD	52	288	2	96
NMHLD	52	288	7	96
NMHLD	53	96	6	96
NMHLD	53	192	4	96
NMTAP	53	288	2
NMHLD	53	336	2	96
NMTAP	54	48	0
NMTAP	54	144	1
NMTAP	54	144	7
NMTAP	54	240	2
NMTAP	54	240	6
NMTAP	54	288	2
NMTAP	54	288	6
NMTAP	55	0	0
NMTAP	55	0	1
NMTAP	55	96	3
NMTAP	55	96	5
NMTAP	55	144	3
NMTAP	55	144	5
NMTAP	55	240	6
NMTAP	55	240	7
BRSTR	55	336	2
NMSUR	55	336	2	96	144	7
BRSTR	55	336	4
NMSUL	55	336	4	96	144	7
NMTAP	56	288	0
NMTAP	56	288	6
NMSTR	57	0	4
NMSCL	57	0	4	96	96	0
NMTAP	57	0	5
NMTAP	57	288	0
NMTAP	57	288	7
NMTAP	58	0	1
NMSTR	58	0	3
NMSCR	58	0	3	96	96	7
NMTAP	58	288	0
NMTAP	58	288	7
NMTAP	59	0	0
NMTAP	59	0	1
NMTAP	59	96	2
NMTAP	59	96	7
NMTAP	59	192	3
NMTAP	59	192	6
NMTAP	59	288	4
NMSTR	59	288	5
NMSCL	59	288	5	96	96	2
NMTAP	60	96	1
NMTAP	60	192	0
NMTAP	60	288	7
NMSTR	61	0	6
NMSI_	61	0	6	96	48	2
NMHLD	61	0	7	96
NMHLD	61	192	0	96
NMSTR	61	192	1
NMSI_	61	192	1	96	48	5
NMTAP	62	0	6
NMTAP	62	0	7
NMTAP	62	96	3
NMTAP	62	96	4
BRTAP	62	192	2
BRTAP	62	192	5
NMTAP	63	0	0
NMSTR	63	0	3
NMSI_	63	0	3	96	48	6
NMTAP	63	192	1
NMSTR	63	192	3
NMSI_	63	192	3	96	48	7
NMTAP	64	0	1
NMTAP	64	48	1
NMTAP	64	96	0
NMTAP	64	144	0
NMSTR	64	192	2
NMSCR	64	192	2	96	48	4
NMSTR	65	0	4
NMSI_	65	0	4	96	48	1
NMTAP	65	0	7
NMSTR	65	192	4
NMSI_	65	192	4	96	48	0
NMTAP	65	192	6
NMTAP	66	0	6
NMTAP	66	48	6
NMTAP	66	96	7
NMTAP	66	144	7
NMSTR	66	192	5
NMSCL	66	192	5	96	48	3
NMHLD	67	0	1	72
NMHLD	67	72	3	72
NMTAP	67	144	2
NMHLD	67	192	6	72
NMHLD	67	264	4	72
NMTAP	67	336	5
NMHLD	68	0	2	72
NMHLD	68	72	1	72
NMTAP	68	144	0
NMHLD	68	192	5	72
NMHLD	68	264	6	72
NMTAP	68	336	7
NMTAP	69	0	2
NMTAP	69	48	2
NMTAP	69	96	3
NMTAP	69	144	3
NMTAP	69	192	1
NMTAP	69	288	6
NMTAP	69	288	7
NMTAP	70	0	5
NMTAP	70	48	5
NMTAP	70	96	4
NMTAP	70	144	4
NMTAP	70	192	6
BRTAP	70	288	0
BRTAP	70	288	1
NMHLD	71	0	1	96
NMHLD	71	96	3	96
NMHLD	71	192	4	96
NMSTR	71	288	6
NMSCL	71	288	6	96	288	7
NMTTP	72	0	0	C	1	M1
NMHLD	73	0	6	96
NMHLD	73	96	4	96
NMHLD	73	192	3	96
NMSTR	73	288	1
NMSCR	73	288	1	96	288	0
NMTTP	74	0	0	C	1	M1
NMTAP	75	0	0
NMTAP	75	0	1
NMTAP	75	96	5
NMTAP	75	144	4
NMTAP	75	144	5
NMTAP	75	240	2
NMTAP	75	288	2
NMTAP	75	288	3
NMTAP	76	0	6
NMTAP	76	48	6
NMTAP	76	48	7
NMTAP	76	144	1
NMTAP	76	192	0
NMTAP	76	192	1
NMTAP	76	288	2
NMTAP	76	288	7
BRTAP	76	336	2
BRSTR	76	336	7
NMSI_	76	336	7	96	168	1
CNSI_	77	216	1	0	192	5
CNSI_	78	24	5	0	168	3
NMHLD	79	0	2	384
NMHLD	80	0	0	384
NMHLD	81	0	7	384
NMTAP	82	0	5
NMTAP	82	96	4
NMTAP	82	96	6
NMTAP	82	144	4
NMTAP	82	144	6
NMTAP	82	240	1
NMTAP	82	240	3
NMTAP	82	288	1
NMSTR	82	288	3
NMSF_	82	288	3	96	48	7
BXTAP	83	96	1
BXTAP	83	96	5
NMTAP	83	192	1
NMTAP	83	192	5
NMSTR	83	288	2
NMSI_	83	288	2	96	48	6
NMTAP	84	0	5
NMSTR	84	96	4
NMSI_	84	96	4	96	48	0
NMTAP	84	192	1
NMTAP	84	288	1
NMTAP	84	288	7
NMTAP	85	0	0
NMTAP	85	0	6
NMTAP	85	96	4
NMTAP	85	96	5
NMTAP	85	192	1
NMTAP	85	192	7
NMTAP	85	288	2
NMTAP	85	288	3
NMTAP	86	0	4
NMTAP	86	0	6
NMTAP	86	96	1
NMTAP	86	96	3
BRTAP	86	192	6
BRTAP	86	192	7
BRTAP	86	288	0
BRTAP	86	288	5
BRTAP	86	336	0
BRTAP	86	336	5
NMTAP	87	96	2
NMTAP	87	144	3
NMTAP	87	192	1
NMTAP	87	288	0
NMTAP	87	288	1
NMTAP	88	0	0
NMTAP	88	0	1
NMTAP	88	96	2
NMTAP	88	96	3
NMTAP	88	192	4
NMTAP	88	192	5
NMTAP	88	288	6
NMTAP	88	288	7
NMSTR	89	0	6
NMSI_	89	0	6	96	48	2
NMSTR	89	0	7
NMSI_	89	0	7	96	48	2
NMSTR	89	192	0
NMSI_	89	192	0	96	48	5
NMSTR	89	192	1
NMSI_	89	192	1	96	48	5
NMTAP	90	0	3
NMTAP	90	0	6
NMTAP	90	96	2
NMTAP	90	96	4
NMTAP	90	192	0
NMTAP	90	192	6
NMHLD	90	288	1	96
NMHLD	90	288	5	96
NMTAP	91	96	1
NMTAP	91	96	5
NMTAP	91	192	5
NMTAP	91	240	4
NMTAP	91	288	3
NMTAP	91	336	2
NMSTR	92	48	1
NMSI_	92	48	1	96	48	3
NMSTR	92	48	4
NMSI_	92	48	4	96	48	7
NMTAP	92	240	0
NMTAP	92	288	0
NMTAP	93	0	1
NMTAP	93	0	7
NMTAP	93	96	4
NMTAP	93	96	5
NMTAP	93	144	4
NMTAP	93	144	5
NMSTR	93	240	0
NMSI_	93	240	0	96	48	3
NMSTR	93	240	6
NMSI_	93	240	6	96	48	3
NMHLD	94	96	1	96
NMHLD	94	192	7	96
NMTAP	94	288	5
NMSTR	95	0	5
NMSCL	95	0	5	96	96	0
NMTAP	95	0	6
NMTAP	95	288	0
NMTAP	95	288	7
NMTAP	96	0	1
NMSTR	96	0	2
NMSCR	96	0	2	96	96	7
NMTAP	96	288	0
NMTAP	96	288	7
NMTAP	97	0	0
NMTAP	97	0	1
NMTAP	97	96	2
NMTAP	97	96	7
NMTAP	97	192	3
NMTAP	97	192	6
NMTAP	97	288	4
NMSTR	97	288	5
NMSCR	97	288	5	96	96	0
NMTAP	98	96	1
NMTAP	98	192	1
NMTAP	98	288	0
NMTAP	98	288	1
NMSTR	99	0	1
NMSI_	99	0	1	96	48	4
NMTAP	99	96	0
NMSTR	99	192	6
NMSI_	99	192	6	96	48	3
NMTAP	99	288	7
NMSTR	100	0	2
NMSI_	100	0	2	96	48	7
NMTAP	100	96	3
NMTAP	100	192	5
NMTAP	100	288	0
NMTAP	100	288	6
NMSTR	101	0	1
NMSI_	101	0	1	96	48	5
NMTAP	101	48	7
NMTAP	101	96	7
NMSTR	101	192	6
NMSI_	101	192	6	96	48	2
NMTAP	101	240	0
NMTAP	101	288	0
NMSTR	102	0	1
NMSUR	102	0	1	96	48	5
NMTAP	102	48	0
NMTAP	102	96	0
NMSTR	102	192	6
NMSUL	102	192	6	96	48	2
NMTAP	102	240	7
NMTAP	102	288	7
NMTAP	103	0	1
NMTAP	103	0	3
NMTAP	103	96	3
NMTAP	103	96	4
NMTAP	103	192	4
NMTAP	103	192	6
NMTAP	103	288	0
NMTAP	103	288	7
NMTAP	104	0	4
NMTAP	104	0	6
NMTAP	104	96	3
NMSTR	104	96	4
NMSF_	104	96	4	96	96	0
BRTAP	105	0	2
BRTAP	105	0	6
NMTAP	105	96	1
NMHLD	105	144	1	96
NMTAP	105	240	0
NMTAP	105	288	2
NMTAP	105	288	7
NMTAP	106	0	3
NMTAP	106	0	4
NMTAP	106	96	6
NMHLD	106	144	6	96
NMTAP	106	240	7
NMTAP	106	288	0
NMTAP	106	288	5
NMTAP	107	0	1
NMTAP	107	48	0
NMTAP	107	48	2
NMTAP	107	144	6
NMTAP	107	192	5
NMTAP	107	192	7
NMTAP	107	288	2
NMTAP	107	336	1
NMTAP	107	336	3
NMTAP	108	48	5
NMTAP	108	96	4
NMTAP	108	96	6
NMTAP	108	192	3
NMTAP	108	192	4
NMTAP	108	240	3
NMTAP	108	240	4
BRSTR	108	336	0
BRSCR	108	336	0	96	720	3
BRSTR	108	336	7
BRSCL	108	336	7	96	720	4
CNSUR	111	0	3	0	768	1
CNSUL	111	0	4	0	768	6

T_REC_TAP	421
T_REC_BRK	27
T_REC_XTP	12
T_REC_BXX	2
T_REC_HLD	54
T_REC_XHO	0
T_REC_BHO	0
T_REC_BXH	0
T_REC_STR	57
T_REC_BST	7
T_REC_XST	0
T_REC_XBS	0
T_REC_TTP	14
T_REC_THO	0
T_REC_SLD	62
T_REC_BSL	2
T_REC_ALL	658
T_NUM_TAP	504
T_NUM_BRK	38
T_NUM_HLD	54
T_NUM_SLD	62
T_NUM_ALL	658
T_JUDGE_TAP	540
T_JUDGE_HLD	144
T_JUDGE_SLD	64
T_JUDGE_ALL	748
TTM_EACHPAIRS	163
TTM_SCR_TAP	252000
TTM_SCR_BRK	98800
TTM_SCR_HLD	54000
TTM_SCR_SLD	93000
TTM_SCR_ALL	497800
TTM_SCR_S	479200
TTM_SCR_SS	494000
TTM_RAT_ACV	10076

