VERSION	0.00.00	1.04.00
FES_MODE	0
BPM_DEF	184.000	184.000	184.000	184.000
MET_DEF	4	4
RESOLUTION	384
CLK_DEF	384
COMPATIBLE_CODE	MA2

BPM	0	0	184.000
MET	0	0	4	4

NMHLD	1	0	2	192
NMHLD	1	192	3	192
NMHLD	2	0	4	192
NMTAP	2	192	5
NMHLD	3	0	5	192
NMHLD	3	192	4	192
NMHLD	4	0	3	192
NMTAP	4	192	2
NMHLD	5	0	1	192
NMHLD	5	192	0	192
NMHLD	6	0	7	192
NMTAP	6	192	6
NMHLD	7	0	6	192
NMHLD	7	192	7	192
NMHLD	8	0	0	192
NMTAP	8	192	1
NMTAP	9	0	1
NMTAP	9	96	1
NMTAP	9	192	2
NMTAP	9	288	2
NMTAP	10	0	3
NMTAP	10	96	3
NMTAP	10	192	4
NMTAP	10	192	5
NMTAP	11	0	6
NMTAP	11	96	6
NMTAP	11	192	5
NMTAP	11	288	5
NMTAP	12	0	4
NMTAP	12	96	4
NMTAP	12	192	3
NMTAP	12	192	4
NMSTR	13	0	2
NMSI_	13	0	2	96	288	5
NMTAP	14	192	6
NMSTR	15	0	6
NMSI_	15	0	6	96	288	2
NMTAP	16	192	1
NMSTR	17	0	0
NMSI_	17	0	0	96	288	4
NMTAP	18	192	5
NMSTR	19	0	6
NMSI_	19	0	6	96	288	3
NMTAP	20	192	2
NMTAP	20	192	3
NMTTP	21	0	1	B	0	L1
NMTTP	21	96	2	B	0	L1
NMTTP	21	192	3	B	0	L1
NMTTP	22	0	6	B	0	L1
NMTTP	22	96	5	B	0	L1
NMTTP	22	192	4	B	0	L1
NMTTP	23	0	0	B	0	L1
NMTTP	23	96	1	B	0	L1
NMTTP	23	192	2	B	0	L1
NMTTP	23	288	3	B	0	L1
NMTTP	24	0	4	B	0	L1
NMTTP	24	96	5	B	0	L1
NMTTP	24	192	6	B	0	L1
NMTTP	24	192	7	B	0	L1
NMTTP	25	0	2	E	0	L1
NMTTP	25	96	2	B	0	L1
NMTTP	25	192	3	B	0	L1
NMTTP	26	0	6	E	0	L1
NMTTP	26	96	5	B	0	L1
NMTTP	26	192	4	B	0	L1
NMTTP	27	0	2	B	0	L1
NMTTP	27	96	3	B	0	L1
NMTTP	27	192	4	B	0	L1
NMTTP	27	288	5	B	0	L1
NMTTP	28	0	0	C	0	L1
NMTAP	29	0	1
NMTAP	29	96	1
NMTAP	29	192	0
NMTAP	29	192	1
NMTAP	30	0	2
NMTAP	30	96	2
NMTAP	30	192	2
NMTAP	30	192	3
NMTAP	31	0	4
NMTAP	31	96	4
NMTAP	31	192	4
NMTAP	31	192	5
NMTAP	32	0	6
NMTAP	32	0	7
NMTAP	32	96	6
NMTAP	32	96	7
NMTAP	32	192	6
NMTAP	32	192	7
NMTAP	33	0	6
NMTAP	33	96	6
NMTAP	33	192	6
NMTAP	33	192	7
NMTAP	34	0	5
NMTAP	34	96	5
NMTAP	34	192	4
NMTAP	34	192	5
NMTAP	35	0	3
NMTAP	35	96	3
NMTAP	35	192	2
NMTAP	35	192	3
NMTAP	36	0	0
NMTAP	36	0	1
NMTAP	36	96	0
NMTAP	36	96	1
NMTAP	36	192	0
NMTAP	36	192	1
NMHLD	37	0	2	192
NMHLD	37	192	3	192
NMHLD	38	0	4	192
NMTAP	38	192	5
NMHLD	39	0	5	192
NMHLD	39	192	4	192
NMHLD	40	0	3	192
NMTAP	40	192	2
BRTAP	41	0	2
NMTAP	41	96	2
NMTAP	41	192	1
NMTAP	41	288	1
NMTAP	42	0	0
NMTAP	42	96	0
NMTAP	42	192	6
NMTAP	42	192	7
NMTAP	43	0	5
NMTAP	43	96	5
NMTAP	43	192	6
NMTAP	43	288	6
NMTAP	44	0	7
NMTAP	44	96	7
NMTAP	44	192	0
NMTAP	44	192	1
NMTAP	45	0	1
NMTAP	45	96	1
NMTAP	45	192	2
NMTAP	45	288	2
NMTAP	46	0	3
NMTAP	46	96	3
NMTAP	46	192	4
NMTAP	46	192	5
NMTAP	47	0	6
NMTAP	47	96	6
NMTAP	47	192	5
NMTAP	47	288	5
NMTAP	48	0	4
NMTAP	48	96	4
NMTAP	48	192	2
NMTAP	48	192	3
NMTAP	49	0	2
NMTAP	49	96	2
NMTAP	49	192	0
NMTAP	49	192	1
NMTAP	49	288	0
NMTAP	49	288	1
NMTAP	50	0	7
NMTAP	50	96	7
NMTAP	50	192	6
NMTAP	50	192	7
NMTAP	51	0	5
NMTAP	51	96	5
NMTAP	51	192	6
NMTAP	51	192	7
NMTAP	51	288	6
NMTAP	51	288	7
NMTAP	52	0	0
NMTAP	52	96	0
NMTAP	52	192	0
NMTAP	52	192	1
NMTAP	53	0	1
NMTAP	53	96	1
NMTAP	53	192	2
NMTAP	53	192	3
NMTAP	53	288	2
NMTAP	53	288	3
NMTAP	54	0	4
NMTAP	54	96	4
NMTAP	54	192	4
NMTAP	54	192	5
NMTAP	55	0	6
NMTAP	55	96	6
NMTAP	55	192	4
NMTAP	55	192	5
NMTAP	55	288	4
NMTAP	55	288	5
NMTAP	56	0	3
NMTAP	56	96	3
NMTAP	56	192	2
NMTAP	56	192	3
NMHLD	57	0	2	192
NMTAP	57	192	3
NMHLD	58	0	1	192
NMTAP	58	192	0
NMHLD	59	0	6	192
NMTAP	59	192	7
NMHLD	60	0	5	192
NMTAP	60	192	4
NMTAP	61	0	4
NMTAP	61	96	4
NMTAP	61	192	5
NMTAP	61	288	5
NMTAP	62	0	6
NMTAP	62	96	6
NMTAP	62	192	0
NMTAP	62	192	7
NMTAP	63	0	7
NMTAP	63	96	6
NMTAP	63	192	5
NMTAP	63	288	4
NMTAP	64	0	3
NMTAP	64	96	2
NMTAP	64	192	0
NMTAP	64	192	1
NMTAP	65	0	0
NMTAP	65	96	1
NMTAP	65	192	2
NMTAP	65	288	3
NMTAP	66	0	4
NMTAP	66	96	5
NMTAP	66	192	6
NMTAP	66	192	7
NMTAP	67	0	7
NMTAP	67	96	6
NMTAP	67	192	5
NMTAP	67	288	4
NMTAP	68	0	3
NMTAP	68	96	2
NMTAP	68	192	1
NMTAP	68	288	0
NMTAP	69	0	7
NMTAP	69	96	6
NMTAP	69	192	5
NMTAP	69	288	4
NMTAP	70	0	3
NMTAP	70	0	4
NMTAP	70	96	3
NMTAP	70	96	4
NMTAP	70	192	2
NMTAP	70	192	5
NMSTR	71	0	3
NMSI_	71	0	3	96	288	7
NMTAP	72	192	6
NMSTR	73	0	5
NMSI_	73	0	5	96	288	2
NMTAP	74	192	1
NMSTR	75	0	1
NMSI_	75	0	1	96	288	5
NMTAP	76	192	6
NMSTR	77	0	7
NMSI_	77	0	7	96	288	3
NMTTP	79	0	2	B	0	L1
NMTTP	79	0	3	B	0	L1
NMTTP	80	0	0	B	0	L1
NMTTP	80	0	1	B	0	L1
NMTTP	81	0	6	B	0	L1
NMTTP	81	0	7	B	0	L1
NMTTP	82	0	4	B	0	L1
NMTTP	82	0	5	B	0	L1
NMTAP	83	0	2
NMTAP	83	48	2
NMTAP	83	96	2
NMTAP	83	192	3
NMTAP	83	240	3
NMTAP	83	288	3
NMTAP	84	0	4
NMTAP	84	48	4
NMTAP	84	96	4
NMTAP	84	192	4
NMTAP	84	192	5
NMTAP	85	0	6
NMTAP	85	48	6
NMTAP	85	96	6
NMTAP	85	192	5
NMTAP	85	240	5
NMTAP	85	288	5
NMTAP	86	0	4
NMTAP	86	48	4
NMTAP	86	96	4
NMTAP	86	192	3
NMTAP	86	192	4
NMTAP	87	0	2
NMTAP	87	48	2
NMTAP	87	96	2
NMTAP	87	192	0
NMTAP	87	192	1
NMTAP	87	288	0
NMTAP	87	288	1
NMTAP	88	0	7
NMTAP	88	48	7
NMTAP	88	96	7
NMTAP	88	192	6
NMTAP	88	192	7
NMTAP	89	0	5
NMTAP	89	48	5
NMTAP	89	96	5
NMTAP	89	192	6
NMTAP	89	192	7
NMTAP	89	288	6
NMTAP	89	288	7
NMTAP	90	0	0
NMTAP	90	48	0
NMTAP	90	96	0
NMTAP	90	192	0
NMTAP	90	192	1
NMTAP	91	0	1
NMTAP	91	48	1
NMTAP	91	96	1
NMTAP	91	192	2
NMTAP	91	192	3
NMTAP	91	288	2
NMTAP	91	288	3
NMTAP	92	0	4
NMTAP	92	48	4
NMTAP	92	96	4
NMTAP	92	192	4
NMTAP	92	192	5
NMTAP	93	0	6
NMTAP	93	48	6
NMTAP	93	96	6
NMTAP	93	192	4
NMTAP	93	192	5
NMTAP	93	288	4
NMTAP	93	288	5
NMTAP	94	0	3
NMTAP	94	48	3
NMTAP	94	96	3
NMTAP	94	192	2
NMTAP	94	192	3
NMTAP	95	0	1
NMTAP	95	96	1
NMTAP	95	192	0
NMTAP	95	192	1
NMTAP	96	0	2
NMTAP	96	96	2
NMTAP	96	192	2
NMTAP	96	192	3
NMTAP	97	0	5
NMTAP	97	96	5
NMTAP	97	192	4
NMTAP	97	192	5
NMTAP	98	0	6
NMTAP	98	0	7
NMTAP	98	96	6
NMTAP	98	96	7
NMTAP	98	192	6
NMTAP	98	192	7
NMTAP	99	0	7
NMTAP	99	96	6
NMTAP	99	192	5
NMTAP	99	288	4
NMTAP	100	0	3
NMTAP	100	96	2
NMTAP	100	192	0
NMTAP	100	192	1
NMTAP	101	0	0
NMTAP	101	96	1
NMTAP	101	192	2
NMTAP	101	288	3
NMTAP	102	0	4
NMTAP	102	96	5
NMTAP	102	192	6
NMTAP	102	192	7
NMTAP	103	0	0
NMTAP	103	0	7
NMTAP	103	96	0
NMTAP	103	96	7
NMTAP	103	192	1
NMTAP	103	192	6
NMTAP	103	288	1
NMTAP	103	288	6
NMTAP	104	0	2
NMTAP	104	0	5
NMTAP	104	96	2
NMTAP	104	96	5
NMTAP	104	192	3
NMTAP	104	192	4
NMTAP	105	0	4
NMTAP	105	96	4
NMTAP	105	192	3
NMTAP	105	288	3
NMTAP	106	0	2
NMTAP	106	96	2
NMTAP	106	192	1
NMTAP	106	288	1
NMTAP	107	0	0
NMTAP	107	96	0
NMTAP	107	192	0
NMTAP	107	192	7
NMHLD	107	288	0	192
NMHLD	107	288	7	192
EXSTR	108	192	0
NMSXL	108	192	0	96	1632	3
EXSTR	108	192	7
NMSXR	108	192	7	96	1632	4

T_REC_TAP	313
T_REC_BRK	1
T_REC_XTP	0
T_REC_BXX	0
T_REC_HLD	24
T_REC_XHO	0
T_REC_BHO	0
T_REC_BXH	0
T_REC_STR	8
T_REC_BST	0
T_REC_XST	2
T_REC_XBS	0
T_REC_TTP	33
T_REC_THO	0
T_REC_SLD	10
T_REC_BSL	0
T_REC_ALL	391
T_NUM_TAP	356
T_NUM_BRK	1
T_NUM_HLD	24
T_NUM_SLD	10
T_NUM_ALL	391
T_JUDGE_TAP	357
T_JUDGE_HLD	96
T_JUDGE_SLD	10
T_JUDGE_ALL	463
TTM_EACHPAIRS	69
TTM_SCR_TAP	178000
TTM_SCR_BRK	2600
TTM_SCR_HLD	24000
TTM_SCR_SLD	15000
TTM_SCR_ALL	219600
TTM_SCR_S	212950
TTM_SCR_SS	219500
TTM_RAT_ACV	10004

