VERSION	0.00.00	1.04.00
FES_MODE	0
BPM_DEF	174.000	174.000	174.000	174.000
MET_DEF	4	4
RESOLUTION	384
CLK_DEF	384
COMPATIBLE_CODE	MA2

BPM	0	0	174.000
MET	0	0	4	4

NMTTP	1	0	2	E	0	M1
NMTTP	1	0	6	E	0	M1
NMTTP	1	96	3	E	0	M1
NMTTP	1	96	5	E	0	M1
NMTTP	1	192	0	E	0	M1
NMTTP	1	240	0	C	0	M1
NMTTP	1	288	4	E	0	M1
NMTTP	2	0	6	A	0	M1
NMTTP	2	48	7	A	0	M1
NMTTP	2	96	0	A	0	M1
NMTTP	2	144	1	A	0	M1
NMTTP	2	240	3	B	0	M1
NMTTP	2	288	4	B	0	M1
NMTTP	3	0	2	E	0	M1
NMTTP	3	0	6	E	0	M1
NMTTP	3	96	3	E	0	M1
NMTTP	3	96	5	E	0	M1
NMTTP	3	192	0	E	0	M1
NMTTP	3	240	0	C	0	M1
NMTTP	3	288	4	E	0	M1
NMTTP	4	0	1	A	0	M1
NMTTP	4	48	0	A	0	M1
NMTTP	4	96	7	A	0	M1
NMTTP	4	144	6	A	0	M1
NMTTP	4	240	4	B	0	M1
NMTTP	4	288	3	B	0	M1
NMTTP	5	0	2	E	0	M1
NMTTP	5	0	6	E	0	M1
NMTTP	5	96	3	E	0	M1
NMTTP	5	96	5	E	0	M1
NMTTP	5	192	0	E	0	M1
NMTTP	5	240	0	C	0	M1
NMTTP	5	288	4	E	0	M1
NMTTP	6	0	6	A	0	M1
NMTTP	6	48	7	A	0	M1
NMTTP	6	96	0	A	0	M1
NMTTP	6	144	1	A	0	M1
NMTTP	6	240	3	B	0	M1
NMTTP	6	288	4	B	0	M1
NMTTP	7	0	2	E	0	M1
NMTTP	7	0	6	E	0	M1
NMTTP	7	96	3	E	0	M1
NMTTP	7	96	5	E	0	M1
NMTTP	7	192	0	E	0	M1
NMTTP	7	240	0	C	0	M1
NMTTP	7	288	4	E	0	M1
NMTTP	8	0	1	A	0	M1
NMTTP	8	48	0	A	0	M1
NMTTP	8	96	7	A	0	M1
NMTTP	8	144	6	A	0	M1
NMTTP	8	240	4	B	0	M1
NMTTP	8	288	3	B	0	M1
NMTAP	9	0	2
NMTAP	9	0	5
NMTAP	9	96	2
NMTAP	9	96	5
NMTAP	9	192	3
NMTAP	9	240	4
NMTAP	9	288	3
NMTAP	9	336	2
NMTAP	10	0	4
NMTAP	10	48	4
NMTAP	10	96	3
NMTAP	10	144	5
NMTAP	10	192	4
NMTAP	10	240	4
NMTAP	10	288	5
NMTAP	10	336	3
NMTAP	11	0	4
NMTAP	11	48	3
NMTAP	11	96	2
NMTAP	11	144	3
NMTAP	11	192	2
NMTAP	11	240	4
NMTAP	11	288	5
NMTAP	11	336	5
NMTAP	12	0	3
NMTAP	12	48	4
NMTAP	12	96	2
NMTAP	12	144	3
NMTAP	12	192	5
NMTAP	12	240	4
NMTAP	12	288	3
NMTAP	12	336	3
NMTAP	13	0	4
NMTAP	13	48	3
NMTAP	13	96	2
NMTAP	13	144	2
NMTAP	13	192	3
NMTAP	13	240	4
NMTAP	13	288	3
NMTAP	13	336	2
NMTAP	14	0	4
NMTAP	14	48	4
NMTAP	14	96	3
NMTAP	14	144	5
NMTAP	14	192	4
NMTAP	14	240	4
NMTAP	14	288	5
NMTAP	14	336	3
NMTTP	15	0	5	E	0	M1
NMTTP	15	48	4	E	0	M1
NMTTP	15	96	3	E	0	M1
NMTAP	15	240	0
NMTTP	15	336	2	D	0	M1
NMTTP	16	0	3	D	0	M1
NMTTP	16	48	4	D	0	M1
NMTTP	16	96	5	D	0	M1
NMTTP	16	144	6	D	0	M1
NMTAP	17	0	1
NMTAP	17	0	4
NMTAP	17	48	1
NMTAP	17	48	4
NMSTR	17	96	2
NMSCL	17	96	2	96	48	0
NMSTR	17	96	3
NMSUL	17	96	3	96	48	7
CNSUL	17	240	0	0	72	4
CNSCL	17	240	7	0	72	5
NMTAP	18	0	3
NMTAP	18	0	6
NMTAP	18	48	3
NMTAP	18	48	6
NMSTR	18	96	4
NMSCL	18	96	4	96	48	2
NMSTR	18	96	5
NMSUL	18	96	5	96	48	1
CNSCL	18	240	1	0	72	7
CNSUR	18	240	2	0	72	6
NMTAP	19	0	7
NMTAP	19	48	7
NMSTR	19	96	0
NMSI_	19	96	0	96	48	4
NMTAP	19	96	6
NMTAP	19	192	5
NMHLD	19	288	7	384
NMTTP	19	336	5	A	0	M1
NMTTP	20	0	6	B	0	M1
NMTTP	20	48	0	C	0	M1
NMTTP	20	96	2	B	0	M1
NMTTP	20	144	1	D	0	M1
NMTAP	21	0	3
NMTAP	21	0	6
NMTAP	21	48	3
NMTAP	21	48	6
NMSTR	21	96	4
NMSUR	21	96	4	96	48	0
NMSTR	21	96	5
NMSCR	21	96	5	96	48	7
CNSCR	21	240	0	0	72	2
CNSUR	21	240	7	0	72	3
NMTAP	22	0	1
NMTAP	22	0	4
NMTAP	22	48	1
NMTAP	22	48	4
NMSTR	22	96	2
NMSUR	22	96	2	96	48	6
NMSTR	22	96	3
NMSCR	22	96	3	96	48	5
CNSUL	22	240	5	0	72	1
CNSCR	22	240	6	0	72	0
NMTAP	23	0	0
NMTAP	23	48	0
NMTAP	23	96	1
NMSTR	23	96	7
NMSI_	23	96	7	96	48	3
NMTAP	23	192	2
NMHLD	23	288	0	384
NMTTP	23	336	2	A	0	M1
NMTTP	24	0	1	B	0	M1
NMTTP	24	48	0	C	0	M1
NMTTP	24	96	5	B	0	M1
NMTTP	24	144	7	D	0	M1
NMSTR	25	0	1
NMSI_	25	0	1	96	48	4
NMTAP	25	0	7
NMTAP	25	96	1
NMTAP	25	96	7
NMSTR	25	192	1
NMSI_	25	192	1	96	48	4
NMTAP	25	192	5
NMTAP	25	288	1
NMTAP	25	288	5
NMSTR	26	0	2
NMSI_	26	0	2	96	48	5
NMTAP	26	0	6
NMTAP	26	96	2
NMTAP	26	96	6
NMSTR	26	192	2
NMSI_	26	192	2	96	48	5
NMTAP	26	192	7
NMTAP	26	288	2
NMTAP	26	288	7
NMTAP	27	0	0
NMSTR	27	0	6
NMSI_	27	0	6	96	48	3
NMTAP	27	96	0
NMTAP	27	96	6
NMTAP	27	192	2
NMSTR	27	192	6
NMSI_	27	192	6	96	48	3
NMTAP	27	288	2
NMTAP	27	288	6
NMTAP	28	0	1
NMSTR	28	0	5
NMSI_	28	0	5	96	48	2
NMTAP	28	96	1
NMTAP	28	96	5
NMTAP	28	192	0
NMTAP	28	192	5
NMTAP	28	288	2
NMTAP	28	288	3
NMSTR	29	0	1
NMSI_	29	0	1	96	48	4
NMTAP	29	48	1
NMSTR	29	96	6
NMSI_	29	96	6	96	48	3
NMTAP	29	144	6
NMSTR	29	192	2
NMSI_	29	192	2	96	48	7
NMTAP	29	240	2
NMSTR	29	288	5
NMSI_	29	288	5	96	48	0
NMTAP	29	336	5
NMSTR	30	0	3
NMSI_	30	0	3	96	48	7
NMTAP	30	48	3
NMSTR	30	96	4
NMSI_	30	96	4	96	48	0
NMTAP	30	144	4
NMSTR	30	192	2
NMSI_	30	192	2	96	48	5
NMTAP	30	240	2
NMSTR	30	288	6
NMSV_	30	288	6	96	72	5
NMTAP	30	336	6
NMHLD	31	0	0	192
CNSI_	31	72	5	0	48	3
NMTAP	31	192	5
NMTAP	31	240	5
NMTAP	31	336	1
NMTAP	32	0	2
NMTAP	32	48	7
NMTAP	32	96	0
NMTAP	32	144	1
BRTAP	32	240	0
BRTAP	32	288	0
NMSTR	33	0	1
NMSI_	33	0	1	96	48	4
NMSTR	33	0	5
NMSI_	33	0	5	96	48	0
NMTAP	33	96	1
NMTAP	33	96	5
NMTAP	33	192	2
NMTAP	33	192	6
NMTAP	33	240	2
NMTAP	33	240	6
NMSTR	33	336	1
NMSI_	33	336	1	96	48	5
NMTAP	33	336	7
NMTAP	34	0	1
NMSTR	34	0	7
NMSI_	34	0	7	96	48	4
CNSI_	34	144	4	0	48	0
NMTAP	34	240	2
NMSTR	34	288	2
NMSCR	34	288	2	96	96	6
NMSTR	35	0	6
NMSCR	35	0	6	96	96	2
NMSTR	35	96	2
NMSCR	35	96	2	96	96	6
NMSTR	35	192	6
NMSCR	35	192	6	96	96	2
NMSTR	35	288	2
NMSUR	35	288	2	96	144	5
NMTAP	36	0	6
CNSLR	36	144	5	0	144	1
NMTAP	36	288	4
NMSTR	37	0	2
NMSI_	37	0	2	96	48	7
NMSTR	37	0	3
NMSI_	37	0	3	96	48	6
NMTAP	37	96	2
NMTAP	37	96	3
NMTAP	37	192	0
NMTAP	37	192	5
NMTAP	37	240	0
NMTAP	37	240	5
NMTAP	37	336	3
NMSTR	37	336	6
NMSI_	37	336	6	96	48	1
NMSTR	38	0	3
NMSI_	38	0	3	96	48	0
NMTAP	38	0	6
CNSI_	38	144	0	0	48	4
NMTAP	38	240	7
NMSTR	38	288	7
NMSCL	38	288	7	96	96	3
NMSTR	39	0	3
NMSLR	39	0	3	96	96	0
NMSTR	39	96	0
NMSCR	39	96	0	96	96	4
NMSTR	39	192	4
NMSLL	39	192	4	96	96	7
NMSTR	39	288	7
NMSSL	39	288	7	96	144	3
NMTAP	40	0	3
NMTAP	40	96	0
NMSTR	40	144	0
BRSF_	40	144	0	96	48	4
NMSTR	41	0	2
NMSI_	41	0	2	96	48	7
NMSTR	41	0	6
NMSI_	41	0	6	96	48	3
NMTAP	41	96	2
NMTAP	41	96	6
NMTAP	41	192	1
NMTAP	41	192	5
NMTAP	41	240	1
NMTAP	41	240	5
NMTAP	41	336	0
NMSTR	41	336	6
NMSUL	41	336	6	96	48	2
NMSTR	42	0	0
NMSI_	42	0	0	96	48	4
NMTAP	42	0	6
CNSCL	42	144	4	0	48	1
NMTAP	42	240	5
NMSTR	42	288	5
NMSLR	42	288	5	96	96	1
NMSTR	43	0	1
NMSLR	43	0	1	96	96	5
NMSTR	43	96	5
NMSLR	43	96	5	96	96	1
NMSTR	43	192	1
NMSLR	43	192	1	96	96	5
NMSTR	43	288	5
NMSUL	43	288	5	96	144	2
NMTAP	44	0	1
CNSCL	44	144	2	0	144	6
NMTAP	44	288	3
NMSTR	45	0	4
NMSI_	45	0	4	96	48	1
NMSTR	45	0	5
NMSI_	45	0	5	96	48	0
NMTAP	45	96	4
NMTAP	45	96	5
NMTAP	45	192	2
NMTAP	45	192	7
NMTAP	45	240	2
NMTAP	45	240	7
NMSTR	45	336	3
NMSUL	45	336	3	96	48	7
NMTAP	45	336	5
NMTAP	46	0	3
NMSTR	46	0	5
NMSUR	46	0	5	96	48	1
CNSI_	46	144	1	0	48	4
NMTAP	46	240	0
NMSTR	46	288	0
NMSLR	46	288	0	96	96	4
NMSTR	47	0	4
NMSLL	47	0	4	96	96	7
NMSTR	47	96	7
NMSLL	47	96	7	96	96	3
NMSTR	47	192	3
NMSLR	47	192	3	96	96	0
NMTAP	47	288	0
NMTAP	48	0	3
NMTAP	48	48	3
NMSTR	48	144	1
NMSCR	48	144	1	96	48	4
NMSTR	48	144	5
NMSCR	48	144	5	96	48	0
BRTAP	48	240	1
BRTAP	48	240	5
NMSTR	49	0	6
NMSI_	49	0	6	96	48	2
NMSTR	49	0	7
NMSI_	49	0	7	96	48	3
NMTAP	49	48	0
NMTAP	49	48	5
NMSTR	49	192	0
NMSI_	49	192	0	96	48	4
NMSTR	49	192	1
NMSI_	49	192	1	96	48	5
NMTAP	49	240	2
NMTAP	49	240	7
NMSTR	50	0	6
NMSV_	50	0	6	96	48	0
NMTAP	50	0	7
NMSTR	50	48	0
NMSLR	50	48	0	96	48	4
NMTAP	50	48	5
CNSI_	50	192	4	0	48	7
EXTAP	50	240	1
EXTAP	50	288	1
NMSTR	51	0	0
NMSI_	51	0	0	96	48	4
NMSTR	51	0	6
NMSI_	51	0	6	96	48	3
NMTAP	51	48	1
NMTAP	51	48	5
NMSTR	51	96	6
NMSI_	51	96	6	96	48	1
NMSTR	51	192	2
NMSI_	51	192	2	96	48	5
NMTAP	51	192	6
NMSTR	51	288	7
NMSI_	51	288	7	96	48	4
NMSTR	51	336	7
NMSI_	51	336	7	96	48	2
NMSTR	52	0	7
BRSI_	52	0	7	96	48	3
CNSCL	52	144	3	0	48	0
NMTAP	52	288	2
NMTAP	52	288	3
NMSTR	53	0	0
NMSI_	53	0	0	96	48	4
NMSTR	53	0	1
NMSI_	53	0	1	96	48	5
NMTAP	53	48	2
NMTAP	53	48	7
NMSTR	53	192	6
NMSI_	53	192	6	96	48	2
NMSTR	53	192	7
NMSI_	53	192	7	96	48	3
NMTAP	53	240	0
NMTAP	53	240	5
NMTAP	54	0	0
NMSTR	54	0	1
NMSV_	54	0	1	96	48	7
NMTAP	54	48	2
NMSTR	54	48	7
NMSCL	54	48	7	96	48	2
CNSI_	54	192	2	0	48	0
EXTAP	54	240	6
EXTAP	54	288	6
NMSTR	55	0	1
NMSI_	55	0	1	96	48	4
NMSTR	55	0	7
NMSI_	55	0	7	96	48	3
NMTAP	55	48	2
NMTAP	55	48	6
NMSTR	55	96	1
NMSI_	55	96	1	96	48	6
NMTAP	55	192	1
NMSTR	55	192	5
NMSI_	55	192	5	96	48	2
NMSTR	55	288	0
NMSCR	55	288	0	96	528	7
NMTAP	55	288	5
NMTHO	57	0	0	384	C	0	M1
NMTTP	57	0	4	B	0	M1
NMTTP	57	0	5	B	0	M1
NMSTR	58	0	0
NMSI_	58	0	0	96	96	4
CNSI_	58	192	4	0	192	7
NMTHO	59	0	0	384	C	0	M1
NMSTR	60	0	0
NMSI_	60	0	0	96	96	4
NMSTR	60	192	6
NMSCL	60	192	6	96	96	2
NMTHO	61	0	0	384	C	0	M1
NMSTR	62	0	7
NMSI_	62	0	7	96	96	2
CNSI_	62	192	2	0	96	6
CNSCL	62	288	6	0	96	3
NMTHO	63	0	0	384	C	0	M1
NMSTR	64	0	7
NMSCL	64	0	7	96	96	4
NMSTR	64	192	0
NMSCR	64	192	0	96	96	3
NMTHO	65	0	0	192	C	0	M1
NMTTP	65	0	4	B	0	M1
NMTTP	65	0	5	B	0	M1
NMTTP	65	192	2	B	0	M1
NMTTP	65	192	3	B	0	M1
NMTTP	65	192	3	E	0	M1
NMTTP	65	192	6	B	0	M1
NMTTP	65	192	7	B	0	M1
NMTTP	65	192	7	E	0	M1
NMSTR	66	0	0
NMSI_	66	0	0	96	96	4
CNSUR	66	192	4	0	192	1
NMTHO	67	0	0	192	C	0	M1
NMTTP	67	192	2	B	0	M1
NMTTP	67	192	3	B	0	M1
NMTTP	67	192	3	E	0	M1
NMTTP	67	192	6	B	0	M1
NMTTP	67	192	7	B	0	M1
NMTTP	67	192	7	E	0	M1
NMSTR	68	0	0
NMSUR	68	0	0	96	96	5
NMSTR	68	192	7
NMSLL	68	192	7	96	96	3
NMTHO	69	0	0	192	C	0	M1
NMTTP	69	0	2	B	0	M1
NMTTP	69	0	3	B	0	M1
NMTTP	69	192	0	B	0	M1
NMTTP	69	192	1	B	0	M1
NMTTP	69	192	1	E	0	M1
NMTTP	69	192	4	B	0	M1
NMTTP	69	192	5	B	0	M1
NMTTP	69	192	5	E	0	M1
NMSTR	70	0	7
NMSCR	70	0	7	96	96	1
CNSUL	70	192	1	0	192	4
NMTHO	71	0	0	192	C	0	M1
NMTTP	71	192	0	B	0	M1
NMTTP	71	192	1	B	0	M1
NMTTP	71	192	1	E	0	M1
NMTTP	71	192	4	B	0	M1
NMTTP	71	192	5	B	0	M1
NMTTP	71	192	5	E	0	M1
NMSTR	72	0	7
NMSI_	72	0	7	96	48	1
NMSI_	72	0	7	96	48	5
NMSTR	72	96	7
NMSI_	72	96	7	96	48	3
NMSI_	72	96	7	96	72	3
CNSCL	72	240	3	0	72	0
CNSCR	72	264	3	0	48	6
EXTAP	73	0	0
EXTAP	73	0	6
NMTAP	73	96	1
NMTAP	73	96	4
NMTAP	73	168	2
NMTAP	73	192	3
NMHLD	73	240	3	96
NMTAP	73	336	0
NMTAP	74	0	0
NMSTR	74	48	1
NMSI_	74	48	1	96	48	7
NMTAP	74	96	2
NMTAP	74	144	1
NMSTR	74	144	3
NMSV_	74	144	3	96	48	0
NMTAP	74	240	3
NMTAP	74	240	5
NMTAP	74	288	6
EXTAP	75	0	1
EXTAP	75	0	7
NMTAP	75	96	3
NMTAP	75	96	6
NMTAP	75	168	5
NMTAP	75	192	4
NMHLD	75	240	4	96
NMTAP	75	336	7
NMTAP	76	0	7
NMSTR	76	48	6
NMSCR	76	48	6	96	48	0
NMTAP	76	96	5
NMSTR	76	144	4
NMSI_	76	144	4	96	48	0
NMTAP	76	144	6
NMTAP	76	240	2
NMTAP	76	240	4
NMTAP	76	288	1
EXTAP	77	0	0
EXTAP	77	0	6
NMTAP	77	96	1
NMTAP	77	96	4
NMTAP	77	168	2
NMTAP	77	192	3
NMHLD	77	240	3	96
NMTAP	77	336	0
NMTAP	78	0	0
NMSTR	78	48	1
NMSV_	78	48	1	96	48	6
NMTAP	78	96	2
NMTAP	78	144	1
NMSTR	78	144	3
NMSUL	78	144	3	96	48	7
NMTAP	78	240	3
NMTAP	78	240	4
NMSTR	78	288	5
NMSCR	78	288	5	96	144	3
NMTAP	79	336	2
NMTAP	79	336	4
NMTAP	80	0	3
NMTAP	80	48	4
NMHLD	80	96	5	48
NMSTR	80	144	3
NMSI_	80	144	3	96	24	5
BRTAP	80	240	4
CNSV_	80	264	5	0	48	0
BRTAP	80	288	7
EXTAP	81	0	0
EXSTR	81	0	1
NMSI_	81	0	1	96	48	3
NMTAP	81	48	7
BRTAP	81	96	1
BRTAP	81	96	5
NMTAP	81	144	6
NMTAP	81	168	6
NMTAP	81	192	4
NMTAP	81	240	3
NMTAP	81	240	5
NMTAP	81	288	2
NMSTR	81	288	6
NMSI_	81	288	6	96	48	4
NMTAP	81	336	1
NMTAP	82	0	0
CNSI_	82	48	4	0	48	7
NMTAP	82	96	1
CNSI_	82	96	7	0	48	3
NMTAP	82	144	2
NMTAP	82	168	2
NMTAP	82	192	4
NMTAP	82	240	1
NMTAP	82	240	5
NMSTR	82	288	1
NMSI_	82	288	1	96	48	7
NMTAP	82	288	5
NMTAP	82	336	4
NMTAP	83	0	3
CNSI_	83	48	7	0	48	2
CNSI_	83	96	2	0	48	6
NMTAP	83	96	4
NMTAP	83	144	5
NMTAP	83	168	5
NMTAP	83	192	7
NMTAP	83	240	0
NMTAP	83	240	4
NMTAP	83	288	0
NMSTR	83	288	4
NMSI_	83	288	4	96	48	2
NMTAP	83	336	7
NMTAP	84	0	6
CNSI_	84	48	2	0	48	5
CNSI_	84	96	5	0	48	1
NMTAP	84	96	7
NMTAP	84	144	0
NMTAP	84	168	0
NMTAP	84	192	2
NMTAP	84	240	3
NMTAP	84	240	7
NMTAP	84	288	3
NMTAP	84	288	7
NMTAP	85	0	4
NMSTR	85	0	6
NMSI_	85	0	6	96	48	4
NMTAP	85	48	7
BRTAP	85	96	2
BRTAP	85	96	6
NMTAP	85	144	1
NMTAP	85	168	1
NMTAP	85	192	3
NMTAP	85	240	2
NMTAP	85	240	4
NMSTR	85	288	1
NMSI_	85	288	1	96	48	3
NMTAP	85	288	5
NMTAP	85	336	6
NMTAP	86	0	7
CNSI_	86	48	3	0	48	0
CNSI_	86	96	0	0	48	4
NMTAP	86	96	6
NMTAP	86	144	5
NMTAP	86	168	5
NMTAP	86	192	3
NMTAP	86	240	2
NMTAP	86	240	6
NMTAP	86	288	2
NMSTR	86	288	6
NMSI_	86	288	6	96	48	0
NMTAP	86	336	3
NMTAP	87	0	4
NMTAP	87	96	3
NMTAP	87	96	7
NMTAP	87	192	1
NMTAP	87	192	5
NMTTP	87	288	3	A	0	M1
NMTTP	87	288	3	D	0	M1
NMTTP	87	288	4	A	0	M1
NMTTP	87	288	4	D	0	M1
NMTTP	87	360	0	A	0	M1
NMTTP	87	360	1	A	0	M1
NMTTP	87	360	1	D	0	M1
NMTTP	87	360	2	D	0	M1
NMTTP	88	48	6	A	0	M1
NMTTP	88	48	6	D	0	M1
NMTTP	88	48	7	A	0	M1
NMTTP	88	48	7	D	0	M1
NMTTP	88	120	3	A	0	M1
NMTTP	88	120	4	A	0	M1
NMTTP	88	120	4	D	0	M1
NMTTP	88	120	5	D	0	M1
NMTTP	88	192	1	A	0	M1
NMTTP	88	192	1	D	0	M1
NMTTP	88	192	2	A	0	M1
NMTTP	88	192	2	D	0	M1
NMTTP	88	264	0	D	0	M1
NMTTP	88	264	6	A	0	M1
NMTTP	88	264	7	A	0	M1
NMTTP	88	264	7	D	0	M1
EXTAP	88	336	4
EXTAP	88	336	5
NMSTR	89	0	5
NMSI_	89	0	5	96	48	7
NMTAP	89	48	4
BRTAP	89	96	3
BRTAP	89	96	5
NMTAP	89	144	2
NMTAP	89	168	2
NMTAP	89	192	0
NMTAP	89	240	1
NMTAP	89	240	7
NMSTR	89	288	2
NMSI_	89	288	2	96	48	0
NMTAP	89	288	6
NMTAP	89	336	5
NMTAP	90	0	4
CNSI_	90	48	0	0	48	3
CNSI_	90	96	3	0	48	7
NMTAP	90	96	5
NMTAP	90	144	6
NMTAP	90	168	6
NMTAP	90	192	0
NMTAP	90	240	1
NMTAP	90	240	5
NMTAP	90	288	1
NMSTR	90	288	5
NMSI_	90	288	5	96	48	3
NMTAP	90	336	0
NMTAP	91	0	7
CNSI_	91	48	3	0	48	6
NMTAP	91	96	0
CNSI_	91	96	6	0	48	2
NMTAP	91	144	1
NMTAP	91	168	1
NMTAP	91	192	3
NMTAP	91	240	0
NMTAP	91	240	4
NMSTR	91	288	0
NMSI_	91	288	0	96	48	6
NMTAP	91	288	4
NMTAP	91	336	3
NMTAP	92	0	2
CNSI_	92	48	6	0	48	1
CNSI_	92	96	1	0	48	5
NMTAP	92	96	3
NMTAP	92	144	4
NMTAP	92	168	4
NMTAP	92	192	6
NMTAP	92	240	3
NMTAP	92	240	7
NMTAP	92	288	3
NMTAP	92	288	7
NMSTR	93	0	2
NMSI_	93	0	2	96	48	0
NMTAP	93	48	3
BRTAP	93	96	2
BRTAP	93	96	4
NMTAP	93	144	5
NMTAP	93	168	5
NMTAP	93	192	7
NMTAP	93	240	0
NMTAP	93	240	6
NMTAP	93	288	1
NMSTR	93	288	5
NMSI_	93	288	5	96	48	7
NMTAP	93	336	2
NMTAP	94	0	3
CNSI_	94	48	7	0	48	4
NMTAP	94	96	2
CNSI_	94	96	4	0	48	0
NMTAP	94	144	1
NMTAP	94	168	1
NMTAP	94	192	7
NMTAP	94	240	2
NMTAP	94	240	6
NMSTR	94	288	2
NMSI_	94	288	2	96	48	4
NMTAP	94	288	6
NMTAP	94	336	7
NMTAP	95	0	0
NMTAP	95	96	3
NMTAP	95	96	7
NMTAP	95	144	2
NMTAP	95	192	1
NMSTR	95	192	5
NMSI_	95	192	5	96	96	2
NMHLD	95	288	0	336
CNSI_	96	0	2	0	48	0
CNSI_	96	48	0	0	96	3
NMTAP	96	240	3
BRTAP	96	288	1
BRSTR	96	288	4
NMSCL	96	288	4	96	48	1
NMSCR	96	288	4	96	48	7
NMTAP	97	96	2
NMTAP	97	96	6
NMTAP	97	144	5
NMTAP	97	168	4
NMTAP	97	216	6
NMSTR	97	240	7
NMSI_	97	240	7	96	48	2
NMTAP	97	288	0
NMSTR	97	288	5
NMSI_	97	288	5	96	48	3
NMSTR	97	336	7
NMSI_	97	336	7	96	48	4
NMSTR	98	0	5
NMSI_	98	0	5	96	48	2
NMSTR	98	48	7
NMSCR	98	48	7	96	48	3
NMTAP	98	96	5
NMTAP	98	144	7
EXTAP	98	240	1
EXTAP	98	240	5
EXTAP	98	288	1
EXTAP	98	288	5
NMTAP	98	336	6
NMTAP	99	0	7
NMTAP	99	48	0
NMTAP	99	96	1
NMTAP	99	96	5
NMTAP	99	144	2
NMTAP	99	168	3
NMTAP	99	216	1
NMSTR	99	240	0
NMSI_	99	240	0	96	48	5
NMSTR	99	288	2
NMSI_	99	288	2	96	48	4
NMTAP	99	288	7
NMSTR	99	336	0
NMSI_	99	336	0	96	48	3
NMSTR	100	0	2
NMSI_	100	0	2	96	48	5
NMSTR	100	48	0
NMSCL	100	48	0	96	48	4
NMTAP	100	96	2
NMTAP	100	144	0
EXTAP	100	240	2
EXTAP	100	240	6
EXTAP	100	288	2
EXTAP	100	288	6
NMTAP	100	336	3
NMTAP	101	0	4
NMTAP	101	48	5
NMTAP	101	96	2
NMTAP	101	96	6
NMTAP	101	144	5
NMTAP	101	168	4
NMTAP	101	216	6
NMSTR	101	240	7
NMSI_	101	240	7	96	48	2
NMTAP	101	288	0
NMSTR	101	288	5
NMSI_	101	288	5	96	48	3
NMSTR	101	336	7
NMSI_	101	336	7	96	48	4
NMSTR	102	0	5
NMSI_	102	0	5	96	48	2
NMSTR	102	48	7
NMSLR	102	48	7	96	48	3
NMTAP	102	96	5
NMTAP	102	144	7
EXTAP	102	240	1
EXTAP	102	240	5
EXTAP	102	288	1
EXTAP	102	288	5
NMTAP	102	336	4
NMTAP	103	0	3
NMTAP	103	48	2
NMTAP	103	96	1
NMTAP	103	96	4
NMTAP	103	144	2
NMTAP	103	168	3
NMTAP	103	216	5
NMSTR	103	240	4
NMSI_	103	240	4	96	48	0
NMTAP	103	288	3
NMSTR	103	288	6
NMSI_	103	288	6	96	48	2
CNSI_	104	0	0	0	48	3
CNSI_	104	48	2	0	48	5
NMTAP	104	96	1
NMTAP	104	144	0
NMTAP	104	192	0
NMTAP	104	216	1
NMTAP	104	240	2
NMTAP	104	264	3
NMSTR	104	288	4
NMSCL	104	288	4	96	576	5
NMTAP	104	312	5
NMTAP	104	336	6
NMTAP	104	360	7
BXTAP	105	0	0

T_REC_TAP	379
T_REC_BRK	15
T_REC_XTP	25
T_REC_BXX	1
T_REC_HLD	8
T_REC_XHO	0
T_REC_BHO	0
T_REC_BXH	0
T_REC_STR	139
T_REC_BST	1
T_REC_XST	1
T_REC_XBS	0
T_REC_TTP	124
T_REC_THO	8
T_REC_SLD	142
T_REC_BSL	2
T_REC_ALL	845
T_NUM_TAP	668
T_NUM_BRK	19
T_NUM_HLD	16
T_NUM_SLD	142
T_NUM_ALL	845
T_JUDGE_TAP	685
T_JUDGE_HLD	82
T_JUDGE_SLD	144
T_JUDGE_ALL	911
TTM_EACHPAIRS	141
TTM_SCR_TAP	334000
TTM_SCR_BRK	49400
TTM_SCR_HLD	16000
TTM_SCR_SLD	213000
TTM_SCR_ALL	612400
TTM_SCR_S	592200
TTM_SCR_SS	610500
TTM_RAT_ACV	10031

