VERSION	0.00.00	1.04.00
FES_MODE	0
BPM_DEF	174.000	174.000	174.000	174.000
MET_DEF	4	4
RESOLUTION	384
CLK_DEF	384
COMPATIBLE_CODE	MA2

BPM	0	0	174.000
MET	0	0	4	4

BRSTR	1	0	3
NMSXL	1	0	3	96	432	2
CNSCL	2	144	2	0	240	7
CNSXL	3	0	7	0	432	6
CNSCL	4	48	6	0	144	4
NMTTP	5	0	3	E	0	M1
NMTTP	5	96	2	E	0	M1
NMTTP	5	192	1	E	0	M1
NMTTP	5	288	0	E	0	M1
NMTTP	6	0	7	E	0	M1
NMTTP	6	96	0	C	0	M1
NMTTP	6	192	2	E	0	M1
NMTTP	6	192	4	E	0	M1
NMTTP	7	0	5	E	0	M1
NMTTP	7	96	6	E	0	M1
NMTTP	7	192	7	E	0	M1
NMTTP	7	288	0	E	0	M1
NMTTP	8	0	1	E	0	M1
NMTTP	8	96	0	C	0	M1
NMTTP	8	192	4	E	0	M1
NMTTP	8	192	6	E	0	M1
NMTAP	9	0	2
NMHLD	9	96	2	672
NMTAP	9	192	3
NMTAP	9	288	3
NMTAP	10	0	1
NMTAP	10	96	1
NMTAP	10	192	3
NMTAP	10	288	3
NMTAP	11	0	5
NMHLD	11	96	5	672
NMTAP	11	192	4
NMTAP	11	288	4
NMTAP	12	0	6
NMTAP	12	96	6
NMTAP	12	192	4
NMTAP	12	288	4
NMHLD	13	0	3	96
NMHLD	13	96	2	96
NMHLD	13	192	1	96
NMHLD	13	288	0	96
NMHLD	14	0	7	96
NMHLD	14	96	6	96
NMHLD	14	192	5	96
NMHLD	14	288	4	96
NMTHO	15	0	0	528	C	0	M1
NMTTP	16	144	2	B	0	M1
NMTTP	16	144	2	A	0	M1
NMTTP	16	144	5	B	0	M1
NMTTP	16	144	5	A	0	M1
NMTAP	17	0	1
NMHLD	17	48	1	336
NMTAP	17	144	3
NMSTR	17	192	3
NMSI_	17	192	3	96	48	5
NMTAP	18	0	6
NMHLD	18	48	6	336
NMTAP	18	144	4
NMSTR	18	192	4
NMSI_	18	192	4	96	48	2
NMTAP	19	0	0
NMHLD	19	48	0	336
NMTAP	19	144	2
NMSTR	19	192	2
NMSI_	19	192	2	96	48	4
NMTAP	20	0	5
NMTAP	20	96	6
NMTAP	20	96	7
NMTAP	20	144	6
NMTAP	20	144	7
NMTAP	20	240	0
NMTAP	20	240	5
NMTAP	20	288	0
NMTAP	20	288	5
NMTAP	21	0	6
NMHLD	21	48	6	336
NMTAP	21	144	4
NMSTR	21	192	4
NMSI_	21	192	4	96	48	2
NMTAP	22	0	1
NMHLD	22	48	1	336
NMTAP	22	144	3
NMSTR	22	192	3
NMSI_	22	192	3	96	48	5
NMTAP	23	0	7
NMHLD	23	48	7	336
NMTAP	23	144	5
NMSTR	23	192	5
NMSI_	23	192	5	96	48	3
NMTAP	24	0	2
NMTAP	24	96	0
NMTAP	24	96	1
NMTAP	24	144	0
NMTAP	24	144	1
NMTAP	24	240	3
NMTAP	24	240	7
NMTAP	24	288	3
NMTAP	24	288	7
NMHLD	25	0	2	672
NMTAP	25	96	0
NMTAP	25	192	0
NMTAP	25	288	0
NMTAP	26	0	1
NMTAP	26	96	1
NMTAP	26	192	3
NMTAP	26	288	3
NMHLD	27	0	5	672
NMTAP	27	96	7
NMTAP	27	192	7
NMTAP	27	288	7
NMTAP	28	0	6
NMTAP	28	96	6
NMTAP	28	192	4
NMTAP	28	288	4
NMTAP	29	0	2
NMTAP	29	48	2
NMTAP	29	96	3
NMTAP	29	192	5
NMTAP	29	240	5
NMTAP	29	288	4
NMTAP	30	0	1
NMTAP	30	48	1
NMTAP	30	96	3
NMTAP	30	192	6
NMTAP	30	240	6
NMTAP	30	288	4
NMTHO	31	0	0	384	C	0	M1
BXTAP	32	240	0
BXTAP	32	240	7
BXTAP	32	288	0
BXTAP	32	288	7
NMSTR	33	0	0
NMSI_	33	0	0	96	48	5
NMSTR	33	0	1
NMSI_	33	0	1	96	48	4
NMSTR	33	192	6
NMSI_	33	192	6	96	48	3
NMSTR	33	192	7
NMSI_	33	192	7	96	48	2
NMTAP	34	0	1
NMTAP	34	0	4
NMTAP	34	96	3
NMTAP	34	96	6
NMTAP	34	144	3
NMTAP	34	144	6
NMTAP	34	240	4
NMTAP	34	240	5
NMTAP	34	288	4
NMTAP	34	288	5
NMTAP	35	0	6
NMTAP	35	0	7
NMTAP	35	96	0
NMTAP	35	96	1
NMTAP	35	192	2
NMTAP	35	192	3
NMTAP	35	288	4
NMSTR	35	288	5
NMSCR	35	288	5	96	192	4
NMTAP	36	288	4
NMTAP	36	288	5
NMSTR	37	0	6
NMSI_	37	0	6	96	48	3
NMSTR	37	0	7
NMSI_	37	0	7	96	48	2
NMSTR	37	192	0
NMSI_	37	192	0	96	48	5
NMSTR	37	192	1
NMSI_	37	192	1	96	48	4
NMTAP	38	0	3
NMTAP	38	0	6
NMTAP	38	96	1
NMTAP	38	96	4
NMTAP	38	144	1
NMTAP	38	144	4
NMTAP	38	240	2
NMTAP	38	240	3
NMTAP	38	288	2
NMTAP	38	288	3
NMHLD	39	0	1	96
NMHLD	39	96	3	96
NMHLD	39	192	4	96
NMHLD	39	288	6	96
NMTAP	40	0	0
NMTAP	40	96	2
NMTAP	40	96	4
NMTAP	40	144	2
NMTAP	40	144	4
NMTTP	40	240	1	B	0	M1
NMTTP	40	240	1	A	1	M1
NMTTP	40	240	5	B	0	M1
NMTTP	40	240	5	A	0	M1
NMSTR	41	0	6
NMSI_	41	0	6	96	48	2
NMSTR	41	0	7
NMSI_	41	0	7	96	48	2
NMSTR	41	192	0
NMSI_	41	192	0	96	48	5
NMSTR	41	192	1
NMSI_	41	192	1	96	48	5
NMTAP	42	0	4
NMTAP	42	0	6
NMTAP	42	96	1
NMTAP	42	96	3
NMTAP	42	144	1
NMTAP	42	144	3
NMTAP	42	240	2
NMTAP	42	240	3
NMTAP	42	288	2
NMTAP	42	288	3
NMTAP	43	0	0
NMTAP	43	0	1
NMTAP	43	96	6
NMTAP	43	96	7
NMTAP	43	192	4
NMTAP	43	192	5
NMSTR	43	288	2
NMSCL	43	288	2	96	192	3
NMTAP	43	288	3
NMTAP	44	288	2
NMTAP	44	288	3
NMSTR	45	0	0
NMSI_	45	0	0	96	48	5
NMSTR	45	0	1
NMSI_	45	0	1	96	48	5
NMSTR	45	192	6
NMSI_	45	192	6	96	48	2
NMSTR	45	192	7
NMSI_	45	192	7	96	48	2
NMTAP	46	0	1
NMTAP	46	0	3
NMTAP	46	96	4
NMTAP	46	96	6
NMTAP	46	144	4
NMTAP	46	144	6
NMTAP	46	240	3
NMTAP	46	240	4
NMTAP	46	288	3
NMTAP	46	288	4
NMTAP	47	0	2
NMTAP	47	48	3
NMTAP	47	96	1
NMTAP	47	96	4
NMTAP	47	192	5
NMTAP	47	240	4
NMTAP	47	288	3
NMTAP	47	288	6
NMTAP	48	0	0
NMTAP	48	0	1
NMTAP	48	96	2
NMTAP	48	96	3
NMTAP	48	144	2
NMTAP	48	144	3
BRTAP	48	240	0
BRTAP	48	240	4
NMTAP	49	0	1
NMHLD	49	48	1	144
NMTAP	49	144	3
NMSTR	49	192	3
NMSI_	49	192	3	96	48	7
NMTAP	50	0	6
NMHLD	50	48	6	144
NMTAP	50	144	4
NMSTR	50	192	4
NMSI_	50	192	4	96	48	0
NMTAP	51	0	1
NMHLD	51	48	1	144
NMTAP	51	144	2
NMSTR	51	192	2
NMSCR	51	192	2	96	48	5
NMTAP	52	0	6
NMTAP	52	96	3
NMTAP	52	96	6
NMTAP	52	144	3
NMTAP	52	144	6
NMTAP	52	240	1
NMTAP	52	240	4
NMTAP	52	288	1
NMTAP	52	288	4
NMTAP	53	0	6
NMHLD	53	48	6	144
NMTAP	53	144	4
NMSTR	53	192	4
NMSI_	53	192	4	96	48	0
NMTAP	54	0	1
NMHLD	54	48	1	144
NMTAP	54	144	3
NMSTR	54	192	3
NMSI_	54	192	3	96	48	7
NMTAP	55	0	6
NMHLD	55	48	6	144
NMTAP	55	144	4
NMTAP	55	192	4
NMSTR	55	288	4
NMSXR	55	288	4	96	288	1
NMSTR	55	288	5
NMSXL	55	288	5	96	288	0
NMTTP	57	0	0	C	1	M1
NMTTP	57	0	3	B	0	M1
NMTTP	57	0	4	B	0	M1
NMTTP	57	0	5	B	0	M1
NMTTP	57	0	6	B	0	M1
NMSTR	59	0	5
NMSUL	59	0	5	96	480	3
NMSTR	61	0	2
NMSXR	61	0	2	96	480	5
NMSTR	63	0	6
NMSXL	63	0	6	96	480	3
NMHLD	65	0	1	384
NMTTP	65	192	3	E	0	M1
NMHLD	66	0	2	384
NMTTP	66	192	4	E	0	M1
NMHLD	67	0	3	384
NMTTP	67	192	5	E	0	M1
NMHLD	68	0	4	384
NMTTP	68	192	6	E	0	M1
NMHLD	69	0	5	384
NMTTP	69	192	7	E	0	M1
NMHLD	70	0	6	384
NMTTP	70	192	0	E	0	M1
NMTHO	71	0	0	384	C	0	M1
BRSTR	73	0	1
NMSI_	73	0	1	96	192	5
NMTAP	73	96	7
NMTAP	73	192	7
CNSI_	73	288	5	0	120	3
NMTAP	73	288	7
NMTAP	74	0	7
CNSI_	74	24	3	0	168	0
NMTAP	74	96	7
NMTAP	74	192	7
NMTAP	74	288	7
NMSTR	75	0	6
NMSI_	75	0	6	96	192	2
NMTAP	75	96	0
NMTAP	75	192	0
NMTAP	75	288	0
CNSI_	75	288	2	0	120	4
NMTAP	76	0	0
CNSI_	76	24	4	0	168	7
NMTAP	76	96	0
NMTAP	76	192	0
NMTAP	76	288	0
NMTAP	77	0	1
NMTAP	77	48	1
NMTAP	77	96	0
NMTAP	77	192	6
NMTAP	77	240	6
NMTAP	77	288	7
NMTAP	78	0	2
NMTAP	78	48	2
NMTAP	78	96	0
NMTAP	78	192	5
NMTAP	78	240	5
NMTAP	78	288	7
NMTHO	79	0	0	384	C	0	M1
BRTAP	80	240	0
BRTAP	80	240	7
BRTAP	80	288	0
BRTAP	80	288	7
NMSTR	81	0	2
BRSI_	81	0	2	96	48	6
NMSTR	81	0	3
BRSI_	81	0	3	96	48	7
NMHLD	81	192	0	96
NMTAP	81	192	5
NMTAP	81	288	3
NMTAP	82	0	2
NMHLD	82	0	7	96
NMTAP	82	96	4
NMTAP	82	192	6
NMTAP	82	240	6
NMTAP	82	288	7
NMHLD	83	0	1	96
NMTAP	83	0	5
NMTAP	83	96	0
NMTAP	83	192	2
NMHLD	83	192	6	96
NMTAP	83	288	7
NMTAP	84	0	4
NMTAP	84	0	5
NMTAP	84	96	0
NMTAP	84	96	1
NMTAP	84	192	2
NMTAP	84	192	3
NMTAP	84	288	6
NMTAP	84	288	7
NMSTR	85	0	4
BRSI_	85	0	4	96	48	0
NMSTR	85	0	5
BRSI_	85	0	5	96	48	1
NMTAP	85	192	2
NMHLD	85	192	7	96
NMTAP	85	288	4
NMHLD	86	0	0	96
NMTAP	86	0	5
NMTAP	86	96	3
NMTAP	86	192	1
NMTAP	86	240	1
NMTAP	86	288	0
NMTAP	87	0	4
NMTAP	87	0	6
NMTAP	87	96	0
NMTAP	87	96	7
NMTAP	87	192	1
NMTAP	87	192	3
NMSTR	87	288	4
NMSI_	87	288	4	96	72	6
NMTAP	87	288	5
CNSI_	88	72	6	0	96	2
CNSI_	88	168	2	0	72	0
BXTAP	88	240	7
BXTAP	88	288	7
NMTAP	89	0	1
NMHLD	89	48	1	144
NMTAP	89	144	0
NMSTR	89	192	0
NMSUR	89	192	0	96	48	4
NMSV_	89	192	0	96	48	5
NMTAP	90	0	6
NMHLD	90	48	6	144
NMTAP	90	144	7
NMSTR	90	192	7
NMSUL	90	192	7	96	48	3
NMSV_	90	192	7	96	48	2
NMTAP	91	0	1
NMHLD	91	48	1	144
NMTAP	91	144	3
NMSTR	91	192	3
NMSUL	91	192	3	96	48	7
NMSV_	91	192	3	96	48	6
NMTAP	92	0	0
NMTAP	92	0	5
NMTAP	92	96	2
NMTAP	92	96	7
NMTAP	92	144	2
NMTAP	92	144	7
NMTAP	92	240	0
NMTAP	92	240	5
NMTAP	92	288	0
NMTAP	92	288	5
NMTAP	93	0	6
NMHLD	93	48	6	144
NMTAP	93	144	7
NMSTR	93	192	7
NMSUL	93	192	7	96	48	3
NMSV_	93	192	7	96	48	2
NMTAP	94	0	1
NMHLD	94	48	1	144
NMTAP	94	144	0
NMSTR	94	192	0
NMSUR	94	192	0	96	48	4
NMSV_	94	192	0	96	48	5
NMTAP	95	0	6
NMHLD	95	48	6	144
NMTAP	95	144	4
NMSTR	95	192	4
NMSXL	95	192	4	96	240	7
NMSXR	95	192	4	96	240	1
NMTAP	96	240	1
NMTAP	96	240	7
NMTAP	96	288	1
NMTAP	96	288	7
NMSTR	97	0	2
NMSI_	97	0	2	96	48	5
NMSTR	97	0	3
NMSI_	97	0	3	96	48	5
NMSTR	97	192	6
NMSI_	97	192	6	96	48	1
NMSTR	97	192	7
NMSI_	97	192	7	96	48	1
NMTAP	98	0	2
NMTAP	98	0	3
NMTAP	98	96	0
NMTAP	98	96	4
NMTAP	98	144	0
NMTAP	98	144	4
NMTAP	98	240	2
NMTAP	98	240	6
NMTAP	98	288	2
NMTAP	98	288	6
NMSTR	99	0	3
NMSI_	99	0	3	96	48	0
NMSTR	99	0	7
NMSI_	99	0	7	96	48	4
NMSTR	99	192	0
NMSCR	99	192	0	96	48	3
NMSTR	99	192	4
NMSCR	99	192	4	96	48	7
NMTAP	100	0	3
NMTAP	100	0	7
NMTAP	100	96	5
NMTAP	100	144	4
NMTAP	100	144	5
NMTAP	100	240	2
NMTAP	100	288	2
NMTAP	100	288	3
NMSTR	101	0	4
NMSI_	101	0	4	96	48	2
NMSTR	101	0	5
NMSI_	101	0	5	96	48	2
NMSTR	101	192	0
NMSI_	101	192	0	96	48	6
NMSTR	101	192	1
NMSI_	101	192	1	96	48	6
NMTAP	102	0	4
NMTAP	102	0	5
NMTAP	102	96	0
NMTAP	102	96	7
NMTAP	102	144	0
NMTAP	102	144	7
NMTAP	102	240	1
NMTAP	102	240	3
NMTAP	102	288	1
NMTAP	102	288	3
NMSTR	103	0	4
NMSI_	103	0	4	96	48	0
NMSTR	103	0	6
NMSI_	103	0	6	96	48	3
NMSTR	103	192	1
NMSI_	103	192	1	96	48	4
NMSTR	103	192	3
NMSI_	103	192	3	96	48	7
NMTAP	104	0	6
NMTAP	104	48	5
NMTAP	104	96	4
NMTAP	104	144	3
NMTAP	104	192	2
NMTAP	104	240	1
NMSTR	104	288	0
BRSF_	104	288	0	96	48	4

T_REC_TAP	288
T_REC_BRK	6
T_REC_XTP	0
T_REC_BXX	6
T_REC_HLD	46
T_REC_XHO	0
T_REC_BHO	0
T_REC_BXH	0
T_REC_STR	63
T_REC_BST	2
T_REC_XST	0
T_REC_XBS	0
T_REC_TTP	35
T_REC_THO	4
T_REC_SLD	66
T_REC_BSL	5
T_REC_ALL	521
T_NUM_TAP	386
T_NUM_BRK	19
T_NUM_HLD	50
T_NUM_SLD	66
T_NUM_ALL	521
T_JUDGE_TAP	400
T_JUDGE_HLD	253
T_JUDGE_SLD	71
T_JUDGE_ALL	724
TTM_EACHPAIRS	107
TTM_SCR_TAP	193000
TTM_SCR_BRK	49400
TTM_SCR_HLD	50000
TTM_SCR_SLD	99000
TTM_SCR_ALL	391400
TTM_SCR_S	377850
TTM_SCR_SS	389500
TTM_RAT_ACV	10048

