VERSION	0.00.00	1.04.00
FES_MODE	0
BPM_DEF	180.000	180.000	180.000	180.000
MET_DEF	4	4
RESOLUTION	384
CLK_DEF	384
COMPATIBLE_CODE	MA2

BPM	0	0	180.000
MET	0	0	4	4
MET	61	0	4	3
MET	62	192	4	2
MET	63	0	4	4
MET	93	0	4	3
MET	93	288	4	4
MET	94	288	4	3
MET	95	192	4	5
MET	96	288	4	3
MET	97	192	4	4
MET	98	192	4	3

NMSTR	1	0	5
NMSXL	1	0	5	96	216	4
CNSI_	1	312	4	0	72	2
BRTAP	2	96	1
NMSTR	3	0	2
NMSI_	3	0	2	96	72	4
CNSXL	3	168	4	0	216	3
NMTTP	4	192	1	B	0	M1
NMTTP	4	192	1	A	0	M1
NMTTP	4	192	2	E	0	M1
NMTTP	4	192	5	B	0	M1
NMTTP	4	192	5	A	0	M1
NMTTP	4	192	6	E	0	M1
NMHLD	5	0	2	384
NMTTP	5	96	5	D	0	M1
NMTTP	5	108	4	A	0	M1
NMTTP	5	120	4	D	0	M1
NMTTP	5	132	3	A	0	M1
NMTTP	5	144	3	D	0	M1
NMTAP	6	192	3
NMTAP	6	192	4
NMTAP	6	336	5
NMTAP	6	360	4
NMHLD	7	0	6	96
NMSTR	7	96	5
NMSCL	7	96	5	96	48	2
NMTAP	7	336	3
NMTAP	7	336	4
NMTAP	8	0	2
NMTAP	8	48	5
NMTAP	8	96	3
NMTAP	8	96	4
NMTAP	8	144	2
NMTAP	8	192	5
NMTAP	8	240	3
NMTAP	8	240	4
NMSTR	8	288	1
NMSUR	8	288	1	96	72	5
NMTAP	8	288	5
NMTAP	9	0	7
NMTAP	9	96	6
NMHLD	9	144	6	96
NMTAP	9	240	5
NMTAP	9	288	4
NMTAP	9	288	5
NMHLD	9	336	3	96
NMTAP	10	48	4
NMTAP	10	96	4
NMTAP	10	96	5
NMHLD	10	144	6	96
NMTAP	10	240	7
NMSTR	10	288	5
NMSUR	10	288	5	96	72	1
NMTAP	10	288	7
NMTAP	11	0	3
NMTAP	11	96	2
NMHLD	11	144	2	96
NMTAP	11	240	1
NMTAP	11	288	0
NMTAP	11	288	1
NMHLD	11	336	7	96
NMTAP	12	48	0
NMTAP	12	96	0
NMTAP	12	96	1
NMHLD	12	144	2	96
NMTAP	12	240	3
NMSTR	12	288	1
NMSLR	12	288	1	96	96	5
NMTAP	12	288	3
NMTAP	13	0	7
NMTAP	13	96	6
NMHLD	13	144	6	96
NMTAP	13	240	7
NMTAP	13	288	0
NMTAP	13	288	7
NMHLD	13	336	1	96
NMTAP	14	48	3
NMTAP	14	96	1
NMTAP	14	96	3
NMTAP	14	192	5
NMTAP	14	240	5
NMTAP	14	288	4
NMSTR	14	288	6
NMSI_	14	288	6	96	96	2
NMHLD	15	0	2	240
CNSI_	15	96	2	0	72	5
CNSI_	15	168	5	0	72	3
NMTAP	15	336	1
NMTAP	15	336	3
NMTAP	16	0	1
NMTAP	16	0	3
NMTAP	16	48	0
NMTAP	16	96	7
NMTAP	16	144	3
NMTAP	16	144	6
NMTAP	16	240	2
NMTAP	16	240	4
NMTAP	16	288	2
NMTAP	16	288	4
NMHLD	17	0	6	72
NMHLD	17	72	4	72
NMHLD	17	144	5	96
NMTAP	17	240	3
NMTAP	17	288	3
NMTAP	17	336	4
NMHLD	18	0	1	72
NMHLD	18	72	3	72
NMHLD	18	144	2	96
NMTAP	18	240	5
NMTAP	18	288	5
NMTAP	18	336	4
NMHLD	19	0	6	72
NMHLD	19	72	5	72
NMHLD	19	144	4	96
NMTAP	19	240	3
NMTAP	19	288	3
NMTAP	19	336	2
NMHLD	20	0	1	72
NMHLD	20	72	2	72
NMSTR	20	144	3
NMSXL	20	144	3	96	96	4
NMHLD	20	192	3	96
NMHLD	21	0	2	72
NMHLD	21	72	3	72
NMHLD	21	144	1	96
NMTAP	21	240	0
NMTAP	21	288	7
NMTAP	21	336	6
NMHLD	22	0	6	72
NMHLD	22	72	7	72
NMHLD	22	144	0	96
NMTAP	22	240	1
NMTAP	22	288	1
NMTAP	22	288	7
NMTAP	22	336	6
NMHLD	23	0	5	72
NMHLD	23	72	4	72
NMHLD	23	144	3	96
NMTAP	23	240	2
NMTAP	23	288	1
NMTAP	23	288	3
NMTAP	23	336	4
NMHLD	24	0	3	72
NMTAP	24	0	5
NMHLD	24	72	2	72
NMTAP	24	144	1
NMHLD	24	192	1	192
NMTTP	24	288	3	D	0	M1
NMTTP	24	304	4	D	0	M1
NMTTP	24	320	5	D	0	M1
NMTTP	24	336	6	D	0	M1
NMTTP	24	352	7	D	0	M1
NMTTP	24	368	0	D	0	M1
EXSTR	25	0	0
NMSI_	25	0	0	96	288	6
NMTTP	26	0	1	A	0	M1
CNSI_	26	0	6	0	384	3
NMTTP	26	192	0	C	0	M1
CNSI_	27	0	3	0	576	0
NMTTP	27	0	5	A	0	M1
NMTAP	29	0	1
NMSTR	29	0	3
NMSCR	29	0	3	96	1056	1
NMTTP	30	0	6	A	0	M1
NMTTP	30	192	0	C	0	M1
NMTTP	31	0	2	A	0	M1
NMSTR	32	288	2
NMSI_	32	288	2	96	48	0
NMTAP	32	312	4
NMTAP	32	336	3
NMTTP	33	0	2	A	1	M1
NMHLD	33	96	4	48
NMHLD	33	192	4	48
NMTAP	33	288	2
NMHLD	33	288	4	48
NMTAP	33	336	2
NMHLD	34	0	4	48
NMTAP	34	96	1
NMHLD	34	96	4	48
NMTAP	34	192	0
NMHLD	34	192	4	48
NMTAP	34	240	0
NMHLD	34	288	4	48
NMTAP	34	336	7
NMTAP	35	0	4
NMSTR	35	0	7
NMSI_	35	0	7	96	48	2
NMTAP	35	96	3
NMSTR	35	144	3
NMSI_	35	144	3	96	48	6
NMSTR	35	240	1
NMSI_	35	240	1	96	48	4
NMTAP	35	336	7
NMTAP	36	48	3
NMTAP	36	48	6
NMSTR	36	96	3
BRSCL	36	96	3	96	48	0
NMHLD	36	96	6	192
NMTAP	36	288	7
BRTAP	37	0	1
NMTAP	37	0	3
NMTAP	37	48	2
NMTAP	37	96	2
NMTAP	37	144	4
BRTAP	37	144	6
NMTAP	37	192	5
NMTAP	37	240	5
BRTAP	37	288	0
NMTAP	37	288	3
NMTAP	37	336	2
NMTAP	38	0	2
NMTAP	38	48	4
BRTAP	38	48	7
NMTAP	38	96	5
NMTAP	38	144	5
BRTAP	38	192	1
NMTAP	38	192	3
NMTAP	38	288	0
BRTAP	38	288	7
NMTAP	38	336	6
NMTAP	38	360	6
BRSTR	39	0	4
NMSCL	39	0	4	96	192	6
NMTAP	39	96	5
NMTAP	39	144	5
NMTAP	39	192	4
NMTAP	39	240	4
NMTAP	39	288	3
NMSTR	39	336	3
NMSF_	39	336	3	96	144	7
NMTAP	40	288	1
NMSTR	40	288	5
BRSI_	40	288	5	96	48	1
NMSTR	41	0	0
NMSI_	41	0	0	96	48	4
NMTTP	41	0	5	A	1	M1
NMTAP	41	96	0
NMSTR	41	96	6
NMSI_	41	96	6	96	48	2
NMHLD	41	192	3	96
NMTAP	41	192	6
NMTAP	41	288	0
NMSTR	41	336	0
NMSI_	41	336	0	96	48	6
NMSTR	42	96	2
NMSCL	42	96	2	96	96	7
CNSLL	42	96	6	0	96	2
NMSTR	42	192	7
NMSCL	42	192	7	96	96	4
NMTAP	42	288	4
NMSTR	43	0	1
NMSI_	43	0	1	96	48	3
NMSTR	43	48	3
NMSI_	43	48	3	96	48	6
NMTAP	43	96	1
NMHLD	43	192	7	96
NMTAP	43	288	5
NMSTR	43	336	5
NMSI_	43	336	5	96	48	3
CNSLL	44	96	3	0	96	7
NMSTR	44	96	7
NMSCL	44	96	7	96	96	4
NMSTR	44	192	4
NMSCL	44	192	4	96	96	1
NMTAP	44	288	1
NMHLD	45	0	6	96
NMSTR	45	96	0
NMSI_	45	96	0	96	48	5
NMTAP	45	144	0
NMHLD	45	192	4	96
NMTAP	45	288	7
NMSTR	45	336	7
NMSI_	45	336	7	96	48	1
CNSLR	46	96	1	0	96	5
NMSTR	46	96	5
NMSCR	46	96	5	96	96	0
NMSTR	46	192	0
NMSCR	46	192	0	96	96	3
NMHLD	46	288	4	192
NMTTP	47	0	4	D	0	M1
NMTTP	47	24	5	D	0	M1
NMTTP	47	48	6	D	0	M1
NMTTP	47	72	7	D	0	M1
NMTTP	47	96	0	D	0	M1
NMTTP	47	120	1	D	0	M1
NMTTP	47	144	2	D	0	M1
NMTTP	47	168	3	D	0	M1
NMTTP	47	192	4	D	0	M1
NMSTR	47	240	5
NMSUL	47	240	5	96	48	1
NMSV_	47	240	5	96	48	0
NMTAP	47	336	5
NMSTR	48	48	7
NMSUL	48	48	7	96	48	3
NMSV_	48	48	7	96	48	2
NMTAP	48	144	7
EXTAP	48	240	1
EXTAP	48	240	4
NMSTR	48	288	1
NMSI_	48	288	1	96	48	4
NMTAP	48	288	4
NMTAP	49	0	1
NMHLD	49	0	5	96
NMTAP	49	96	3
NMSTR	49	144	3
NMSI_	49	144	3	96	48	7
NMTAP	49	240	2
NMSTR	49	240	3
NMSCR	49	240	3	96	144	1
NMTTP	49	336	5	B	1	M1
NMTTP	49	336	5	E	0	M1
NMTTP	49	336	5	A	0	M1
NMTTP	49	336	6	E	0	M1
NMTAP	50	144	4
NMTAP	50	192	4
NMTAP	50	240	3
NMTAP	50	288	2
NMSTR	50	288	5
NMSI_	50	288	5	96	48	0
NMHLD	51	0	1	96
NMTAP	51	0	5
NMTAP	51	96	7
NMSTR	51	144	7
NMSI_	51	144	7	96	48	3
NMTAP	51	240	6
NMSTR	51	240	7
NMSCR	51	240	7	96	144	5
NMTTP	51	336	1	B	1	M1
NMTTP	51	336	1	E	0	M1
NMTTP	51	336	1	A	0	M1
NMTTP	51	336	2	E	0	M1
NMHLD	52	144	0	96
NMTAP	52	240	3
NMTAP	52	288	6
NMTAP	52	312	4
NMTAP	52	336	6
NMSTR	53	0	5
NMSCL	53	0	5	96	48	2
NMTAP	53	96	2
NMSTR	53	192	1
NMSCL	53	192	1	96	48	6
NMTAP	53	288	5
NMSTR	53	336	5
NMSI_	53	336	5	96	48	1
NMTAP	54	48	0
NMTAP	54	96	0
NMTAP	54	192	2
NMTAP	54	192	3
NMTAP	54	240	2
NMTAP	54	240	3
NMTAP	54	336	4
NMTAP	54	336	5
NMSTR	55	0	6
NMSI_	55	0	6	96	48	2
NMTAP	55	0	7
NMTAP	55	96	3
NMSTR	55	144	1
NMSI_	55	144	1	96	48	4
NMSTR	55	240	0
BRSCL	55	240	0	96	96	2
NMTAP	55	240	1
BRTAP	55	336	0
NMTTP	55	336	0	C	1	M1
NMSTR	56	96	7
NMSCR	56	96	7	96	48	2
NMSTR	56	192	7
NMSCL	56	192	7	96	48	4
NMSTR	56	288	7
NMSUL	56	288	7	96	48	2
NMSUR	56	288	7	96	48	4
BRTAP	57	0	7
NMHLD	57	192	1	48
NMHLD	57	192	3	48
NMHLD	57	264	6	48
NMHLD	57	264	7	48
NMTAP	57	336	4
NMTAP	57	336	5
NMHLD	58	192	4	48
NMHLD	58	192	6	48
NMHLD	58	264	0	48
NMHLD	58	264	7	48
NMTAP	58	336	1
NMTAP	58	336	2
NMTTP	59	64	2	E	0	M1
NMTTP	59	128	4	E	0	M1
NMTTP	59	192	3	E	0	M1
NMTTP	59	256	6	E	0	M1
NMTTP	59	320	1	E	0	M1
NMTAP	60	0	5
NMTAP	60	32	5
NMTAP	60	64	7
NMTAP	60	96	7
NMTAP	60	128	6
NMTAP	60	160	6
NMTAP	60	192	2
NMTAP	60	224	2
NMTAP	60	256	0
NMTAP	60	288	0
NMTAP	60	320	1
NMTAP	60	352	1
NMSTR	61	0	3
NMSSR	61	0	3	96	192	7
CNSSR	61	288	7	0	192	3
NMTAP	62	192	1
NMTAP	62	224	3
NMTAP	62	256	2
NMTAP	62	288	6
NMTAP	62	320	4
NMTAP	62	352	5
NMHLD	63	0	0	48
NMHLD	63	72	1	48
NMHLD	63	72	7	48
NMTAP	63	144	2
NMTAP	63	144	6
NMTAP	63	192	3
NMTAP	63	216	5
NMTAP	63	240	2
NMTAP	63	264	4
NMTAP	63	288	1
NMTAP	63	312	3
NMTAP	63	336	1
NMHLD	64	0	6	48
NMHLD	64	0	7	48
NMHLD	64	72	6	48
NMHLD	64	72	7	48
NMHLD	64	144	0	48
NMHLD	64	144	5	48
NMTAP	64	240	1
NMTAP	64	240	4
NMTAP	64	256	2
NMTAP	64	256	5
NMTAP	64	272	3
NMTAP	64	272	6
NMHLD	64	288	4	96
NMTAP	64	288	7
NMSTR	65	0	0
BRSF_	65	0	0	96	48	4
BRTAP	65	96	0
NMSTR	65	192	2
NMSI_	65	192	2	96	48	7
NMTAP	65	240	2
NMSTR	65	288	6
NMSV_	65	288	6	96	48	3
NMTAP	65	336	6
NMSTR	66	0	0
NMSCL	66	0	0	96	48	5
NMTAP	66	48	0
EXSTR	66	96	3
NMSUR	66	96	3	96	120	6
NMTAP	66	144	3
NMTAP	66	192	7
NMTAP	66	240	0
NMTAP	66	288	1
NMTAP	66	336	2
NMSTR	67	0	3
NMSI_	67	0	3	96	48	7
NMTAP	67	48	3
NMSTR	67	96	4
NMSI_	67	96	4	96	48	0
NMTAP	67	144	4
NMSTR	67	192	5
NMSI_	67	192	5	96	48	1
NMTAP	67	240	5
NMSTR	67	288	6
NMSI_	67	288	6	96	48	2
NMTAP	67	336	6
NMTAP	68	0	7
NMTAP	68	48	7
NMTAP	68	96	0
NMTAP	68	96	6
NMTAP	68	144	0
NMTAP	68	144	6
NMTAP	68	192	1
NMTAP	68	204	2
NMTAP	68	216	3
NMTAP	68	228	4
NMTAP	68	240	5
NMTAP	68	252	6
NMTAP	68	264	7
NMTAP	68	276	0
NMTAP	68	288	1
BRTAP	68	288	5
NMTAP	69	0	5
NMTAP	69	48	5
NMTAP	69	96	5
NMTAP	69	144	2
NMTAP	69	144	4
NMTAP	69	192	2
NMTAP	69	240	2
NMTAP	69	288	0
NMTAP	69	288	1
NMTAP	69	336	7
NMTAP	70	0	6
NMTAP	70	48	3
NMTAP	70	48	5
NMTAP	70	96	2
NMTAP	70	144	1
NMSTR	70	192	0
NMSI_	70	192	0	96	48	4
NMSTR	70	192	3
NMSI_	70	192	3	96	48	6
NMTAP	70	288	0
NMTAP	70	288	3
BRTAP	71	0	7
NMTAP	71	48	2
NMTAP	71	72	3
NMTAP	71	96	2
BRTAP	71	144	0
NMTAP	71	192	5
NMTAP	71	216	4
NMTAP	71	240	5
NMTAP	71	288	6
NMTAP	71	288	7
BRTAP	71	336	1
BRTAP	71	336	5
NMTAP	72	48	2
NMTAP	72	48	4
NMTAP	72	96	1
NMTAP	72	120	2
NMTAP	72	144	3
NMTAP	72	168	4
NMTAP	72	192	0
NMTAP	72	216	7
NMTAP	72	240	6
NMTAP	72	264	5
NMTAP	72	288	3
NMTAP	72	312	2
NMTAP	72	336	1
NMTAP	72	360	0
NMTTP	73	0	0	C	1	M1
NMSTR	73	0	7
NMSI_	73	0	7	96	288	1
NMSI_	73	0	7	96	288	5
CNSI_	74	0	1	0	384	4
CNSI_	74	0	5	0	384	2
CNSI_	75	0	2	0	384	7
CNSI_	75	0	4	0	384	7
NMHLD	77	0	3	1152
NMTTP	78	0	5	A	0	M1
NMTTP	78	192	0	C	0	M1
NMTTP	79	0	1	A	0	M1
NMTTP	80	96	3	D	0	M1
NMTTP	80	192	4	D	0	M1
NMTTP	80	288	5	D	0	M1
NMTHO	81	0	0	768	C	1	M1
NMTTP	81	0	6	D	0	M1
NMTTP	82	0	0	E	0	M1
NMTTP	82	0	7	B	0	M1
NMTTP	83	0	1	B	0	M1
NMTTP	83	0	2	E	0	M1
NMTTP	83	0	6	B	0	M1
NMTTP	83	0	6	E	0	M1
EXTAP	83	288	0
EXTAP	83	288	7
NMHLD	84	0	1	32
NMHLD	84	0	3	32
NMHLD	84	64	2	32
NMHLD	84	64	4	32
NMHLD	84	128	3	32
NMHLD	84	128	5	32
NMHLD	84	192	6	32
NMHLD	84	192	7	32
NMHLD	84	256	4	32
NMHLD	84	256	5	32
NMHLD	84	320	2	32
NMHLD	84	320	3	32
NMTAP	85	0	0
NMSTR	85	0	1
NMSI_	85	0	1	96	48	5
NMTTP	85	96	1	A	1	M1
NMTAP	85	96	7
NMTAP	85	144	7
NMSTR	85	192	4
NMSLL	85	192	4	96	96	6
NMSTR	85	288	6
NMSCR	85	288	6	96	144	4
NMHLD	85	336	5	144
NMTAP	86	144	6
NMTAP	86	192	6
NMTAP	86	240	0
NMTAP	86	288	1
NMTAP	86	288	7
NMTAP	87	0	2
NMSTR	87	0	6
NMSI_	87	0	6	96	48	2
NMTAP	87	96	0
NMTAP	87	144	0
NMSTR	87	192	3
NMSLR	87	192	3	96	96	1
NMSTR	87	288	1
NMSCL	87	288	1	96	144	3
NMHLD	87	336	2	144
NMTAP	88	240	0
NMTAP	88	288	0
NMTAP	88	288	7
NMTAP	89	0	1
NMTAP	89	0	6
NMTAP	89	48	5
NMTAP	89	72	4
NMTAP	89	96	5
NMTAP	89	120	4
NMTAP	89	144	6
NMTAP	89	192	2
NMTAP	89	216	3
NMTAP	89	240	2
NMTAP	89	264	3
NMTAP	89	288	1
NMTAP	89	336	0
NMTAP	89	336	4
NMTAP	90	48	6
NMTAP	90	72	7
NMTAP	90	96	6
NMTAP	90	144	1
NMTAP	90	168	0
NMTAP	90	192	1
NMTAP	90	240	5
NMTAP	90	264	4
NMTAP	90	288	5
NMTAP	90	336	1
NMHLD	91	0	2	48
NMHLD	91	0	3	48
NMHLD	91	72	1	48
NMHLD	91	72	4	48
NMTAP	91	144	0
NMTAP	91	144	5
NMTAP	91	192	6
NMTAP	91	192	7
NMSTR	91	240	0
NMSCR	91	240	0	96	48	3
NMSTR	91	240	5
NMSCR	91	240	5	96	48	0
NMTAP	91	336	0
NMTAP	91	336	5
NMSTR	92	96	4
NMSI_	92	96	4	96	48	0
NMSTR	92	192	4
NMSCL	92	192	4	96	48	1
NMSCR	92	192	4	96	48	7
NMSTR	92	288	4
NMSF_	92	288	4	96	48	0
BRTAP	93	0	4
NMTAP	93	144	3
NMTAP	93	144	5
NMSTR	93	192	2
NMSI_	93	192	2	96	48	4
NMTAP	93	240	1
NMTAP	93	288	7
NMSTR	93	336	6
NMSI_	93	336	6	96	48	0
NMTAP	94	0	5
NMTAP	94	48	1
NMSTR	94	96	2
NMSV_	94	96	2	96	48	7
NMTAP	94	144	3
NMTAP	94	192	4
NMTAP	94	288	0
NMTAP	94	288	6
NMSTR	94	336	5
NMSV_	94	336	5	96	48	7
NMTAP	95	0	4
NMTAP	95	48	1
NMSTR	95	96	2
NMSV_	95	96	2	96	48	0
NMTAP	95	144	3
NMTAP	95	192	6
NMTAP	95	240	5
NMTAP	95	288	4
NMTAP	95	336	1
NMTAP	95	336	3
NMTAP	96	0	6
NMSTR	96	0	7
NMSI_	96	0	7	96	48	1
NMSV_	96	0	7	96	48	2
NMSTR	96	96	7
NMSI_	96	96	7	96	48	5
NMSV_	96	96	7	96	48	4
NMTAP	96	192	7
EXTAP	96	288	2
BXTAP	96	288	6
NMTAP	96	336	2
NMTAP	96	360	3
NMTAP	97	0	2
NMTAP	97	48	2
BRTAP	97	48	7
NMTAP	97	96	2
NMTAP	97	120	3
NMTAP	97	144	2
NMTAP	97	192	2
BRTAP	97	192	5
NMTAP	97	240	2
NMTAP	97	264	3
NMTAP	97	288	2
BRTAP	97	336	0
NMTAP	97	336	2
NMTAP	98	0	2
NMTAP	98	24	3
NMTAP	98	48	2
BRTAP	98	96	1
NMTAP	98	96	4
BRTAP	98	192	0
NMTAP	98	192	4
NMTAP	98	240	4
NMTAP	98	264	3
NMTAP	98	288	4
NMTAP	98	336	4
NMTTP	98	336	6	B	0	M1
NMTTP	98	336	6	A	0	M1
NMTTP	98	336	7	E	1	M1
NMTAP	99	0	4
NMTAP	99	24	3
NMTAP	99	48	4
NMTTP	99	96	1	B	0	M1
NMTTP	99	96	1	A	0	M1
NMTTP	99	96	2	E	1	M1
NMTAP	99	96	4
NMTAP	99	144	4
NMTAP	99	168	3
NMTAP	99	192	4
NMTAP	99	240	4
NMTTP	99	240	5	B	0	M1
NMTTP	99	240	5	A	1	M1
NMTTP	99	240	6	E	0	M1
NMTAP	99	288	4
NMTAP	99	312	3
NMTAP	99	336	4
BRSTR	100	0	0
BRSI_	100	0	0	96	48	4
NMTAP	100	0	4
BRSTR	100	48	6
BRSI_	100	48	6	96	48	2
BRTAP	100	96	0
BRTAP	100	144	6

T_REC_TAP	357
T_REC_BRK	23
T_REC_XTP	5
T_REC_BXX	1
T_REC_HLD	88
T_REC_XHO	0
T_REC_BHO	0
T_REC_BXH	0
T_REC_STR	77
T_REC_BST	3
T_REC_XST	2
T_REC_XBS	0
T_REC_TTP	72
T_REC_THO	1
T_REC_SLD	83
T_REC_BSL	6
T_REC_ALL	718
T_NUM_TAP	513
T_NUM_BRK	33
T_NUM_HLD	89
T_NUM_SLD	83
T_NUM_ALL	718
T_JUDGE_TAP	540
T_JUDGE_HLD	191
T_JUDGE_SLD	89
T_JUDGE_ALL	820
TTM_EACHPAIRS	106
TTM_SCR_TAP	256500
TTM_SCR_BRK	85800
TTM_SCR_HLD	89000
TTM_SCR_SLD	124500
TTM_SCR_ALL	555800
TTM_SCR_S	535950
TTM_SCR_SS	552500
TTM_RAT_ACV	10059

