VERSION	0.00.00	1.04.00
FES_MODE	0
BPM_DEF	180.000	180.000	180.000	180.000
MET_DEF	4	4
RESOLUTION	384
CLK_DEF	384
COMPATIBLE_CODE	MA2

BPM	0	0	180.000
MET	0	0	4	4
MET	61	0	4	3
MET	62	192	4	2
MET	63	0	4	4
MET	93	0	4	3
MET	93	288	4	4
MET	94	288	4	3
MET	95	192	4	5
MET	96	288	4	3
MET	97	192	4	4
MET	98	192	4	3
MET	100	0	4	4

NMHLD	1	0	4	96
NMHLD	1	192	3	288
NMHLD	1	336	5	144
NMTTP	2	192	6	E	0	M1
NMTTP	2	288	4	B	0	M1
NMHLD	3	0	3	96
NMHLD	3	192	4	288
NMHLD	3	336	2	144
NMTTP	4	192	2	E	0	M1
NMTTP	4	288	3	B	0	M1
NMHLD	5	0	5	96
NMTAP	5	96	4
NMTAP	5	192	2
NMTAP	5	192	3
NMHLD	5	288	2	192
NMHLD	5	288	3	192
NMSTR	6	192	1
NMSI_	6	192	1	96	96	4
NMTAP	7	0	5
NMHLD	7	96	6	192
NMHLD	7	192	4	96
BRTAP	7	336	4
BRTAP	7	336	6
NMTAP	8	48	1
NMTAP	8	48	3
NMTAP	8	96	1
NMTAP	8	96	3
NMTAP	8	192	0
NMTAP	8	192	6
NMTAP	8	240	0
NMTAP	8	240	6
NMTAP	8	288	1
NMTAP	8	288	5
NMHLD	9	0	2	96
NMTAP	9	96	3
NMTAP	9	144	3
NMTAP	9	240	1
NMTAP	9	288	1
NMTAP	10	0	2
NMTAP	10	0	3
NMTAP	10	96	1
NMTAP	10	192	7
NMTAP	10	288	0
NMTAP	10	288	6
NMHLD	11	0	5	96
NMTAP	11	96	4
NMTAP	11	144	4
NMTAP	11	240	6
NMTAP	11	288	6
NMTAP	12	0	4
NMTAP	12	0	5
NMTAP	12	96	6
NMTAP	12	192	0
NMTAP	12	288	1
NMTAP	12	288	7
NMHLD	13	0	2	192
NMTAP	13	0	6
NMTAP	13	96	3
NMTAP	13	192	4
NMTAP	13	288	0
NMTAP	13	288	6
EXTAP	13	336	0
EXTAP	13	336	6
NMTAP	14	48	2
NMTAP	14	96	2
NMTAP	14	192	4
NMTAP	14	192	5
EXSTR	14	288	7
NMSI_	14	288	7	96	48	4
EXSTR	15	96	2
NMSI_	15	96	2	96	48	7
EXHLD	15	288	6	96
NMTAP	16	0	7
NMTAP	16	96	0
NMTAP	16	96	5
NMTAP	16	192	2
NMTAP	16	240	2
EXTAP	16	288	3
NMTAP	17	0	1
NMTAP	17	0	4
NMTAP	17	96	3
NMTAP	17	96	5
NMSTR	17	192	7
NMSCL	17	192	7	96	48	4
NMSTR	18	0	1
NMSI_	18	0	1	96	48	5
NMTAP	18	192	6
NMTAP	18	240	6
NMTAP	18	288	4
NMTAP	19	0	3
NMTAP	19	0	5
NMTAP	19	96	1
NMTAP	19	96	4
NMSTR	19	192	0
NMSCR	19	192	0	96	48	3
NMSTR	20	0	6
NMSI_	20	0	6	96	48	2
NMTAP	20	192	0
NMTAP	20	288	7
NMTAP	21	0	1
NMHLD	21	0	5	192
NMTAP	21	96	4
NMTAP	21	192	3
NMTAP	21	288	1
NMTAP	21	288	7
EXTAP	21	336	1
EXTAP	21	336	7
NMTAP	22	48	5
NMTAP	22	96	5
NMTAP	22	192	2
NMTAP	22	192	3
NMSTR	22	288	0
NMSCR	22	288	0	96	48	3
NMSTR	23	96	5
NMSCR	23	96	5	96	48	0
NMHLD	23	288	1	96
NMHLD	24	0	3	96
NMHLD	24	96	4	96
NMHLD	24	192	6	96
NMSTR	24	288	1
NMSXR	24	288	1	96	672	4
NMHLD	27	0	5	768
NMTTP	28	0	4	E	0	M1
NMTTP	28	192	2	B	0	M1
NMHLD	29	0	1	768
NMTTP	30	0	4	E	0	M1
NMTTP	30	192	5	B	0	M1
NMSTR	31	0	7
NMSCL	31	0	7	96	288	2
NMTAP	32	96	1
NMTAP	32	192	3
EXTAP	32	288	4
EXTAP	32	288	5
BRTAP	33	0	3
BRTAP	33	0	7
NMTAP	33	96	2
NMTAP	33	192	4
NMTAP	33	288	1
NMTAP	33	336	1
NMTAP	34	0	0
NMTAP	34	96	6
NMTAP	34	144	6
NMTAP	34	192	7
NMTAP	34	288	2
NMTAP	34	288	3
NMTAP	35	0	1
NMTAP	35	0	4
NMTAP	35	96	7
NMSTR	35	144	7
NMSI_	35	144	7	96	48	3
NMSTR	35	240	1
NMSCR	35	240	1	96	48	4
NMTAP	35	336	5
NMTAP	36	48	7
BXTAP	36	96	7
EXTAP	36	288	4
EXTAP	36	288	5
NMTAP	37	0	2
NMTAP	37	48	2
NMTAP	37	144	0
NMTAP	37	192	0
NMTAP	37	288	6
NMTAP	37	336	6
NMTAP	38	48	4
NMTAP	38	96	4
NMTAP	38	192	2
NMTAP	38	192	3
NMTAP	38	288	4
NMTAP	38	288	6
NMHLD	39	0	0	96
NMHLD	39	0	1	96
NMTAP	39	192	6
NMTAP	39	192	7
NMTAP	39	240	6
NMTAP	39	240	7
NMTAP	39	288	6
NMTAP	39	288	7
BRTAP	39	336	0
BRTAP	39	336	5
NMSTR	40	288	2
BRSCL	40	288	2	96	288	4
NMTAP	40	288	4
NMTTP	41	0	0	C	1	M1
NMTTP	41	0	5	B	0	M1
NMTTP	41	0	6	B	0	M1
NMSTR	42	0	6
NMSI_	42	0	6	96	48	0
NMSTR	42	96	1
NMSI_	42	96	1	96	48	3
NMSTR	42	192	4
NMSI_	42	192	4	96	48	6
NMSTR	42	288	0
NMSI_	42	288	0	96	48	4
NMTAP	43	0	7
NMTAP	43	96	3
NMTAP	43	96	5
NMTAP	43	192	2
NMTAP	43	240	2
NMTAP	43	288	3
NMTAP	44	0	1
NMTAP	44	0	5
NMSTR	44	96	0
NMSV_	44	96	0	96	48	3
NMSTR	44	96	6
NMSV_	44	96	6	96	48	3
EXTAP	44	288	1
EXTAP	44	288	5
NMHLD	45	0	7	96
NMHLD	45	96	5	96
NMTAP	45	192	3
NMTAP	45	288	2
NMTAP	45	336	2
NMTAP	46	0	3
NMHLD	46	96	1	96
NMHLD	46	192	7	96
NMSTR	46	288	0
NMSCR	46	288	0	96	48	3
NMSTR	47	96	6
NMSI_	47	96	6	96	48	2
NMTAP	47	288	1
NMTAP	47	336	0
NMTAP	47	336	1
NMTAP	48	48	6
NMTAP	48	96	6
NMTAP	48	96	7
EXSTR	48	192	0
NMSI_	48	192	0	96	48	5
EXSTR	48	192	1
NMSI_	48	192	1	96	48	4
NMTAP	49	0	7
NMTAP	49	96	4
NMTAP	49	96	7
NMTAP	49	192	6
NMTAP	49	288	4
NMTAP	49	288	6
NMTAP	50	0	5
NMTAP	50	96	4
NMTAP	50	96	5
NMSTR	50	192	6
NMSI_	50	192	6	96	48	3
NMTAP	51	0	2
NMTAP	51	96	2
NMTAP	51	96	3
NMTAP	51	192	1
NMTAP	51	288	1
NMTAP	51	288	3
NMTAP	52	0	0
NMTAP	52	96	0
NMTAP	52	96	3
NMSTR	52	192	1
NMSI_	52	192	1	96	48	4
NMTAP	53	0	5
NMTAP	53	96	4
NMTAP	53	96	5
NMTAP	53	192	3
NMTAP	53	192	6
NMTAP	53	288	2
NMTAP	53	336	2
NMTAP	54	0	3
NMTAP	54	96	1
NMTAP	54	96	4
NMTAP	54	192	6
NMTAP	54	240	6
NMTAP	54	288	7
NMTAP	55	0	3
NMTAP	55	0	5
NMTAP	55	96	0
NMTAP	55	96	1
NMSTR	55	144	0
NMSI_	55	144	0	96	48	4
NMSTR	55	144	1
NMSI_	55	144	1	96	48	3
NMSTR	55	336	6
NMSI_	55	336	6	96	48	4
NMSTR	55	336	7
NMSI_	55	336	7	96	48	3
EXTAP	56	192	0
EXTAP	56	192	1
EXTAP	56	288	2
EXTAP	56	288	3
BRTAP	57	0	1
BRTAP	57	0	5
NMTAP	57	192	6
NMTAP	57	192	7
NMTAP	57	264	6
NMTAP	57	264	7
EXTAP	57	336	0
EXTAP	57	336	5
NMTAP	58	192	0
NMTAP	58	192	1
NMTAP	58	264	0
NMTAP	58	264	1
EXSTR	58	336	2
NMSUR	58	336	2	96	240	4
EXTAP	58	336	7
NMHLD	60	0	6	32
NMHLD	60	64	5	32
NMHLD	60	128	4	32
NMHLD	60	192	3	32
NMHLD	60	256	2	32
NMHLD	60	320	1	32
EXHLD	61	0	7	576
EXTAP	62	192	0
EXTAP	62	224	1
EXTAP	62	256	2
EXTAP	62	288	6
EXTAP	62	320	5
EXTAP	62	352	4
EXTAP	63	0	2
EXTAP	63	0	3
EXTAP	63	72	2
EXTAP	63	72	3
BXTAP	63	144	1
BXTAP	63	144	5
EXTAP	64	0	4
EXTAP	64	0	5
EXTAP	64	72	4
EXTAP	64	72	5
BXTAP	64	144	2
BXTAP	64	144	6
NMSTR	64	288	1
NMSI_	64	288	1	96	48	4
NMSTR	64	288	5
NMSI_	64	288	5	96	48	0
BXTAP	65	96	3
BXTAP	65	96	7
NMHLD	65	192	2	96
NMTAP	65	288	3
NMHLD	66	0	5	96
NMTAP	66	96	4
NMTAP	66	192	6
NMTAP	66	240	6
NMTAP	66	288	7
NMHLD	67	0	1	96
NMTAP	67	96	3
NMTAP	67	192	1
NMTAP	67	240	1
NMTAP	67	288	0
NMHLD	68	0	6	96
NMTAP	68	96	4
NMTAP	68	192	7
NMTAP	68	240	7
NMTAP	68	288	0
NMTAP	68	336	0
EXSTR	69	0	6
NMSI_	69	0	6	96	48	2
EXSTR	69	144	1
NMSI_	69	144	1	96	48	5
EXSTR	69	288	7
NMSCL	69	288	7	96	48	4
EXSTR	70	48	0
NMSCR	70	48	0	96	48	3
EXTAP	70	192	7
NMTAP	70	288	0
NMTAP	70	288	6
NMTAP	71	0	1
NMTAP	71	0	5
NMTAP	71	96	3
NMTAP	71	144	3
NMTAP	71	240	4
NMTAP	71	240	6
BRHLD	71	336	0	144
BRHLD	71	336	1	144
NMTAP	72	192	6
NMTAP	72	192	7
NMSTR	72	288	0
NMSI_	72	288	0	96	192	5
NMTTP	73	0	0	C	1	M1
CNSI_	73	192	5	0	192	2
CNSI_	74	0	2	0	192	7
CNSCL	74	192	7	0	576	0
NMSTR	77	0	7
NMSI_	77	0	7	96	576	4
NMSTR	79	0	0
NMSI_	79	0	0	96	576	3
NMHLD	81	0	5	384
NMHLD	82	0	4	192
NMHLD	82	192	3	144
EXTAP	82	336	2
EXHLD	83	0	1	288
EXTAP	83	0	4
NMTAP	83	288	5
NMTAP	84	0	2
NMTAP	84	0	6
NMTAP	84	64	2
NMTAP	84	64	6
NMTAP	84	128	2
NMTAP	84	128	6
NMTAP	84	192	0
NMTAP	84	192	4
NMTAP	84	256	0
NMTAP	84	256	4
NMSTR	84	320	0
BRSLR	84	320	0	96	112	7
NMSTR	84	320	4
BRSLR	84	320	4	96	112	3
NMTAP	85	288	4
NMTAP	85	288	5
NMTAP	86	0	2
NMTAP	86	0	3
NMTAP	86	96	1
NMTAP	86	96	5
NMSTR	86	192	6
NMSI_	86	192	6	96	48	3
NMTAP	86	288	0
NMTAP	87	0	2
NMTAP	87	96	1
NMTAP	87	96	3
NMTAP	87	192	7
NMTAP	87	288	0
NMTAP	87	288	6
NMTAP	88	0	5
NMTAP	88	96	4
NMTAP	88	96	6
NMSTR	88	192	1
NMSI_	88	192	1	96	48	4
NMTAP	88	288	7
NMHLD	89	0	6	96
NMHLD	89	96	4	96
NMTAP	89	192	3
NMTAP	89	288	0
NMTAP	89	288	1
NMTAP	89	336	0
NMTAP	89	336	1
NMTAP	90	48	6
NMTAP	90	48	7
NMSTR	90	96	6
NMSI_	90	96	6	96	48	2
NMTAP	90	96	7
NMTAP	90	192	0
NMTAP	90	288	0
BRTAP	91	0	2
BRTAP	91	0	6
NMTAP	91	192	4
NMTAP	91	192	5
NMSTR	91	240	4
NMSI_	91	240	4	96	48	1
NMSTR	91	240	5
NMSI_	91	240	5	96	48	0
EXTAP	92	96	2
EXTAP	92	96	6
NMTAP	92	192	1
NMTAP	92	192	3
NMTAP	92	288	4
NMTAP	92	288	6
BRHLD	93	0	0	96
BRHLD	93	0	7	96
NMHLD	93	144	4	96
NMHLD	93	144	5	96
NMHLD	93	288	1	96
NMHLD	93	288	3	96
NMHLD	94	48	6	96
NMHLD	94	48	7	96
NMSTR	94	192	6
NMSI_	94	192	6	96	48	4
NMSTR	94	192	7
NMSI_	94	192	7	96	48	3
NMTAP	95	0	0
NMTAP	95	48	0
NMTAP	95	144	2
NMTAP	95	144	3
NMTAP	95	192	2
NMTAP	95	192	3
NMTAP	95	288	4
NMTAP	95	288	6
NMTAP	95	336	4
NMTAP	95	336	6
NMTAP	96	48	0
NMTAP	96	48	1
NMSTR	96	96	0
NMSI_	96	96	0	96	48	4
NMSTR	96	96	1
NMSI_	96	96	1	96	48	3
NMTAP	96	288	7
NMTAP	96	336	7
NMTAP	97	0	7
NMTAP	97	48	1
NMTAP	97	96	1
NMTAP	97	144	1
NMTAP	97	192	5
NMTAP	97	240	5
NMTAP	97	288	5
NMTAP	97	336	3
NMTAP	98	0	3
NMTAP	98	48	3
EXTAP	98	96	2
EXTAP	98	96	4
NMHLD	98	192	5	72
NMHLD	98	264	4	72
NMHLD	98	336	6	72
NMHLD	99	24	0	72
NMHLD	99	96	7	72
NMHLD	99	168	1	72
NMHLD	99	240	3	72
NMTAP	99	312	2
BRTAP	100	0	0
BRTAP	100	0	7
BRTAP	100	48	0
BRTAP	100	48	7
BRTAP	100	96	0
BRTAP	100	96	7
BXTAP	100	144	1
BXTAP	100	144	6

T_REC_TAP	260
T_REC_BRK	16
T_REC_XTP	39
T_REC_BXX	9
T_REC_HLD	55
T_REC_XHO	3
T_REC_BHO	4
T_REC_BXH	0
T_REC_STR	42
T_REC_BST	0
T_REC_XST	9
T_REC_XBS	0
T_REC_TTP	12
T_REC_THO	0
T_REC_SLD	48
T_REC_BSL	3
T_REC_ALL	500
T_NUM_TAP	362
T_NUM_BRK	32
T_NUM_HLD	58
T_NUM_SLD	48
T_NUM_ALL	500
T_JUDGE_TAP	387
T_JUDGE_HLD	191
T_JUDGE_SLD	51
T_JUDGE_ALL	629
TTM_EACHPAIRS	119
TTM_SCR_TAP	181000
TTM_SCR_BRK	83200
TTM_SCR_HLD	58000
TTM_SCR_SLD	72000
TTM_SCR_ALL	394200
TTM_SCR_S	379300
TTM_SCR_SS	391000
TTM_RAT_ACV	10081

