VERSION	0.00.00	1.04.00
FES_MODE	0
BPM_DEF	155.000	155.000	155.000	155.000
MET_DEF	4	4
RESOLUTION	384
CLK_DEF	384
COMPATIBLE_CODE	MA2

BPM	0	0	155.000
MET	0	0	4	4

NMTAP	2	0	3
NMTAP	2	0	4
NMSTR	2	96	2
NMSI_	2	96	2	96	48	4
NMTAP	2	144	2
NMTAP	2	192	4
NMTAP	2	240	5
NMHLD	2	336	4	96
NMHLD	2	336	6	96
NMTAP	3	144	0
NMTAP	3	144	7
NMTAP	3	192	0
NMHLD	3	192	7	72
NMHLD	3	264	6	72
NMTAP	3	336	5
NMTAP	4	0	4
NMTAP	4	0	5
NMSTR	4	96	5
NMSI_	4	96	5	96	48	3
NMTAP	4	144	5
NMTAP	4	192	3
NMTAP	4	240	2
NMTAP	4	336	1
NMTAP	4	336	3
NMTAP	5	48	0
NMTAP	5	96	0
NMTAP	5	144	0
NMTAP	5	168	7
BRSTR	5	192	1
NMSI_	5	192	1	96	48	4
NMSI_	5	192	1	96	48	6
BXTAP	5	288	1
NMTAP	6	0	3
NMTAP	6	0	7
NMTAP	6	48	6
NMTAP	6	96	4
NMSTR	6	144	3
NMSI_	6	144	3	96	48	0
NMTAP	6	144	5
NMSTR	6	240	6
NMSI_	6	240	6	96	48	1
NMSTR	6	336	2
NMSI_	6	336	2	96	48	5
NMSTR	7	48	7
NMSI_	7	48	7	96	48	4
NMSTR	7	144	3
BRSLL	7	144	3	96	96	5
NMSTR	7	240	5
BRSI_	7	240	5	96	48	3
NMTAP	8	0	6
NMTAP	8	48	7
NMTAP	8	96	0
NMSTR	8	144	1
NMSI_	8	144	1	96	48	6
NMTAP	8	144	3
NMSTR	8	240	4
NMSI_	8	240	4	96	48	7
NMSTR	8	336	0
NMSI_	8	336	0	96	48	3
NMTAP	9	48	7
NMTAP	9	144	7
NMTAP	9	160	6
NMTAP	9	176	5
EXTAP	9	192	3
EXTAP	9	192	4
NMTAP	9	240	0
NMTAP	9	256	1
NMTAP	9	272	2
EXTAP	9	288	3
EXTAP	9	288	4
EXTAP	10	0	0
EXTAP	10	0	7
NMTAP	10	48	1
NMTAP	10	96	3
NMSTR	10	144	2
NMSI_	10	144	2	96	48	7
NMTAP	10	144	4
NMSTR	10	240	6
NMSI_	10	240	6	96	48	3
NMSTR	10	336	1
NMSI_	10	336	1	96	48	4
NMSTR	11	48	5
NMSI_	11	48	5	96	48	0
NMSTR	11	144	2
BRSLL	11	144	2	96	96	4
NMSTR	11	240	4
BRSI_	11	240	4	96	48	2
NMTAP	12	0	6
NMTAP	12	48	7
NMTAP	12	96	0
NMSTR	12	144	1
NMSI_	12	144	1	96	48	4
NMTAP	12	144	3
NMSTR	12	240	5
NMSI_	12	240	5	96	48	0
NMSTR	12	336	2
NMSI_	12	336	2	96	48	7
NMSTR	13	48	6
NMSI_	13	48	6	96	48	3
NMSTR	13	144	0
NMSLL	13	144	0	96	72	4
NMSLR	13	144	0	96	72	4
NMTAP	13	240	0
BRHLD	14	0	3	96
BRHLD	14	0	7	96
NMTAP	14	144	2
NMTAP	14	192	2
NMTAP	14	192	6
NMTAP	14	336	4
NMTAP	14	348	3
NMTAP	14	360	4
NMTAP	14	372	3
EXTAP	15	0	5
NMTAP	15	72	5
NMTAP	15	144	5
NMTAP	15	192	4
NMTAP	15	192	6
NMHLD	16	0	3	48
NMHLD	16	96	3	48
NMTTP	16	96	4	E	0	M1
NMHLD	16	192	3	48
NMHLD	16	288	3	48
NMTTP	16	288	4	E	0	M1
NMHLD	17	0	4	48
NMTTP	17	96	4	E	0	M1
NMHLD	17	96	4	48
NMHLD	17	192	4	48
NMTTP	17	288	4	E	0	M1
NMHLD	17	288	4	48
NMSTR	18	0	2
NMSCL	18	0	2	96	48	7
NMSTR	18	96	5
NMSCR	18	96	5	96	48	0
NMSTR	18	192	3
NMSUL	18	192	3	96	48	6
NMSTR	18	288	4
NMSUR	18	288	4	96	48	1
NMSTR	19	0	2
NMSCL	19	0	2	96	48	7
NMTAP	19	96	4
NMSTR	19	144	4
NMSXL	19	144	4	96	144	3
NMHLD	20	0	2	48
NMHLD	20	96	2	48
NMTTP	20	96	3	E	0	M1
NMHLD	20	192	2	48
NMHLD	20	288	2	48
NMTTP	20	288	3	E	0	M1
NMHLD	21	0	4	48
NMTTP	21	96	4	E	0	M1
NMHLD	21	96	4	48
NMHLD	21	192	4	48
NMTTP	21	288	4	E	0	M1
NMHLD	21	288	4	48
NMSTR	22	0	0
NMSCR	22	0	0	96	192	7
NMSTR	22	96	4
NMSSL	22	96	4	96	96	0
NMTAP	23	0	1
NMTAP	23	0	5
NMTAP	23	48	3
NMSTR	23	48	6
NMSI_	23	48	6	96	48	3
NMSTR	23	96	2
NMSXL	23	96	2	96	144	7
NMSTR	23	144	6
NMSCR	23	144	6	96	96	1
EXTAP	24	0	2
EXTAP	24	0	6
NMTAP	24	96	4
NMTAP	24	96	5
NMTAP	24	192	3
NMTAP	24	192	4
NMTAP	24	288	1
NMTAP	24	288	3
NMTAP	25	0	2
NMTAP	25	0	3
NMTAP	25	96	3
NMTAP	25	96	4
NMTAP	25	192	4
NMTAP	25	192	5
NMTAP	25	288	4
NMTAP	25	288	6
EXHLD	26	0	4	96
EXHLD	26	0	5	288
NMTTP	26	192	6	A	0	M1
NMTTP	26	200	7	B	0	M1
NMTTP	26	200	7	E	0	M1
NMTTP	26	200	7	A	0	M1
NMTTP	26	200	7	D	0	M1
NMTTP	26	208	0	B	0	M1
NMTTP	26	208	0	E	0	M1
NMTTP	26	208	0	A	0	M1
NMTTP	26	208	0	D	0	M1
NMTTP	26	216	1	B	0	M1
NMTTP	26	216	1	E	0	M1
NMTTP	26	216	1	A	0	M1
NMTTP	26	216	1	D	0	M1
NMTTP	26	224	2	B	0	M1
NMTTP	26	224	2	E	0	M1
NMTTP	26	224	2	A	0	M1
NMTTP	26	224	2	D	0	M1
EXHLD	27	0	3	288
EXHLD	27	0	4	96
NMTTP	27	192	2	A	0	M1
NMTTP	27	200	1	B	0	M1
NMTTP	27	200	1	A	0	M1
NMTTP	27	200	2	E	0	M1
NMTTP	27	200	2	D	0	M1
NMTTP	27	208	0	B	0	M1
NMTTP	27	208	0	A	0	M1
NMTTP	27	208	1	E	0	M1
NMTTP	27	208	1	D	0	M1
NMTTP	27	216	0	E	0	M1
NMTTP	27	216	0	D	0	M1
NMTTP	27	216	7	B	0	M1
NMTTP	27	216	7	A	0	M1
NMTTP	27	224	6	B	0	M1
NMTTP	27	224	6	A	0	M1
NMTTP	27	224	7	E	0	M1
NMTTP	27	224	7	D	0	M1
NMTAP	28	0	5
NMTAP	28	96	3
NMTAP	28	96	4
NMTAP	28	192	2
NMTAP	28	192	3
NMTAP	28	288	1
NMTAP	28	288	2
NMTAP	29	0	2
NMTAP	29	0	3
NMTAP	29	96	3
NMTAP	29	96	4
NMTAP	29	192	4
NMTAP	29	192	5
NMTAP	29	288	3
NMTAP	29	288	5
NMSTR	30	0	3
NMSI_	30	0	3	96	48	7
NMSTR	30	0	5
NMSCL	30	0	5	96	48	2
NMTAP	30	48	3
NMTAP	30	48	5
NMSTR	30	192	2
NMSCR	30	192	2	96	48	5
NMSTR	30	192	4
NMSI_	30	192	4	96	48	0
NMTAP	30	240	2
NMTAP	30	240	4
NMSTR	31	0	3
NMSI_	31	0	3	96	48	7
NMSTR	31	0	5
NMSCL	31	0	5	96	48	2
NMTAP	31	48	3
NMTAP	31	48	5
NMSTR	31	192	2
NMSCR	31	192	2	96	48	5
NMSTR	31	192	4
NMSI_	31	192	4	96	48	0
NMTAP	31	240	2
NMTAP	31	240	4
BXHLD	32	0	3	96
BXHLD	32	0	7	96
NMHLD	32	144	4	96
NMHLD	32	144	6	96
BXHLD	32	288	0	96
BXHLD	32	288	4	96
NMHLD	33	48	1	96
NMHLD	33	48	3	96
NMTTP	33	192	7	A	0	M1
NMTTP	33	216	6	A	0	M1
NMTTP	33	240	5	A	0	M1
NMTTP	33	264	4	A	0	M1
NMTTP	33	288	3	A	0	M1
NMTTP	33	312	2	A	0	M1
NMTTP	33	336	1	A	0	M1
BXHLD	34	0	0	96
BXHLD	34	0	4	96
NMHLD	34	144	2	96
NMHLD	34	144	3	96
BXHLD	34	288	3	96
BXHLD	34	288	7	96
NMHLD	35	48	4	96
NMHLD	35	48	5	96
NMTTP	35	192	0	A	0	M1
NMTTP	35	216	1	A	0	M1
NMTTP	35	240	2	A	0	M1
NMTTP	35	264	3	A	0	M1
NMTTP	35	288	4	A	0	M1
NMTTP	35	312	5	A	0	M1
NMTTP	35	336	6	A	0	M1
EXSTR	36	0	1
NMSCR	36	0	1	96	144	5
EXTAP	36	0	5
NMSTR	36	144	5
NMSUL	36	144	5	96	144	1
EXSTR	36	288	7
NMSCL	36	288	7	96	144	2
NMSTR	37	48	2
NMSUR	37	48	2	96	144	7
NMHLD	37	192	1	96
EXSTR	38	0	0
NMSLR	38	0	0	96	144	5
EXTAP	38	0	7
NMSTR	38	144	5
NMSLL	38	144	5	96	144	0
EXHLD	38	288	6	96
NMHLD	39	48	5	96
NMTAP	39	192	3
NMTAP	39	192	4
NMTAP	39	288	0
NMTAP	39	288	7
NMTAP	40	0	1
NMSTR	40	0	6
NMSCL	40	0	6	96	96	3
NMSTR	40	96	3
NMSCL	40	96	3	96	96	0
NMSTR	40	192	0
NMSCL	40	192	0	96	96	5
NMTAP	40	288	5
NMSTR	41	0	1
NMSCR	41	0	1	96	96	4
NMSTR	41	96	4
NMSCR	41	96	4	96	96	7
NMSTR	41	192	7
NMSCR	41	192	7	96	96	2
NMTAP	41	288	2
NMSTR	42	0	6
NMSCL	42	0	6	96	96	3
NMSTR	42	96	3
NMSXL	42	96	3	96	96	1
NMSTR	42	192	1
NMSCL	42	192	1	96	96	5
NMTAP	42	288	7
NMSTR	43	0	1
NMSCR	43	0	1	96	96	4
NMSTR	43	96	4
NMSXR	43	96	4	96	96	6
NMTAP	43	192	7
NMTAP	43	288	7
NMTAP	44	0	4
NMTAP	44	0	6
BRHLD	44	48	4	48
BRHLD	44	48	6	48
NMTAP	44	144	0
NMTAP	44	144	1
BRHLD	44	192	0	48
BRHLD	44	192	1	48
NMTAP	44	288	3
NMTAP	44	288	4
BRHLD	44	336	3	48
BRHLD	44	336	4	48
NMTAP	45	48	0
NMTAP	45	48	6
BRTAP	45	96	0
BRTAP	45	96	6
NMTAP	45	144	2
NMTAP	45	168	3
NMTAP	45	192	1
NMTAP	45	240	0
NMSTR	45	240	7
NMSI_	45	240	7	96	120	2
NMTAP	45	288	1
NMTAP	45	288	6
BXHLD	45	336	2	96
BXTAP	45	336	7
CNSI_	46	72	2	0	12	5
CNSI_	46	84	5	0	12	0
NMTAP	46	96	1
NMTAP	46	144	1
NMTAP	46	144	7
NMTAP	46	240	2
NMSTR	46	240	3
NMSCL	46	240	3	96	48	0
NMTAP	46	288	4
NMTAP	46	336	3
NMSTR	46	336	5
NMSI_	46	336	5	96	48	2
NMSTR	47	48	1
NMSI_	47	48	1	96	48	5
NMTAP	47	48	5
NMTAP	47	144	1
NMSTR	47	144	7
NMSI_	47	144	7	96	48	3
NMSTR	47	240	4
NMSUL	47	240	4	96	72	3
NMTAP	47	240	7
BRHLD	47	336	6	240
CNSCL	48	24	3	0	168	5
EXTAP	48	240	4
EXTAP	48	240	5
EXTAP	48	288	3
EXTAP	48	288	6
EXHLD	48	336	2	96
EXTAP	48	336	7
NMTAP	49	48	3
NMTAP	49	96	1
NMTAP	49	96	4
NMTAP	49	144	0
NMTAP	49	192	5
NMTAP	49	192	7
NMSTR	49	240	4
NMSI_	49	240	4	96	48	2
NMTAP	49	288	3
NMTAP	49	288	5
NMSTR	49	336	4
NMSI_	49	336	4	96	48	6
NMTAP	49	336	6
NMTAP	50	48	2
NMTAP	50	144	4
NMTAP	50	144	5
NMTAP	50	192	3
NMSTR	50	240	1
NMSSR	50	240	1	96	96	5
NMTAP	50	240	4
NMTAP	50	288	1
NMSTR	50	336	5
NMSSR	50	336	5	96	96	1
NMTAP	51	48	1
NMTAP	51	144	5
NMSTR	51	240	3
NMSUR	51	240	3	96	48	7
NMTAP	51	240	4
NMTAP	51	288	2
NMSTR	51	336	1
NMSV_	51	336	1	96	48	4
NMTAP	51	336	3
NMTAP	52	48	0
NMTAP	52	48	1
NMTAP	52	96	7
NMTAP	52	144	3
NMSTR	52	144	5
BRSLR	52	144	5	96	96	1
NMSTR	52	240	1
BRSI_	52	240	1	96	48	5
NMTAP	52	240	5
NMTAP	52	288	3
NMSTR	52	336	2
BRSLL	52	336	2	96	96	6
NMTAP	53	48	2
NMSTR	53	48	6
BRSI_	53	48	6	96	48	2
NMTAP	53	96	4
NMTAP	53	144	5
NMSTR	53	240	0
NMSCL	53	240	0	96	144	2
NMTAP	53	240	7
NMTAP	53	288	1
NMTAP	53	288	6
BXTAP	53	336	0
BXHLD	53	336	5	96
NMTAP	54	96	6
NMTAP	54	144	0
NMTAP	54	144	6
NMSTR	54	240	4
NMSCR	54	240	4	96	48	7
NMTAP	54	240	5
NMTAP	54	288	3
NMSTR	54	336	2
NMSI_	54	336	2	96	48	5
NMTAP	54	336	4
NMTAP	55	48	2
NMSTR	55	48	6
NMSI_	55	48	6	96	48	2
NMSTR	55	144	0
NMSI_	55	144	0	96	48	4
NMTAP	55	144	6
NMTAP	55	240	0
NMSTR	55	240	3
NMSUR	55	240	3	96	72	4
BRHLD	55	336	1	240
CNSCR	56	24	4	0	168	2
EXTAP	56	240	2
EXTAP	56	240	3
EXTAP	56	288	2
EXTAP	56	288	3
EXTAP	56	336	0
EXHLD	56	336	5	96
NMTAP	57	48	4
NMTAP	57	96	3
NMTAP	57	96	6
NMTAP	57	144	7
NMTAP	57	192	0
NMTAP	57	192	2
NMSTR	57	240	3
NMSI_	57	240	3	96	48	5
NMTAP	57	288	2
NMTAP	57	288	4
NMTAP	57	336	1
NMSTR	57	336	3
NMSI_	57	336	3	96	48	1
NMTAP	58	48	5
NMTAP	58	144	2
NMTAP	58	144	3
NMTAP	58	192	4
NMTAP	58	240	3
NMSTR	58	240	6
NMSLL	58	240	6	96	96	2
NMTAP	58	288	6
NMSTR	58	336	2
NMSLL	58	336	2	96	96	6
NMTAP	59	48	6
NMTAP	59	144	2
NMTAP	59	240	4
NMTAP	59	240	5
NMTAP	59	288	4
NMTAP	59	288	5
BRTAP	59	336	1
BRTAP	59	336	7
NMTAP	60	48	2
NMTAP	60	48	3
NMTAP	60	96	2
NMTAP	60	96	3
BRTAP	60	144	0
BRTAP	60	144	6
NMTAP	60	240	3
NMTAP	60	240	5
NMTAP	60	288	2
NMTAP	60	288	4
BRTAP	60	336	1
BRTAP	60	336	3
BRTAP	61	48	5
BRTAP	61	48	6
BRSTR	61	144	1
NMSXR	61	144	1	96	144	4
BRHLD	61	144	7	96
EXTAP	61	288	4
EXHLD	62	0	6	144
NMHLD	62	144	4	144
NMTTP	62	192	7	B	0	M1
NMTTP	62	192	7	E	0	M1
NMHLD	62	288	2	144
NMHLD	63	48	0	720
NMTTP	63	192	3	B	0	M1
NMTTP	63	192	3	E	0	M1
NMSTR	63	288	1
NMSCL	63	288	1	96	192	5
NMTTP	64	240	5	D	0	M1
NMTTP	64	288	4	D	0	M1
NMTTP	64	336	3	D	0	M1
NMTTP	65	0	2	D	0	M1
NMTTP	65	48	1	D	0	M1
NMTTP	65	96	0	D	0	M1
NMTTP	65	144	7	D	0	M1
NMTTP	65	192	6	D	0	M1
NMTTP	65	240	5	D	0	M1
NMTTP	65	288	4	D	0	M1
NMTTP	65	336	3	D	0	M1
EXHLD	66	0	1	144
NMHLD	66	144	3	144
NMTTP	66	192	2	B	0	M1
NMTTP	66	192	2	E	0	M1
NMHLD	66	288	5	144
NMHLD	67	48	7	336
NMTTP	67	192	6	B	0	M1
NMTTP	67	192	6	E	0	M1
NMTAP	68	48	0
NMTAP	68	96	1
NMTAP	68	144	2
NMTAP	68	192	3
NMTAP	68	192	4
NMTAP	68	240	5
NMTAP	68	288	6
NMTAP	68	336	7
NMTAP	69	0	0
NMTAP	69	0	1
NMTAP	69	48	2
NMTAP	69	96	3
NMTAP	69	96	4
NMTAP	69	144	5
NMTAP	69	168	4
NMTAP	69	192	6
NMTAP	69	240	3
NMTAP	69	240	7
EXTAP	69	288	0
EXSTR	69	288	4
NMSI_	69	288	4	96	48	0
BXSTR	70	0	4
NMSCR	70	0	4	96	288	7
NMSCR	70	0	4	96	480	1
NMSCR	70	0	4	96	672	3
NMTAP	74	0	4
NMTAP	74	96	4
NMTAP	74	96	5
NMTAP	74	192	3
NMTAP	74	288	2
NMTAP	74	288	3
NMTAP	75	0	4
NMTAP	75	96	4
NMTAP	75	96	5
NMTAP	75	192	3
NMTAP	75	288	2
NMTAP	75	288	3
NMHLD	75	336	2	96
NMTAP	75	336	3
NMTAP	76	48	4
NMTAP	76	96	4
NMTAP	76	144	3
NMSTR	76	144	5
BRSLR	76	144	5	96	96	1
NMSTR	76	240	1
BRSI_	76	240	1	96	48	5
NMTAP	76	288	3
BRSTR	76	336	2
BRSLL	76	336	2	96	96	6
NMSTR	77	48	6
BRSI_	77	48	6	96	48	2
NMTAP	77	96	4
BRTAP	77	144	5
NMTAP	77	240	0
NMSTR	77	240	7
NMSCR	77	240	7	96	144	5
NMTAP	77	288	1
NMTAP	77	288	6
BXHLD	77	336	2	96
BXTAP	77	336	7
NMTAP	78	96	1
NMTAP	78	144	1
NMTAP	78	144	7
NMTAP	78	240	2
NMTAP	78	240	3
NMTAP	78	288	1
NMSTR	78	336	0
NMSI_	78	336	0	96	48	5
NMTAP	78	336	5
NMTAP	79	48	0
NMSTR	79	48	4
NMSI_	79	48	4	96	48	1
NMSTR	79	144	2
NMSV_	79	144	2	96	48	7
NMTAP	79	144	4
NMTAP	79	240	2
NMSTR	79	240	5
NMSUR	79	240	5	96	72	6
BRHLD	79	336	0	240
NMTAP	79	336	5
CNSCR	80	24	6	0	168	4
EXTAP	80	240	4
EXTAP	80	240	5
EXTAP	80	288	4
EXTAP	80	288	5
EXHLD	80	336	2	96
EXTAP	80	336	7
NMTAP	81	48	3
NMTAP	81	96	1
NMTAP	81	96	4
NMTAP	81	144	0
NMTAP	81	192	5
NMTAP	81	192	7
NMSTR	81	240	4
NMSI_	81	240	4	96	48	1
NMTAP	81	288	3
NMTAP	81	288	5
NMSTR	81	336	4
NMSI_	81	336	4	96	48	7
NMTAP	81	336	6
NMTAP	82	48	2
NMTAP	82	48	4
NMTAP	82	144	4
NMTAP	82	144	5
NMTAP	82	192	3
NMSTR	82	240	1
NMSLR	82	240	1	96	96	5
NMTAP	82	240	4
NMTAP	82	288	1
NMSTR	82	336	5
NMSLR	82	336	5	96	96	1
NMTAP	83	48	1
NMTAP	83	144	5
NMTAP	83	240	2
NMTAP	83	240	3
NMTAP	83	288	2
NMTAP	83	288	3
BRTAP	83	336	0
BRTAP	83	336	6
NMTAP	84	48	4
NMTAP	84	48	5
NMTAP	84	96	4
NMTAP	84	96	5
BRTAP	84	144	1
BRTAP	84	144	7
NMTAP	84	240	2
NMTAP	84	240	4
NMTAP	84	288	3
NMTAP	84	288	5
BRTAP	84	336	4
BRTAP	84	336	6
BRTAP	85	48	0
BRTAP	85	48	2
BRSTR	85	144	3
NMSF_	85	144	3	96	48	7
BRTAP	85	144	4
NMTTP	85	288	0	A	0	M1
NMTTP	85	288	0	D	0	M1
NMTTP	85	288	6	A	0	M1
NMTTP	85	288	7	A	1	M1
NMTTP	85	288	7	D	0	M1
EXTAP	86	0	1
EXTAP	86	0	5
NMTAP	86	48	2
NMTAP	86	96	4
NMSTR	86	144	3
NMSI_	86	144	3	96	48	0
NMTAP	86	144	5
NMSTR	86	240	6
NMSI_	86	240	6	96	48	1
NMSTR	86	336	2
NMSI_	86	336	2	96	48	5
NMSTR	87	48	7
NMSI_	87	48	7	96	48	4
NMSTR	87	144	3
BRSLL	87	144	3	96	96	5
NMSTR	87	240	5
BRSI_	87	240	5	96	48	3
NMTAP	88	0	6
NMTAP	88	48	7
NMTAP	88	96	0
NMSTR	88	144	1
NMSI_	88	144	1	96	48	6
NMTAP	88	144	3
NMSTR	88	240	4
NMSI_	88	240	4	96	48	7
NMSTR	88	336	0
NMSI_	88	336	0	96	48	3
NMSTR	89	48	5
NMSI_	89	48	5	96	48	2
NMSTR	89	144	1
NMSCL	89	144	1	96	96	4
NMTTP	89	240	0	C	1	M1
EXTAP	90	0	0
EXTAP	90	0	7
NMTAP	90	48	1
NMTAP	90	96	3
NMSTR	90	144	2
NMSI_	90	144	2	96	48	7
NMTAP	90	144	4
NMSTR	90	240	6
NMSI_	90	240	6	96	48	3
NMSTR	90	336	1
NMSI_	90	336	1	96	48	4
NMSTR	91	48	5
NMSI_	91	48	5	96	48	0
NMSTR	91	144	2
BRSLL	91	144	2	96	96	4
NMSTR	91	240	4
BRSI_	91	240	4	96	48	2
NMTAP	92	0	6
NMTAP	92	48	7
NMTAP	92	96	0
NMSTR	92	144	1
NMSI_	92	144	1	96	48	4
NMTAP	92	144	3
NMSTR	92	240	5
NMSI_	92	240	5	96	48	0
NMSTR	92	336	2
NMSI_	92	336	2	96	48	7
NMSTR	93	48	6
NMSI_	93	48	6	96	48	3
NMSTR	93	144	0
NMSLL	93	144	0	96	72	4
NMSLR	93	144	0	96	72	4
EXTAP	93	240	0
BRTAP	94	0	3
BRTAP	94	0	5
NMTAP	94	48	2
NMTAP	94	96	4
BRTAP	94	144	1
BRTAP	94	144	3
NMTAP	94	240	0
NMTAP	94	240	7
BRTAP	94	288	3
BRSTR	94	288	4
NMSCR	94	288	4	96	192	6
NMSCR	94	288	4	96	288	7
NMSCR	94	288	4	96	384	0
NMSCR	94	288	4	96	480	1
NMSCR	94	288	4	96	576	2
NMSCR	94	288	4	96	672	3
NMSCR	94	288	4	96	768	4

T_REC_TAP	297
T_REC_BRK	25
T_REC_XTP	33
T_REC_BXX	4
T_REC_HLD	37
T_REC_XHO	10
T_REC_BHO	12
T_REC_BXH	11
T_REC_STR	116
T_REC_BST	5
T_REC_XST	4
T_REC_XBS	1
T_REC_TTP	81
T_REC_THO	0
T_REC_SLD	121
T_REC_BSL	16
T_REC_ALL	773
T_NUM_TAP	531
T_NUM_BRK	74
T_NUM_HLD	47
T_NUM_SLD	121
T_NUM_ALL	773
T_JUDGE_TAP	566
T_JUDGE_HLD	159
T_JUDGE_SLD	137
T_JUDGE_ALL	862
TTM_EACHPAIRS	170
TTM_SCR_TAP	265500
TTM_SCR_BRK	192400
TTM_SCR_HLD	47000
TTM_SCR_SLD	181500
TTM_SCR_ALL	686400
TTM_SCR_S	658650
TTM_SCR_SS	679000
TTM_RAT_ACV	10108

