VERSION	0.00.00	1.04.00
FES_MODE	0
BPM_DEF	155.000	155.000	155.000	155.000
MET_DEF	4	4
RESOLUTION	384
CLK_DEF	384
COMPATIBLE_CODE	MA2

BPM	0	0	155.000
MET	0	0	4	4

NMTAP	2	0	3
NMTAP	2	0	4
NMTAP	2	96	1
NMHLD	2	144	1	96
NMTAP	2	240	3
NMTAP	2	336	2
NMSTR	2	336	3
NMSI_	2	336	3	96	96	0
NMTAP	3	288	0
NMTAP	3	288	7
NMTAP	4	0	6
NMTAP	4	0	7
NMTAP	4	96	6
NMHLD	4	144	6	96
NMTAP	4	240	4
NMTAP	4	336	4
NMTAP	4	336	5
NMTAP	5	48	3
NMTAP	5	96	3
EXTAP	5	192	2
EXTAP	5	192	5
BRTAP	5	288	0
BRTAP	5	288	7
NMHLD	6	0	1	96
NMTAP	6	96	0
NMTAP	6	192	0
NMTAP	6	192	1
NMTAP	6	288	7
NMHLD	7	0	6	96
NMTAP	7	96	7
NMTAP	7	192	6
NMTAP	7	192	7
NMTAP	7	288	0
NMHLD	8	0	1	96
NMTAP	8	96	0
NMTAP	8	192	0
NMTAP	8	192	1
NMTAP	8	288	2
NMSTR	9	0	3
NMSI_	9	0	3	96	96	7
NMTAP	9	0	4
NMTAP	9	288	1
NMTAP	9	288	5
NMHLD	10	0	6	96
NMTAP	10	96	4
NMTAP	10	192	4
NMTAP	10	192	5
NMTAP	10	288	3
NMHLD	11	0	1	96
NMTAP	11	96	3
NMTAP	11	192	2
NMTAP	11	192	3
NMTAP	11	288	4
NMHLD	12	0	6	96
NMTAP	12	96	4
NMTAP	12	192	4
NMTAP	12	192	5
NMTAP	12	288	3
NMTAP	12	288	4
NMSTR	13	0	1
NMSI_	13	0	1	96	48	3
NMSTR	13	0	6
NMSI_	13	0	6	96	48	4
NMTAP	13	192	2
NMTAP	13	192	5
NMTAP	13	288	1
NMTAP	13	288	6
EXHLD	14	0	0	192
EXHLD	14	0	7	192
NMTTP	15	0	1	E	0	M1
NMTTP	15	0	7	E	0	M1
NMTTP	15	72	2	E	0	M1
NMTTP	15	72	6	E	0	M1
NMTTP	15	144	3	B	0	M1
NMTTP	15	192	4	B	0	M1
NMHLD	16	0	2	1152
NMTAP	16	192	4
NMTAP	17	0	4
NMTAP	17	192	3
NMTAP	18	0	3
NMTAP	18	192	1
NMTAP	19	0	1
NMTAP	19	96	0
NMTAP	19	192	1
NMTAP	19	192	7
NMHLD	20	0	5	768
NMTAP	20	192	3
NMTAP	20	288	3
NMTAP	21	0	4
NMTAP	21	192	7
NMTAP	21	288	7
NMTAP	22	0	0
NMTAP	22	96	1
NMTAP	22	192	2
NMSTR	22	192	4
NMSCR	22	192	4	96	288	2
NMTAP	23	288	0
NMTAP	24	0	1
NMTAP	24	96	2
NMTAP	24	96	3
NMTAP	24	192	6
NMTAP	24	192	7
NMHLD	24	288	6	96
NMSTR	24	288	7
NMSI_	24	288	7	96	96	3
NMTAP	25	192	0
NMTAP	25	192	1
NMSTR	25	288	0
NMSI_	25	288	0	96	96	4
NMHLD	25	288	1	96
NMTAP	26	192	6
NMTAP	26	192	7
NMHLD	26	288	6	96
NMSTR	26	288	7
NMSLR	26	288	7	96	192	3
NMTAP	27	288	2
NMTAP	27	288	4
NMHLD	28	0	1	96
NMTAP	28	96	3
NMHLD	28	192	6	96
NMTAP	28	288	4
NMHLD	29	0	0	96
NMTAP	29	96	7
NMTAP	29	192	6
NMTAP	29	192	7
NMTAP	29	288	5
NMTAP	29	336	5
NMTAP	30	48	2
NMTAP	30	48	3
NMTAP	30	96	2
NMTAP	30	96	3
NMTAP	30	192	0
NMHLD	30	240	0	288
EXTAP	30	336	2
EXTAP	31	48	4
EXTAP	31	144	6
BXTAP	31	240	0
BXTAP	31	240	7
NMHLD	32	0	6	96
NMHLD	32	0	7	96
EXTAP	32	144	6
EXTAP	32	144	7
NMHLD	32	288	5	96
NMHLD	32	288	7	96
EXTAP	33	48	5
EXTAP	33	48	7
NMTAP	33	192	4
NMTAP	33	288	2
NMTAP	33	288	3
NMHLD	34	0	0	96
NMHLD	34	0	1	96
EXTAP	34	144	0
EXTAP	34	144	1
NMHLD	34	288	0	96
NMHLD	34	288	2	96
EXTAP	35	48	0
NMSTR	35	48	2
NMSUR	35	48	2	96	192	4
NMHLD	36	0	6	96
EXTAP	36	144	5
EXTAP	36	144	7
NMHLD	36	288	5	96
EXTAP	37	48	4
EXTAP	37	48	6
NMTAP	37	192	3
NMTAP	37	192	4
NMTAP	37	288	2
NMHLD	38	0	1	96
EXTAP	38	144	0
EXTAP	38	144	2
NMHLD	38	288	2	96
EXTAP	39	48	1
EXTAP	39	48	3
NMTAP	39	192	3
NMTAP	39	192	4
NMTAP	39	288	1
NMTAP	39	288	6
NMTAP	40	0	5
NMTAP	40	48	5
NMTAP	40	96	4
NMTAP	40	192	2
NMTAP	40	240	2
NMTAP	40	288	3
NMTAP	41	0	0
NMTAP	41	0	1
NMTAP	41	96	6
NMTAP	41	96	7
NMTAP	41	192	4
NMTAP	41	192	5
NMSTR	41	288	2
NMSCL	41	288	2	96	288	3
NMTAP	41	288	3
NMTAP	43	0	0
NMTAP	43	0	7
NMTAP	43	96	6
NMTAP	43	192	5
NMTAP	43	288	3
NMTAP	43	288	4
EXTAP	44	0	0
EXTAP	44	0	7
EXTAP	44	48	0
EXTAP	44	48	7
EXTAP	44	144	1
EXTAP	44	144	3
EXTAP	44	192	1
EXTAP	44	192	3
EXTAP	44	288	4
EXTAP	44	288	6
EXTAP	44	336	4
EXTAP	44	336	6
EXTAP	45	48	0
EXTAP	45	48	7
EXSTR	45	96	0
NMSI_	45	96	0	96	48	4
EXSTR	45	96	7
NMSI_	45	96	7	96	48	3
BXTAP	45	288	1
BXTAP	45	288	6
NMSTR	46	0	6
NMSI_	46	0	6	96	48	3
NMHLD	46	0	7	96
NMHLD	46	192	0	96
NMSTR	46	192	1
NMSI_	46	192	1	96	48	4
NMTAP	47	0	6
NMHLD	47	0	7	96
NMTAP	47	96	3
NMHLD	47	192	0	96
NMTAP	47	192	1
NMSTR	47	288	4
NMSCL	47	288	4	96	288	5
NMTAP	49	0	4
NMTAP	49	96	3
NMTAP	49	96	5
NMTAP	49	192	1
NMTAP	49	192	7
NMTAP	49	288	6
NMSTR	50	0	6
NMSI_	50	0	6	96	48	3
NMTAP	50	96	3
NMTAP	50	192	2
NMTAP	50	288	1
NMSTR	51	0	1
NMSI_	51	0	1	96	48	4
NMTAP	51	96	4
NMTAP	51	192	5
NMTAP	51	288	6
NMHLD	52	0	1	96
NMTAP	52	96	0
NMTAP	52	144	0
NMTAP	52	240	6
NMTAP	52	288	6
BRTAP	52	336	5
BRTAP	52	336	7
NMTAP	53	48	1
NMTAP	53	96	1
BRTAP	53	144	0
BRTAP	53	144	2
NMTAP	53	240	2
NMTAP	53	240	3
NMTAP	53	288	2
NMTAP	53	288	3
NMSTR	54	0	0
NMSI_	54	0	0	96	48	4
NMTAP	54	96	5
NMTAP	54	192	6
NMTAP	54	288	7
NMSTR	55	0	7
NMSI_	55	0	7	96	48	3
NMTAP	55	96	2
NMTAP	55	192	1
NMTAP	55	288	0
NMSTR	56	0	0
NMSSL	56	0	0	96	144	4
NMTAP	56	288	5
NMTAP	57	0	7
NMTAP	57	96	0
NMTAP	57	96	1
NMTAP	57	192	2
NMTAP	57	192	3
NMTAP	57	288	4
NMTAP	57	336	4
NMHLD	58	48	6	96
NMTAP	58	144	7
NMTAP	58	192	7
NMTAP	58	288	0
NMTAP	58	288	5
NMTAP	58	336	0
NMTAP	58	336	5
NMTAP	59	48	1
NMTAP	59	48	4
NMTAP	59	144	2
NMTAP	59	144	3
NMTAP	59	240	0
NMTAP	59	240	1
NMTAP	59	288	0
NMTAP	59	288	1
BXSTR	59	336	0
NMSI_	59	336	0	96	48	4
BXSTR	59	336	1
NMSI_	59	336	1	96	48	5
BXSTR	60	144	6
NMSI_	60	144	6	96	48	2
BXSTR	60	144	7
NMSI_	60	144	7	96	48	3
BRTAP	60	336	0
BRTAP	60	336	1
BRTAP	61	48	3
BRTAP	61	48	4
BRTAP	61	144	6
BRTAP	61	144	7
BRSTR	61	240	3
NMSXR	61	240	3	96	528	0
BRSTR	61	240	4
NMSXL	61	240	4	96	528	7
NMTAP	63	192	1
NMTAP	63	192	6
NMTAP	64	0	2
NMHLD	64	0	3	480
NMSTR	64	96	2
NMSI_	64	96	2	96	48	0
NMTAP	65	0	2
NMSTR	65	96	2
NMSI_	65	96	2	96	48	0
NMHLD	66	0	4	480
NMTAP	66	0	5
NMSTR	66	96	5
NMSI_	66	96	5	96	48	7
NMTAP	67	0	5
NMSTR	67	96	5
NMSI_	67	96	5	96	48	7
NMTAP	68	0	1
NMTAP	68	0	7
NMTAP	68	96	6
NMTAP	68	144	6
NMTAP	68	192	7
NMTAP	68	288	1
NMTAP	68	336	1
NMTAP	69	0	0
NMTAP	69	96	3
NMTAP	69	96	4
NMTAP	69	144	3
NMTAP	69	144	4
NMTAP	69	192	2
NMTAP	69	192	5
EXTAP	69	288	0
EXTAP	69	288	7
EXTAP	69	336	0
EXTAP	69	336	7
EXHLD	70	336	2	384
EXSTR	71	336	3
NMSCR	71	336	3	96	192	6
EXSTR	72	336	4
NMSCL	72	336	4	96	192	1
EXTAP	72	336	6
EXTAP	73	240	4
EXHLD	73	336	5	480
NMTAP	74	48	3
NMTAP	74	144	4
NMTAP	74	192	4
NMTAP	74	288	3
NMTAP	74	336	3
NMTAP	75	48	4
NMTAP	75	144	4
NMTAP	75	144	5
NMTAP	75	240	3
NMTAP	75	240	4
NMHLD	75	336	2	96
NMTAP	76	48	3
NMTAP	76	144	2
NMTAP	76	144	3
NMTAP	76	240	3
NMTAP	76	240	4
NMTAP	76	288	3
NMTAP	76	288	4
BXTAP	76	336	3
BXTAP	76	336	4
NMTAP	77	48	1
NMTAP	77	48	6
NMTAP	77	96	1
NMTAP	77	96	6
BXSTR	77	144	1
NMSCR	77	144	1	96	48	3
BXSTR	77	144	6
NMSCL	77	144	6	96	48	4
EXSTR	78	0	1
NMSI_	78	0	1	96	48	4
NMTAP	78	96	5
NMSTR	78	192	6
NMSI_	78	192	6	96	48	3
NMTAP	78	288	2
NMSTR	79	0	0
NMSI_	79	0	0	96	48	3
NMTAP	79	96	4
NMSTR	79	192	7
NMSI_	79	192	7	96	48	4
NMTAP	79	288	3
NMSTR	80	0	1
NMSI_	80	0	1	96	48	3
NMSTR	80	96	7
NMSI_	80	96	7	96	48	5
NMSTR	80	192	0
NMSI_	80	192	0	96	48	4
NMSTR	81	0	6
NMSI_	81	0	6	96	48	4
NMSTR	81	96	0
NMSI_	81	96	0	96	48	2
NMTAP	81	192	7
NMTAP	81	288	0
NMTAP	81	288	6
NMTAP	81	336	0
NMTAP	81	336	6
NMTAP	82	48	4
NMTAP	82	48	5
NMTAP	82	144	2
NMTAP	82	144	3
NMTAP	82	192	2
NMTAP	82	192	3
NMTAP	82	288	0
NMTAP	82	288	1
NMTAP	82	336	0
NMTAP	82	336	1
NMTAP	83	48	2
NMTAP	83	48	3
NMTAP	83	144	1
NMTAP	83	144	4
NMTAP	83	240	4
NMTAP	83	240	6
NMTAP	83	288	4
NMTAP	83	288	6
BRSTR	83	336	4
BRSI_	83	336	4	96	48	0
BRSTR	83	336	6
BRSI_	83	336	6	96	48	4
BRSTR	84	144	1
BRSI_	84	144	1	96	48	3
BRSTR	84	144	3
BRSI_	84	144	3	96	48	7
BRTAP	84	336	4
BRTAP	84	336	6
BRTAP	85	48	1
BRTAP	85	48	3
BRHLD	85	144	0	96
BRHLD	85	144	7	96
BRTAP	85	288	3
BRTAP	85	288	4
BRSTR	85	336	3
BRSXR	85	336	3	96	528	0
BRSTR	85	336	4
BRSXL	85	336	4	96	528	7
NMHLD	88	0	2	96
NMTAP	88	96	3
NMTAP	88	144	3
NMTAP	88	240	0
NMTAP	88	240	1
NMSTR	88	336	7
NMSI_	88	336	7	96	48	3
NMSTR	89	144	0
NMSI_	89	144	0	96	48	4
NMHLD	90	0	6	96
NMTAP	90	96	7
NMTAP	90	144	7
NMTAP	90	240	1
NMTAP	90	288	1
NMTAP	90	336	0
NMTAP	91	48	2
NMTAP	91	48	3
NMTAP	91	144	4
NMTAP	91	144	5
NMTAP	91	240	3
NMTAP	91	240	6
NMTAP	91	288	3
NMTAP	91	288	6
NMHLD	92	0	5	96
NMTAP	92	96	4
NMTAP	92	144	4
NMTAP	92	240	6
NMTAP	92	240	7
NMSTR	92	336	0
NMSI_	92	336	0	96	48	4
NMSTR	93	144	7
NMSI_	93	144	7	96	48	3
BXHLD	94	0	2	96
BXHLD	94	0	5	96
BXHLD	94	144	1	96
BXHLD	94	144	6	96
BRSTR	94	288	0
NMSCR	94	288	0	96	384	3
BRSTR	94	288	7
NMSCL	94	288	7	96	384	4

T_REC_TAP	259
T_REC_BRK	18
T_REC_XTP	40
T_REC_BXX	6
T_REC_HLD	41
T_REC_XHO	4
T_REC_BHO	2
T_REC_BXH	4
T_REC_STR	34
T_REC_BST	10
T_REC_XST	5
T_REC_XBS	6
T_REC_TTP	6
T_REC_THO	0
T_REC_SLD	49
T_REC_BSL	6
T_REC_ALL	490
T_NUM_TAP	344
T_NUM_BRK	52
T_NUM_HLD	45
T_NUM_SLD	49
T_NUM_ALL	490
T_JUDGE_TAP	384
T_JUDGE_HLD	176
T_JUDGE_SLD	55
T_JUDGE_ALL	615
TTM_EACHPAIRS	135
TTM_SCR_TAP	172000
TTM_SCR_BRK	135200
TTM_SCR_HLD	45000
TTM_SCR_SLD	73500
TTM_SCR_ALL	425700
TTM_SCR_S	407900
TTM_SCR_SS	420500
TTM_RAT_ACV	10123

