VERSION	0.00.00	1.04.00
FES_MODE	0
BPM_DEF	121.000	121.000	121.000	121.000
MET_DEF	4	4
RESOLUTION	384
CLK_DEF	384
COMPATIBLE_CODE	MA2

BPM	0	0	121.000
MET	0	0	4	4
MET	39	0	4	2
MET	39	192	4	4

NMSTR	1	0	1
NMSCR	1	0	1	96	72	3
NMSTR	1	192	6
NMSCL	1	192	6	96	72	4
NMSTR	2	0	0
NMSCR	2	0	0	96	96	3
NMSTR	2	192	7
NMSCL	2	192	7	96	96	4
NMSTR	3	0	1
NMSUR	3	0	1	96	96	5
NMSTR	3	192	6
NMSUL	3	192	6	96	96	2
NMSTR	4	0	0
NMSI_	4	0	0	96	72	4
NMHLD	4	192	3	48
NMHLD	4	192	5	72
NMHLD	5	0	4	192
NMTTP	5	96	4	E	0	M1
NMHLD	5	192	2	192
NMTTP	5	288	3	E	0	M1
NMHLD	6	0	6	192
NMTTP	6	96	5	E	0	M1
NMSTR	6	192	4
NMSI_	6	192	4	96	48	2
NMTTP	6	288	6	E	0	M1
NMHLD	7	0	1	192
NMTTP	7	96	3	E	0	M1
NMHLD	7	192	5	192
NMTTP	7	288	5	E	0	M1
NMHLD	8	0	3	192
NMTTP	8	96	4	E	0	M1
NMSTR	8	192	6
NMSI_	8	192	6	96	48	4
NMTTP	8	288	0	C	0	M1
NMHLD	9	0	1	72
NMHLD	9	72	2	72
NMTAP	9	144	3
NMHLD	9	192	5	72
NMHLD	9	264	4	72
NMTAP	9	336	3
NMHLD	10	0	0	72
NMHLD	10	72	1	72
NMTAP	10	144	2
NMHLD	10	192	2	72
NMSTR	10	192	3
NMSI_	10	192	3	96	48	7
NMHLD	11	0	6	72
NMHLD	11	72	5	72
NMTAP	11	144	4
NMHLD	11	192	2	72
NMHLD	11	264	3	72
NMTAP	11	336	4
NMTAP	12	0	1
NMTAP	12	0	5
NMTAP	12	48	7
NMTAP	12	96	2
NMSTR	12	96	6
NMSI_	12	96	6	96	48	2
NMTAP	12	144	0
NMSTR	12	192	1
NMSI_	12	192	1	96	48	5
NMTAP	12	192	6
NMTAP	12	288	1
NMTAP	12	288	6
BRTAP	13	0	0
BRTAP	13	0	7
NMSTR	13	48	6
NMSCL	13	48	6	96	48	3
NMTAP	13	96	7
NMTAP	13	144	0
EXTAP	13	144	6
EXTAP	13	192	2
NMSTR	13	240	1
NMSCR	13	240	1	96	48	4
NMTAP	13	288	0
EXTAP	13	336	1
NMTAP	13	336	7
EXTAP	14	0	5
NMTAP	14	48	0
NMTAP	14	48	7
NMTAP	14	96	1
EXTAP	14	144	2
NMTAP	14	144	3
NMTAP	14	192	4
EXSTR	14	192	5
NMSI_	14	192	5	96	48	0
BXTAP	14	288	4
BXTAP	14	288	5
EXTAP	15	0	2
NMSTR	15	48	6
NMSCL	15	48	6	96	48	3
NMTAP	15	96	7
NMTAP	15	144	0
EXTAP	15	144	6
EXTAP	15	192	2
NMSTR	15	240	1
NMSCR	15	240	1	96	48	4
NMTAP	15	288	0
EXTAP	15	336	1
NMTAP	15	336	7
EXTAP	16	0	5
NMTAP	16	48	6
NMTAP	16	48	7
EXTAP	16	96	2
NMTAP	16	144	0
NMTAP	16	144	1
EXTAP	16	192	3
EXTAP	16	192	4
EXTAP	16	240	0
EXTAP	16	240	7
EXTAP	16	264	1
EXTAP	16	264	6
NMHLD	17	0	2	96
NMTAP	17	48	3
NMTAP	17	96	4
NMTAP	17	144	3
NMTAP	17	144	5
NMHLD	17	192	6	96
NMTAP	17	240	4
NMSTR	17	288	3
NMSCL	17	288	3	96	48	0
NMTAP	18	0	4
NMTAP	18	48	5
NMSTR	18	96	6
NMSCL	18	96	6	96	48	3
NMTAP	18	192	7
NMTAP	18	240	0
NMTAP	18	288	1
NMTAP	18	288	2
NMHLD	19	0	5	96
NMTAP	19	48	4
NMTAP	19	96	3
NMTAP	19	144	2
NMTAP	19	144	4
NMHLD	19	192	1	96
NMTAP	19	240	3
NMSTR	19	288	4
NMSCR	19	288	4	96	48	7
NMTAP	20	0	3
NMTAP	20	48	2
NMSTR	20	96	1
NMSCR	20	96	1	96	48	4
NMTAP	20	192	0
NMTAP	20	240	7
NMTAP	20	288	5
NMTAP	20	288	6
NMTAP	21	0	1
NMTAP	21	48	1
NMTAP	21	96	7
NMTAP	21	144	7
NMHLD	21	192	0	48
NMHLD	21	192	6	48
NMTAP	21	264	0
NMTAP	21	264	6
NMTAP	21	336	2
NMTAP	21	336	3
NMHLD	22	0	1	48
NMHLD	22	0	7	48
NMTAP	22	72	1
NMTAP	22	72	7
NMTAP	22	144	4
NMTAP	22	144	5
NMSTR	22	192	0
NMSCR	22	192	0	96	72	5
NMHLD	22	192	6	72
NMTAP	23	0	6
NMTAP	23	48	6
NMTAP	23	96	0
NMTAP	23	144	0
NMHLD	23	192	1	48
NMHLD	23	192	7	48
NMTAP	23	264	1
NMTAP	23	264	7
NMTAP	23	336	4
NMTAP	23	336	5
NMTAP	24	0	0
NMTAP	24	48	2
NMTAP	24	48	3
NMSTR	24	96	7
NMSCL	24	96	7	96	72	2
NMTAP	24	144	1
NMTAP	24	192	1
EXTAP	24	240	0
EXTAP	24	288	1
EXTAP	24	288	7
NMHLD	25	0	4	144
NMHLD	25	0	5	24
NMHLD	25	72	6	24
NMTAP	25	144	7
NMHLD	25	192	2	24
NMHLD	25	192	3	144
NMHLD	25	264	1	24
NMTAP	25	336	0
NMHLD	26	0	1	24
NMHLD	26	0	2	24
NMHLD	26	72	2	24
NMHLD	26	72	3	24
NMHLD	26	144	3	24
NMHLD	26	144	4	24
EXHLD	26	216	4	24
EXHLD	26	216	5	24
EXHLD	26	288	5	24
EXHLD	26	288	6	24
NMHLD	27	0	4	144
NMHLD	27	0	7	24
NMHLD	27	72	6	24
NMTAP	27	144	5
NMHLD	27	192	0	24
NMHLD	27	192	3	144
NMHLD	27	264	1	24
NMTAP	27	336	2
EXTAP	28	0	0
EXTAP	28	0	7
NMTAP	28	24	0
NMTAP	28	24	7
EXTAP	28	96	1
EXTAP	28	96	2
NMTAP	28	120	1
NMTAP	28	120	2
EXTAP	28	192	3
EXTAP	28	192	4
NMTAP	28	216	3
NMTAP	28	216	4
EXSTR	28	288	5
NMSCL	28	288	5	96	192	6
EXTAP	28	288	6
NMTTP	29	0	0	C	1	M1
NMTAP	29	288	1
NMTAP	29	288	5
NMTAP	30	0	2
NMTAP	30	0	3
NMTAP	30	48	0
NMTAP	30	48	1
NMTAP	30	72	0
NMTAP	30	72	1
NMTAP	30	120	4
NMTAP	30	120	5
NMTAP	30	168	6
NMTAP	30	168	7
NMTAP	30	192	6
NMTAP	30	192	7
NMTAP	30	240	2
NMTAP	30	240	4
BRTAP	30	288	1
BRTAP	30	288	5
EXTAP	31	0	2
EXSTR	31	0	6
NMSI_	31	0	6	96	48	2
NMTAP	31	48	0
NMTAP	31	96	6
NMTAP	31	96	7
NMTAP	31	144	1
NMHLD	31	168	1	72
NMTAP	31	240	0
NMTAP	31	288	2
NMTAP	31	288	3
NMTAP	31	336	4
NMTAP	31	336	5
NMTAP	32	0	6
NMTAP	32	0	7
EXTAP	32	24	0
EXTAP	32	24	5
NMTAP	32	72	6
NMTAP	32	72	7
EXTAP	32	96	0
EXTAP	32	96	5
NMTAP	32	144	6
NMTAP	32	144	7
EXTAP	32	168	0
EXTAP	32	168	5
NMTAP	32	240	2
NMTAP	32	288	2
NMTAP	32	288	3
NMTAP	32	336	1
NMTAP	32	360	1
NMTAP	33	0	0
NMTAP	33	48	2
NMTAP	33	48	7
NMTAP	33	96	3
NMTAP	33	96	4
NMTAP	33	144	6
NMTAP	33	168	6
NMTAP	33	192	7
NMTAP	33	240	0
NMTAP	33	240	5
NMTAP	33	288	3
NMTAP	33	288	4
NMTAP	33	336	2
NMTAP	33	336	7
NMTAP	34	0	0
NMTAP	34	48	1
NMTAP	34	48	7
NMTAP	34	96	4
NMTAP	34	96	5
NMTAP	34	120	4
NMTAP	34	120	5
BRTAP	34	168	2
BRTAP	34	168	6
NMTAP	34	240	6
NMTAP	34	240	7
NMTAP	34	288	4
NMTAP	34	288	5
NMTAP	34	336	2
NMTAP	34	336	3
NMTAP	35	0	0
NMSTR	35	0	1
NMSCR	35	0	1	96	48	4
NMTAP	35	48	7
NMTAP	35	96	6
NMTAP	35	144	5
NMSTR	35	192	6
NMSCL	35	192	6	96	48	3
NMTAP	35	192	7
NMTAP	35	240	0
NMTAP	35	288	1
NMTAP	35	336	2
NMTAP	36	0	0
NMTAP	36	0	1
EXTAP	36	24	2
EXTAP	36	24	7
NMTAP	36	72	0
NMTAP	36	72	1
EXTAP	36	96	2
EXTAP	36	96	7
NMTAP	36	144	0
NMTAP	36	144	1
EXTAP	36	168	2
EXTAP	36	168	7
BXTAP	36	216	0
BXTAP	36	216	1
NMTAP	36	288	5
NMTAP	36	312	5
NMTAP	36	336	4
NMSTR	37	0	3
NMSI_	37	0	3	96	48	7
NMSTR	37	0	6
NMSI_	37	0	6	96	48	4
NMTAP	37	48	3
NMTAP	37	48	6
NMSTR	37	192	1
NMSI_	37	192	1	96	48	3
NMSTR	37	192	4
NMSI_	37	192	4	96	48	0
NMTAP	37	240	1
NMTAP	37	240	4
NMTAP	38	0	6
NMTAP	38	0	7
NMTAP	38	48	0
NMTAP	38	48	1
NMTAP	38	96	4
NMTAP	38	96	6
NMTAP	38	144	1
NMTAP	38	144	3
BRSTR	38	192	3
NMSCL	38	192	3	96	192	4
BRSTR	38	192	4
NMSCR	38	192	4	96	192	3
NMHLD	39	192	3	96
NMTAP	39	288	4
NMTTP	39	360	1	B	0	M1
NMTTP	40	24	5	B	0	M1
EXTAP	40	72	3
EXTAP	40	96	3
NMHLD	40	192	4	96
NMTTP	40	288	3	B	0	M1
NMTTP	40	288	4	E	0	M1
NMHLD	41	0	2	96
NMTTP	41	96	4	B	0	M1
NMTTP	41	96	4	E	0	M1
NMHLD	41	192	5	96
NMTTP	41	288	3	B	0	M1
NMTTP	41	288	4	E	0	M1
NMTTP	41	360	6	B	0	M1
NMTTP	42	24	2	B	0	M1
EXTAP	42	72	4
EXTAP	42	96	4
NMTAP	42	192	0
NMTAP	42	240	0
NMTAP	42	288	1
NMTAP	42	336	1
NMSTR	43	0	2
NMSI_	43	0	2	96	48	7
NMTAP	43	48	2
NMSTR	43	96	6
NMSI_	43	96	6	96	48	3
NMTAP	43	144	6
NMTAP	43	192	2
NMTAP	43	240	2
NMTAP	43	288	2
NMTAP	43	336	2
NMTAP	43	360	3
NMTAP	44	24	3
NMTAP	44	48	2
NMTAP	44	96	1
NMTAP	44	96	4
NMTAP	44	192	6
NMTAP	44	240	5
NMTAP	44	288	1
NMTAP	44	336	2
NMSTR	45	0	3
NMSI_	45	0	3	96	48	0
NMSTR	45	0	7
NMSI_	45	0	7	96	48	4
NMTAP	45	192	5
NMTAP	45	240	5
NMTAP	45	288	5
NMTAP	45	336	5
NMTAP	45	360	4
NMTAP	46	24	4
NMTAP	46	48	5
NMTAP	46	96	3
NMTAP	46	96	6
NMTAP	46	192	2
NMTAP	46	240	3
NMTAP	46	288	2
NMTAP	46	288	4
NMHLD	46	360	1	48
NMHLD	47	24	2	48
NMTAP	47	72	3
NMTAP	47	96	3
NMTAP	47	192	5
NMTAP	47	240	4
NMTAP	47	288	3
NMTAP	47	288	5
NMHLD	47	360	6	48
NMHLD	48	24	5	48
NMTAP	48	72	4
NMTAP	48	96	4
NMTAP	48	192	3
NMTAP	48	240	4
NMTAP	48	288	2
NMTAP	48	288	3
NMTAP	48	360	4
NMTAP	48	360	5
NMTAP	49	24	3
NMTAP	49	24	4
NMTAP	49	72	2
NMTAP	49	72	3
NMSTR	49	96	2
NMSI_	49	96	2	96	48	0
NMSTR	49	96	3
NMSI_	49	96	3	96	48	7
NMSTR	49	288	4
NMSI_	49	288	4	96	48	0
NMSTR	49	288	5
NMSI_	49	288	5	96	48	7
NMSTR	50	96	3
NMSCL	50	96	3	96	480	4
NMTTP	51	360	6	A	0	M1
NMTTP	51	366	6	B	0	M1
NMTTP	51	372	0	C	0	M1
NMTTP	51	378	2	B	0	M1
NMTTP	52	0	2	A	0	M1
EXSTR	52	168	0
BRSLR	52	168	0	96	48	4
EXSTR	52	168	1
BRSCR	52	168	1	96	48	4
NMTAP	52	240	6
NMTAP	52	240	7
EXSTR	52	360	6
BRSCL	52	360	6	96	48	3
EXSTR	52	360	7
BRSLL	52	360	7	96	48	3
NMTAP	53	48	0
NMTAP	53	48	1
NMTAP	53	192	0
NMTAP	53	192	1
EXTAP	53	216	2
EXTAP	53	216	6
NMTAP	53	264	0
NMTAP	53	264	1
EXTAP	53	288	2
EXTAP	53	288	6
NMTAP	53	336	0
NMTAP	53	336	1
EXTAP	53	360	2
EXTAP	53	360	6
NMTAP	54	48	4
NMTAP	54	48	5
NMTAP	54	96	2
NMTAP	54	96	3
NMTAP	54	144	1
NMTAP	54	168	1
NMSTR	54	192	0
NMSCR	54	192	0	96	48	3
NMTAP	54	240	7
NMTAP	54	288	6
NMTAP	54	336	5
NMTAP	54	360	5
NMSTR	55	0	4
NMSCR	55	0	4	96	48	7
NMTAP	55	48	3
NMTAP	55	96	2
NMTAP	55	144	1
NMTAP	55	192	0
NMTAP	55	192	7
NMTAP	55	240	1
NMTAP	55	240	3
NMTAP	55	288	4
NMTAP	55	288	6
NMTAP	55	312	4
NMTAP	55	312	6
BRTAP	55	360	1
BRTAP	55	360	5
NMTAP	56	48	0
NMTAP	56	48	1
NMTAP	56	96	2
NMTAP	56	96	3
NMTAP	56	144	4
NMTAP	56	144	5
NMSTR	56	192	6
NMSCL	56	192	6	96	48	3
NMTAP	56	192	7
NMTAP	56	240	0
NMTAP	56	288	1
NMTAP	56	336	2
NMTAP	57	0	0
NMSTR	57	0	1
NMSCR	57	0	1	96	48	4
NMTAP	57	48	7
NMTAP	57	96	6
NMTAP	57	144	5
NMTAP	57	192	6
NMTAP	57	192	7
EXTAP	57	216	1
EXTAP	57	216	5
NMTAP	57	264	6
NMTAP	57	264	7
EXTAP	57	288	1
EXTAP	57	288	5
NMTAP	57	336	6
NMTAP	57	336	7
EXTAP	57	360	1
EXTAP	57	360	5
BXTAP	58	24	6
BXTAP	58	24	7
EXTAP	58	96	2
EXTAP	58	120	3
EXTAP	58	168	5
EXTAP	58	192	4
NMTAP	58	240	3
NMTAP	58	240	6
NMSTR	58	288	7
NMSCL	58	288	7	96	48	4
NMTAP	58	336	7
NMSTR	59	0	0
NMSCR	59	0	0	96	48	3
NMTAP	59	48	0
NMTAP	59	96	7
NMTAP	59	144	5
NMTAP	59	192	4
NMTAP	59	192	6
NMTAP	59	240	1
NMTAP	59	240	3
NMTAP	59	288	2
NMTAP	59	288	5
NMTAP	59	336	0
NMTAP	59	336	7
NMSTR	59	360	0
NMSF_	59	360	0	96	48	4
NMTAP	59	360	7
NMTTP	60	96	0	C	1	M1
NMHLD	60	192	6	192
NMHLD	61	0	5	192
NMHLD	61	192	4	192
NMHLD	62	0	3	192
NMHLD	62	192	2	192
NMHLD	63	0	1	192
NMHLD	63	192	0	192
NMSTR	64	0	7
NMSF_	64	0	7	96	48	3
BRTAP	64	96	7
EXSTR	64	192	0
BRSI_	64	192	0	96	48	4
EXSTR	64	192	1
BRSI_	64	192	1	96	48	3
NMTTP	64	288	1	E	1	M1
EXSTR	65	0	0
BRSI_	65	0	0	96	48	6
EXSTR	65	0	1
BRSI_	65	0	1	96	48	5
NMTTP	65	96	1	E	1	M1
BRTAP	65	192	0
BRSTR	65	192	1
BRSCR	65	192	1	96	96	5
BRSTR	65	288	5
BRSCR	65	288	5	96	96	1
NMTTP	66	0	0	B	0	M1
NMTTP	66	0	1	B	0	M1
NMTTP	66	0	1	E	1	M1
NMSTR	66	192	6
NMSI_	66	192	6	96	48	2
NMTAP	66	240	7
NMTAP	66	288	6
NMTAP	66	336	0
NMSTR	67	0	1
NMSI_	67	0	1	96	48	5
NMTAP	67	48	0
NMTAP	67	96	1
NMTAP	67	144	7
NMTAP	67	192	6
NMTAP	67	192	7
NMTAP	67	240	0
NMTAP	67	240	1
NMTAP	67	288	4
NMTAP	67	288	6
NMTAP	67	336	1
NMTAP	67	336	3
NMTAP	68	0	3
NMTAP	68	0	4
NMTAP	68	48	0
NMTAP	68	48	7
NMTAP	68	72	0
NMSTR	68	72	7
NMSI_	68	72	7	96	504	4
NMTAP	68	192	3
NMTAP	68	288	3
NMTAP	69	0	3
NMTAP	69	96	3
NMTAP	69	192	3
NMTAP	69	288	3
NMTTP	70	0	4	E	0	M1
NMTAP	70	144	3
NMTAP	70	144	4
NMTTP	70	192	0	B	0	M1
NMTTP	70	192	0	C	1	M1
NMTTP	70	192	0	E	0	M1
NMTTP	70	192	1	B	0	M1
NMTTP	70	192	1	E	0	M1
NMTTP	70	192	2	E	0	M1
NMTTP	70	192	6	B	0	M1
NMTTP	70	192	6	E	0	M1
NMTTP	70	192	7	B	0	M1
NMTTP	70	192	7	E	0	M1

T_REC_TAP	323
T_REC_BRK	10
T_REC_XTP	60
T_REC_BXX	6
T_REC_HLD	64
T_REC_XHO	4
T_REC_BHO	0
T_REC_BXH	0
T_REC_STR	48
T_REC_BST	4
T_REC_XST	11
T_REC_XBS	0
T_REC_TTP	41
T_REC_THO	0
T_REC_SLD	53
T_REC_BSL	10
T_REC_ALL	634
T_NUM_TAP	483
T_NUM_BRK	30
T_NUM_HLD	68
T_NUM_SLD	53
T_NUM_ALL	634
T_JUDGE_TAP	503
T_JUDGE_HLD	137
T_JUDGE_SLD	63
T_JUDGE_ALL	703
TTM_EACHPAIRS	159
TTM_SCR_TAP	241500
TTM_SCR_BRK	78000
TTM_SCR_HLD	68000
TTM_SCR_SLD	79500
TTM_SCR_ALL	467000
TTM_SCR_S	450100
TTM_SCR_SS	464000
TTM_RAT_ACV	10064

