VERSION	0.00.00	1.04.00
FES_MODE	0
BPM_DEF	121.000	121.000	121.000	121.000
MET_DEF	4	4
RESOLUTION	384
CLK_DEF	384
COMPATIBLE_CODE	MA2

BPM	0	0	121.000
MET	0	0	4	4
MET	39	0	4	2
MET	39	192	4	4

NMHLD	1	0	2	192
NMHLD	1	192	3	192
NMHLD	2	0	4	192
NMHLD	2	192	5	192
NMHLD	3	0	4	192
NMHLD	3	192	3	192
NMHLD	4	0	2	192
NMTAP	4	192	3
NMHLD	5	0	2	288
NMTAP	5	96	3
NMTAP	5	288	3
NMTAP	6	0	2
NMTAP	6	96	2
NMTAP	6	96	3
NMTAP	6	192	3
NMTAP	6	192	4
NMTAP	6	288	4
NMTAP	6	288	5
NMHLD	7	0	5	288
NMTAP	7	96	4
NMTAP	7	288	4
NMTAP	8	0	5
NMTAP	8	96	4
NMTAP	8	96	5
NMTAP	8	192	3
NMTAP	8	192	4
NMTAP	8	288	2
NMTAP	8	288	3
NMHLD	9	0	2	288
NMTAP	9	96	3
NMTAP	9	288	3
NMTAP	10	0	2
NMTAP	10	96	2
NMTAP	10	96	3
NMTAP	10	192	3
NMTAP	10	192	4
NMTAP	10	288	4
NMTAP	10	288	5
NMHLD	11	0	5	96
NMTAP	11	96	4
NMTAP	11	288	5
NMTAP	12	0	5
NMTAP	12	96	6
NMTAP	12	192	0
NMTAP	12	192	7
NMTAP	12	288	0
NMTAP	12	288	7
BRTAP	13	0	0
BRTAP	13	0	7
NMTAP	13	96	1
NMTAP	13	192	7
NMTAP	13	288	6
NMTAP	14	0	0
NMTAP	14	96	1
NMTAP	14	192	0
NMTAP	14	288	7
NMHLD	15	0	6	192
NMTAP	15	96	7
NMHLD	15	192	2	192
NMTAP	15	288	0
NMHLD	16	0	5	192
NMTAP	16	96	4
NMHLD	16	192	2	96
NMTAP	16	288	3
NMTAP	17	0	1
NMTAP	17	96	2
NMTAP	17	96	3
NMTAP	17	192	6
NMTAP	17	288	4
NMTAP	17	288	5
NMTAP	18	0	2
NMTAP	18	96	2
NMTAP	18	96	3
NMTAP	18	192	3
NMTAP	18	240	3
NMTAP	18	288	2
NMTAP	18	288	4
NMTAP	19	0	6
NMTAP	19	96	4
NMTAP	19	96	5
NMTAP	19	192	1
NMTAP	19	288	2
NMTAP	19	288	3
NMTAP	20	0	5
NMTAP	20	96	4
NMTAP	20	96	5
NMTAP	20	192	4
NMTAP	20	240	4
NMTAP	20	288	3
NMTAP	20	288	5
NMTAP	21	0	1
NMTAP	21	96	0
NMTAP	21	192	7
NMTAP	21	240	7
NMTAP	21	288	0
NMTAP	21	288	6
NMTAP	22	0	0
NMTAP	22	96	1
NMTAP	22	96	7
NMTAP	22	192	2
NMTAP	22	192	6
NMTAP	22	288	3
NMTAP	22	288	5
NMTAP	23	0	3
NMTAP	23	96	4
NMTAP	23	192	5
NMTAP	23	240	5
NMTAP	23	288	4
NMTAP	23	288	6
NMTAP	24	0	4
NMTAP	24	96	3
NMTAP	24	192	2
NMSTR	24	288	1
NMSLR	24	288	1	96	192	5
NMHLD	24	288	4	288
NMHLD	25	288	3	288
NMSTR	25	288	6
NMSLL	25	288	6	96	192	2
NMSTR	26	288	1
NMSI_	26	288	1	96	120	4
NMHLD	26	288	6	384
CNSI_	27	120	4	0	120	0
NMTAP	28	0	0
NMTAP	28	0	7
NMTAP	28	96	1
NMTAP	28	96	6
NMSTR	28	192	2
NMSCL	28	192	2	96	288	4
NMTAP	28	192	5
NMTAP	30	0	3
NMTAP	30	0	4
NMTAP	30	48	3
NMTAP	30	48	4
NMTAP	30	96	3
NMTAP	30	96	4
NMTAP	30	192	2
NMTAP	30	192	5
NMTAP	30	240	1
NMTAP	30	240	6
NMTAP	30	288	0
NMTAP	30	288	7
EXSTR	31	0	0
NMSI_	31	0	0	96	48	4
EXSTR	31	0	1
NMSI_	31	0	1	96	48	4
EXSTR	31	192	6
NMSI_	31	192	6	96	48	3
EXSTR	31	192	7
NMSI_	31	192	7	96	48	3
NMTAP	32	0	2
NMTAP	32	0	4
NMTAP	32	72	1
NMTAP	32	72	5
NMTAP	32	144	0
NMTAP	32	144	6
NMTAP	32	240	0
NMSTR	32	288	0
NMSCR	32	288	0	96	96	3
NMSTR	33	96	4
NMSCR	33	96	4	96	96	7
EXTAP	34	0	1
EXTAP	34	0	7
EXTAP	34	48	1
EXTAP	34	48	7
EXTAP	34	96	0
EXTAP	34	120	0
EXTAP	34	168	1
EXTAP	34	168	6
NMTAP	34	240	0
NMTAP	34	240	7
NMTAP	34	288	0
NMTAP	34	288	7
EXSTR	35	0	6
NMSI_	35	0	6	96	48	3
EXSTR	35	0	7
NMSI_	35	0	7	96	48	3
EXSTR	35	192	0
NMSI_	35	192	0	96	48	4
EXSTR	35	192	1
NMSI_	35	192	1	96	48	4
NMTAP	36	0	3
NMTAP	36	0	5
NMTAP	36	72	2
NMTAP	36	72	6
NMTAP	36	144	1
NMTAP	36	144	7
NMTAP	36	288	1
NMHLD	37	0	1	96
NMHLD	37	96	3	96
NMHLD	37	192	4	96
NMTAP	37	288	6
NMTAP	38	0	4
NMTAP	38	0	5
NMTAP	38	48	4
NMTAP	38	48	5
NMTAP	38	96	4
NMTAP	38	96	5
NMTAP	38	192	2
NMSTR	38	192	3
NMSF_	38	192	3	96	192	7
NMTAP	39	288	6
NMTAP	40	96	5
NMTAP	40	288	4
NMTAP	41	96	3
NMTAP	41	288	2
NMHLD	42	96	1	288
NMTTP	42	192	0	E	0	M1
NMTTP	42	288	1	B	0	M1
NMTTP	42	288	1	E	0	M1
NMTTP	43	0	2	B	0	M1
NMTTP	43	0	3	B	0	M1
NMTTP	43	0	3	E	0	M1
NMTAP	43	96	4
NMSTR	43	192	3
NMSI_	43	192	3	96	96	7
NMTAP	44	96	0
NMTAP	44	96	6
NMTTP	44	192	7	B	0	M1
NMTTP	44	288	5	B	0	M1
NMTTP	44	288	6	E	0	M1
NMTTP	45	0	3	B	0	M1
NMTTP	45	0	4	B	0	M1
NMTTP	45	0	4	E	0	M1
NMTTP	45	96	1	B	0	M1
NMSTR	45	192	0
NMSI_	45	192	0	96	96	4
NMTAP	46	96	3
NMTAP	46	96	5
NMHLD	46	192	6	96
NMTAP	46	240	4
NMTAP	46	288	4
NMTAP	47	0	3
NMTAP	47	0	5
NMTAP	47	96	2
NMTAP	47	96	4
NMSTR	47	192	3
NMSCL	47	192	3	96	96	1
NMTAP	48	96	0
NMSTR	48	192	0
NMSXL	48	192	0	96	144	2
NMSTR	48	192	7
NMSXR	48	192	7	96	144	5
NMTHO	49	192	0	384	C	1	M1
NMTAP	52	0	1
NMTAP	52	0	6
NMTAP	52	96	0
NMTAP	52	96	7
NMTAP	52	144	0
NMTAP	52	144	7
EXSTR	52	192	6
NMSI_	52	192	6	96	48	3
EXSTR	52	192	7
NMSI_	52	192	7	96	48	3
EXSTR	53	0	0
NMSI_	53	0	0	96	48	4
EXSTR	53	0	1
NMSI_	53	0	1	96	48	4
BRTAP	53	192	3
BRTAP	53	192	5
BRTAP	53	264	2
BRTAP	53	264	6
BRTAP	53	336	1
BRTAP	53	336	7
NMTAP	54	48	7
NMSTR	54	96	7
NMSCL	54	96	7	96	96	4
NMSTR	54	288	3
NMSCL	54	288	3	96	96	0
EXTAP	55	192	0
EXTAP	55	192	6
EXTAP	55	240	0
EXTAP	55	240	6
EXTAP	55	288	7
EXTAP	55	312	7
EXTAP	55	360	1
EXTAP	55	360	6
NMTAP	56	48	0
NMTAP	56	48	7
NMTAP	56	96	0
NMTAP	56	96	7
EXSTR	56	192	0
NMSI_	56	192	0	96	48	4
EXSTR	56	192	1
NMSI_	56	192	1	96	48	4
EXSTR	57	0	6
NMSI_	57	0	6	96	48	3
EXSTR	57	0	7
NMSI_	57	0	7	96	48	3
BRTAP	57	192	2
BRTAP	57	192	4
BRTAP	57	264	1
BRTAP	57	264	5
BRTAP	57	336	0
BRTAP	57	336	6
NMTAP	58	96	6
NMHLD	58	192	6	96
NMHLD	58	288	4	96
NMHLD	59	0	3	96
NMTAP	59	96	1
NMTAP	59	192	2
NMTAP	59	192	4
NMTAP	59	240	2
NMTAP	59	240	4
NMTAP	59	288	1
NMTAP	59	288	5
BRTAP	59	360	1
BRTAP	59	360	5
NMHLD	60	96	6	384
NMSTR	60	96	7
NMSXL	60	96	7	96	288	3
NMTAP	61	192	2
NMTAP	61	192	6
NMTAP	61	288	1
NMTAP	61	288	7
NMTAP	62	0	0
NMTAP	62	0	1
NMSTR	62	96	0
NMSXR	62	96	0	96	288	4
NMHLD	62	96	1	384
NMTAP	63	192	5
NMTAP	64	0	6
NMTAP	64	0	7
BXSTR	64	96	6
BRSI_	64	96	6	96	48	3
BXSTR	64	96	7
BRSI_	64	96	7	96	48	3
BXSTR	64	288	0
BRSI_	64	288	0	96	48	4
BXSTR	64	288	1
BRSI_	64	288	1	96	48	4
NMSTR	65	96	3
BRSXR	65	96	3	96	192	0
NMSTR	65	96	5
BRSXL	65	96	5	96	192	0
NMTAP	66	96	2
NMHLD	66	192	2	96
NMHLD	66	288	0	96
NMHLD	67	0	7	96
NMTAP	67	96	6
NMTAP	67	192	7
NMTAP	67	240	0
NMTAP	67	240	6
NMTAP	67	288	1
NMTAP	67	288	5
NMTAP	67	336	2
NMTAP	67	336	4
NMTAP	68	0	2
NMTAP	68	0	4
NMSTR	68	192	2
NMSI_	68	192	2	96	96	0
NMSTR	68	192	3
NMSI_	68	192	3	96	96	7
NMTAP	69	192	0
NMTAP	69	192	7
NMSTR	69	288	0
NMSCR	69	288	0	96	96	3
NMSTR	69	288	7
NMSCL	69	288	7	96	96	4
BRTAP	70	192	1
BRTAP	70	192	6

T_REC_TAP	196
T_REC_BRK	18
T_REC_XTP	16
T_REC_BXX	0
T_REC_HLD	31
T_REC_XHO	0
T_REC_BHO	0
T_REC_BXH	0
T_REC_STR	22
T_REC_BST	0
T_REC_XST	16
T_REC_XBS	4
T_REC_TTP	13
T_REC_THO	1
T_REC_SLD	36
T_REC_BSL	6
T_REC_ALL	359
T_NUM_TAP	263
T_NUM_BRK	28
T_NUM_HLD	32
T_NUM_SLD	36
T_NUM_ALL	359
T_JUDGE_TAP	285
T_JUDGE_HLD	132
T_JUDGE_SLD	42
T_JUDGE_ALL	459
TTM_EACHPAIRS	100
TTM_SCR_TAP	131500
TTM_SCR_BRK	72800
TTM_SCR_HLD	32000
TTM_SCR_SLD	54000
TTM_SCR_ALL	290300
TTM_SCR_S	278900
TTM_SCR_SS	287500
TTM_RAT_ACV	10097

