VERSION	0.00.00	1.04.00
FES_MODE	0
BPM_DEF	204.000	204.000	204.000	204.000
MET_DEF	4	4
RESOLUTION	384
CLK_DEF	384
COMPATIBLE_CODE	MA2

BPM	0	0	204.000
MET	0	0	4	4

NMSTR	2	0	7
NMSCL	2	0	7	96	96	5
NMSCR	2	0	7	96	96	1
CNSV_	2	192	1	0	96	3
CNSV_	2	192	5	0	96	3
NMSTR	3	0	0
NMSI_	3	0	0	96	96	2
NMSI_	3	0	0	96	96	6
CNSV_	3	192	2	0	96	4
CNSV_	3	192	6	0	96	4
NMSTR	4	0	7
NMSCL	4	0	7	96	96	3
NMTAP	4	192	1
NMTAP	5	0	0
NMTAP	5	0	7
NMTAP	5	144	4
NMTAP	5	144	6
NMTAP	5	240	1
NMTAP	5	288	3
NMHLD	6	0	0	384
NMTAP	6	96	3
NMTAP	6	144	3
NMTAP	6	192	4
NMTAP	6	240	4
NMTAP	6	288	5
NMTAP	6	336	5
NMHLD	7	0	6	288
NMTAP	7	96	3
NMTAP	7	144	3
NMTAP	7	192	2
NMTAP	7	240	2
NMTAP	7	288	1
NMTAP	7	336	1
NMTAP	8	0	1
NMTAP	8	0	4
NMTAP	8	48	2
NMTAP	8	72	3
NMTAP	8	96	2
NMTAP	8	144	5
NMTAP	8	168	4
NMTAP	8	192	5
NMTAP	8	240	1
NMTAP	8	264	3
NMSTR	8	288	1
NMSI_	8	288	1	96	48	5
NMTAP	8	312	3
NMTAP	8	336	1
NMTAP	8	360	3
NMTAP	9	0	1
NMTAP	9	240	0
NMTAP	9	264	7
BXTAP	9	288	2
BXTAP	9	288	6
NMTAP	10	0	1
NMTAP	10	48	2
NMTAP	10	48	3
NMTAP	10	96	6
NMTAP	10	144	4
NMTAP	10	144	5
NMTAP	10	192	0
NMTAP	10	240	1
NMTAP	10	240	3
NMTAP	10	288	7
NMTAP	10	336	4
NMTAP	10	336	6
NMTAP	11	0	2
NMTAP	11	48	1
NMTAP	11	48	3
NMTAP	11	96	5
NMTAP	11	144	4
NMTAP	11	144	6
NMTAP	11	192	3
NMTAP	11	240	2
NMTAP	11	240	4
NMTAP	11	288	1
NMTAP	11	336	2
NMTAP	11	336	3
NMTAP	12	0	4
NMTAP	12	48	3
NMTAP	12	48	5
NMTAP	12	96	6
NMTAP	12	144	4
NMTAP	12	144	5
NMTAP	12	192	3
NMTAP	12	240	2
NMTAP	12	240	4
NMTAP	12	288	1
NMTAP	12	336	2
NMTAP	12	336	3
NMTAP	13	0	0
NMTAP	13	48	1
NMTAP	13	48	3
NMTAP	13	96	2
NMTAP	13	144	3
NMTAP	13	144	5
NMTAP	13	192	6
NMTAP	13	240	4
NMTAP	13	240	5
NMTAP	13	288	7
NMTAP	13	336	4
NMTAP	13	336	6
NMTAP	14	0	7
NMTAP	14	48	0
NMTAP	14	48	7
NMTAP	14	96	1
NMTAP	14	144	2
NMTAP	14	144	4
NMTAP	14	192	5
NMTAP	14	240	3
NMTAP	14	240	5
NMTAP	14	288	2
NMTAP	14	336	2
NMTAP	14	336	4
NMTAP	15	0	1
NMTAP	15	48	2
NMTAP	15	72	3
NMTAP	15	96	2
NMTAP	15	144	1
NMTAP	15	144	4
NMTAP	15	240	3
NMTAP	15	240	6
NMTAP	15	336	2
NMTAP	15	336	3
NMSTR	16	0	2
NMSI_	16	0	2	96	48	7
NMTAP	16	0	3
BXTAP	16	96	2
NMHLD	16	96	6	192
NMTAP	16	288	0
NMTAP	17	0	3
NMTAP	17	96	2
NMTAP	17	96	4
NMTAP	17	144	2
NMSTR	17	144	4
NMSV_	17	144	4	96	48	2
NMSV_	17	144	4	96	48	6
CNSCL	17	288	2	0	96	0
CNSCR	17	288	6	0	96	0
NMSTR	18	96	7
NMSI_	18	96	7	96	48	3
NMTAP	18	144	7
NMTAP	18	192	0
NMTAP	18	240	0
NMTAP	18	288	4
NMTAP	18	336	4
NMHLD	19	0	1	96
NMTAP	19	96	3
NMTAP	19	144	3
NMTAP	19	192	2
NMTAP	19	192	4
NMTAP	19	240	2
NMTAP	19	240	4
EXHLD	19	336	0	96
EXHLD	19	336	5	96
NMSTR	20	96	1
NMSI_	20	96	1	96	48	3
NMHLD	20	192	7	96
NMTAP	20	288	4
NMTAP	20	336	3
NMTAP	21	0	2
NMHLD	21	48	1	96
NMTAP	21	144	7
NMTAP	21	192	7
NMSTR	21	240	0
NMSCR	21	240	0	96	48	2
NMSTR	21	240	6
NMSCL	21	240	6	96	48	4
NMTAP	22	48	1
NMTAP	22	48	5
NMTAP	22	96	1
NMTAP	22	96	5
NMTAP	22	192	2
NMTAP	22	192	6
NMTAP	22	240	1
EXSTR	22	288	0
NMSI_	22	288	0	96	48	4
EXSTR	22	288	7
NMSI_	22	288	7	96	48	3
NMTAP	23	240	0
NMTAP	23	264	7
NMTAP	23	288	1
NMTAP	23	288	6
NMTAP	24	0	2
NMTAP	24	0	4
NMTAP	24	48	5
NMTAP	24	96	1
NMTAP	24	144	6
NMTAP	24	192	3
NMTAP	24	192	6
NMTAP	24	240	2
NMTAP	24	288	7
NMTAP	24	336	0
NMTAP	25	0	0
NMTAP	25	0	3
NMTAP	25	48	4
NMTAP	25	96	2
NMTAP	25	144	5
NMTAP	25	192	4
NMTAP	25	192	5
NMTAP	25	240	3
NMTAP	25	288	6
NMTAP	25	336	1
NMTAP	26	0	1
NMTAP	26	0	7
NMTAP	26	48	5
NMTAP	26	96	2
NMTAP	26	144	4
NMTAP	26	192	1
NMTAP	26	192	4
NMTAP	26	240	0
NMTAP	26	288	7
NMTAP	26	336	6
NMTAP	27	0	4
NMTAP	27	0	5
NMTAP	27	48	3
NMTAP	27	96	2
NMTAP	27	144	1
NMTAP	27	168	4
NMTAP	27	192	1
NMTAP	27	216	4
NMSTR	27	240	1
NMSCL	27	240	1	96	48	6
NMTAP	27	264	4
NMTAP	27	288	1
NMTAP	27	312	4
NMTAP	27	336	1
NMTAP	28	48	3
NMTAP	28	96	3
NMTAP	28	192	0
NMTAP	28	192	1
NMTAP	28	288	2
NMTAP	28	288	3
NMTAP	29	0	6
NMTAP	29	0	7
NMTAP	29	48	6
NMTAP	29	48	7
NMTAP	29	96	0
NMTAP	29	96	5
NMTTP	29	192	2	E	0	M1
NMTTP	29	208	2	B	0	M1
NMTTP	29	224	3	B	0	M1
NMTTP	29	240	4	E	0	M1
NMTTP	29	288	6	E	0	M1
NMTTP	29	304	5	B	0	M1
NMTTP	29	320	4	B	0	M1
NMTTP	29	336	4	E	0	M1
BRHLD	30	0	0	288
NMSTR	30	288	7
NMSV_	30	288	7	96	48	2
CNSLL	31	48	2	0	96	6
CNSI_	31	144	6	0	48	3
BRTAP	31	288	0
BRTAP	31	336	1
BRSTR	31	336	7
NMSXR	31	336	7	96	96	7
EXTAP	32	48	2
EXTAP	32	96	2
NMTAP	32	192	0
NMSTR	32	240	0
NMSCR	32	240	0	96	96	4
NMSTR	32	336	4
NMSCR	32	336	4	96	96	0
NMSTR	33	48	0
NMSCR	33	48	0	96	96	4
NMTAP	33	144	4
NMTAP	33	240	0
BXTAP	33	336	2
BXTAP	33	336	6
NMTAP	34	48	1
NMTAP	34	48	5
NMTAP	34	96	1
NMTAP	34	96	5
NMTAP	34	192	7
NMSTR	34	240	7
NMSCL	34	240	7	96	96	3
NMSTR	34	336	3
NMSCL	34	336	3	96	96	7
NMSTR	35	48	7
NMSCL	35	48	7	96	96	3
NMTAP	35	144	3
NMTAP	35	240	7
NMSTR	35	336	2
NMSCL	35	336	2	96	192	6
NMTAP	35	336	5
NMTAP	36	48	4
NMTAP	36	96	4
NMTAP	36	192	3
CNSLR	36	240	6	0	192	2
NMTAP	36	288	4
NMTAP	37	0	5
NMTAP	37	96	6
NMTAP	37	168	5
NMTAP	37	192	4
NMTAP	37	264	4
NMTAP	37	264	6
NMTAP	37	336	3
NMTAP	37	336	7
NMTAP	38	0	3
NMSTR	38	0	7
NMSF_	38	0	7	96	48	3
BRTAP	38	96	7
NMSTR	38	288	2
NMSI_	38	288	2	96	48	7
NMTAP	39	0	4
NMSTR	39	96	5
NMSI_	39	96	5	96	48	0
NMTAP	39	192	3
NMTAP	39	288	4
NMTAP	39	336	4
NMTAP	40	48	3
NMTAP	40	48	6
NMTAP	40	96	3
NMSTR	40	96	6
NMSI_	40	96	6	96	48	2
NMTAP	40	192	0
NMTAP	40	192	6
NMTAP	40	288	0
NMSTR	40	288	3
NMSI_	40	288	3	96	48	7
NMTAP	41	0	0
NMTAP	41	0	3
NMSTR	41	96	0
NMSI_	41	96	0	96	48	4
NMTAP	41	192	0
NMTAP	41	192	5
NMTAP	41	288	3
NMTAP	41	288	6
NMTAP	41	336	3
NMTAP	41	336	6
NMTAP	42	48	1
NMTAP	42	48	4
NMSTR	42	96	1
NMSI_	42	96	1	96	48	5
NMTAP	42	96	4
NMTAP	42	192	1
NMTAP	42	192	7
NMSTR	42	288	4
NMSI_	42	288	4	96	48	0
NMTAP	42	288	7
NMTAP	43	0	4
NMTAP	43	0	7
NMSTR	43	96	7
NMSV_	43	96	7	96	48	4
NMTAP	43	192	2
BRSTR	43	288	3
NMSI_	43	288	3	96	48	1
NMSTR	44	0	3
NMSI_	44	0	3	96	48	6
NMSTR	44	96	3
NMSI_	44	96	3	96	48	0
NMSTR	44	192	3
NMSI_	44	192	3	96	48	5
NMSTR	44	288	3
NMSI_	44	288	3	96	48	7
NMSTR	45	0	3
NMSI_	45	0	3	96	48	6
NMSTR	45	96	3
NMSI_	45	96	3	96	48	0
NMTAP	45	192	3
NMTAP	45	288	1
NMTAP	45	288	7
NMTAP	46	0	3
NMHLD	46	0	6	192
NMTAP	46	96	4
NMTAP	46	144	4
NMSTR	46	192	4
NMSI_	46	192	4	96	48	0
NMTAP	46	240	4
NMTAP	46	288	5
NMHLD	47	0	1	192
NMTAP	47	0	5
NMTAP	47	96	3
NMTAP	47	144	3
NMSTR	47	192	3
NMSI_	47	192	3	96	48	7
NMTAP	47	240	3
NMTAP	47	288	2
NMTAP	48	0	2
NMHLD	48	0	6	192
NMTAP	48	96	4
NMTAP	48	144	4
NMTAP	48	192	4
NMTAP	48	240	4
NMTAP	48	288	4
NMTAP	48	336	4
NMTAP	49	0	3
NMTAP	49	0	5
NMTAP	49	48	3
NMTAP	49	48	5
NMTAP	49	96	2
NMTAP	49	96	6
NMTAP	49	144	2
NMTAP	49	144	6
NMTAP	49	192	1
NMTAP	49	216	7
NMTAP	49	240	1
NMTAP	49	264	7
NMSTR	49	288	0
NMSI_	49	288	0	96	48	4
NMTAP	49	312	6
NMTAP	49	336	0
NMTAP	49	360	6
BRTAP	50	0	0
NMTAP	51	288	2
NMTAP	51	288	6
NMSTR	52	0	1
NMSI_	52	0	1	96	48	4
NMTAP	52	0	7
NMTAP	52	48	0
NMSTR	52	96	6
NMSI_	52	96	6	96	48	3
NMTAP	52	144	7
NMSTR	52	192	1
NMSI_	52	192	1	96	48	4
NMTAP	52	240	0
NMSTR	52	288	6
NMSI_	52	288	6	96	48	3
NMTAP	52	336	7
NMSTR	53	0	1
NMSI_	53	0	1	96	48	5
NMTAP	53	48	0
NMSTR	53	96	7
NMSI_	53	96	7	96	48	3
NMTAP	53	144	0
NMTAP	53	192	1
NMTAP	53	240	1
NMTAP	53	288	0
NMTAP	53	288	4
NMTAP	53	336	5
NMSTR	54	0	6
NMSI_	54	0	6	96	48	3
NMTAP	54	48	7
NMSTR	54	96	1
NMSI_	54	96	1	96	48	4
NMTAP	54	144	0
NMSTR	54	192	6
NMSI_	54	192	6	96	48	3
NMTAP	54	240	7
NMSTR	54	288	1
NMSI_	54	288	1	96	48	4
NMTAP	54	336	0
NMSTR	55	0	6
NMSI_	55	0	6	96	48	2
NMTAP	55	48	7
NMSTR	55	96	0
NMSI_	55	96	0	96	48	4
NMTAP	55	144	7
NMTAP	55	192	6
NMTAP	55	240	5
NMSTR	55	288	3
NMSCL	55	288	3	96	48	0
NMTAP	55	288	6
NMTAP	56	0	5
NMTAP	56	96	1
NMTAP	56	96	4
NMSTR	56	144	1
NMSI_	56	144	1	96	48	6
NMTAP	56	144	4
NMTAP	56	192	3
NMTAP	56	240	3
NMSTR	56	288	4
NMSCR	56	288	4	96	48	7
NMTAP	57	0	2
NMTAP	57	0	4
NMTAP	57	96	3
NMTAP	57	96	6
NMTAP	57	144	3
NMSTR	57	144	6
NMSI_	57	144	6	96	48	1
NMTAP	57	192	4
NMTAP	57	240	4
NMSTR	57	288	3
NMSF_	57	288	3	96	48	7
EXTAP	58	96	1
EXTAP	58	96	5
EXTAP	58	144	1
EXTAP	58	144	5
NMTAP	58	192	6
NMTAP	58	240	6
NMTAP	58	264	4
NMTAP	58	288	5
NMTAP	58	312	4
NMTAP	58	336	5
NMTAP	59	0	3
NMTAP	59	0	6
NMTAP	59	48	2
NMTAP	59	96	2
NMTAP	59	144	1
NMTAP	59	144	3
NMSTR	59	192	0
NMSI_	59	192	0	96	48	3
NMTAP	59	240	0
NMTAP	59	288	4
NMSTR	60	0	5
NMSI_	60	0	5	96	48	0
NMTAP	60	48	5
NMTAP	60	96	3
NMSTR	60	192	2
NMSI_	60	192	2	96	48	7
NMTAP	60	240	2
NMTAP	60	288	4
NMSTR	61	0	5
NMSI_	61	0	5	96	48	0
NMTAP	61	48	5
NMTAP	61	96	3
NMSTR	61	192	2
NMSI_	61	192	2	96	48	7
NMTAP	61	240	2
NMTAP	61	288	4
NMSTR	62	0	6
NMSI_	62	0	6	96	48	3
NMTAP	62	48	6
NMTAP	62	96	0
NMSTR	62	192	1
NMSI_	62	192	1	96	48	4
NMTAP	62	240	1
NMTAP	62	288	7
NMTAP	63	0	6
NMTAP	63	0	7
NMTAP	63	48	6
NMTAP	63	48	7
NMTAP	63	96	0
NMTAP	63	96	5
NMTAP	63	144	2
NMTAP	63	168	3
NMTAP	63	192	2
NMTAP	63	240	1
NMTAP	63	240	4
NMSTR	63	288	1
NMSI_	63	288	1	96	48	5
NMTAP	63	288	4
NMTAP	64	0	1
NMSTR	64	0	7
NMSI_	64	0	7	96	48	3
NMSTR	64	96	2
NMSI_	64	96	2	96	48	0
NMTAP	64	96	7
NMTAP	64	192	2
NMSTR	64	192	5
NMSI_	64	192	5	96	48	2
NMSTR	64	288	1
NMSI_	64	288	1	96	48	6
NMTAP	64	288	5
NMTAP	65	0	1
NMSTR	65	0	5
NMSI_	65	0	5	96	48	0
NMSTR	65	96	3
NMSCL	65	96	3	96	48	0
NMTAP	65	96	5
NMTAP	65	192	3
NMSTR	65	192	7
NMSCL	65	192	7	96	48	4
NMTAP	65	288	1
NMTAP	65	288	7
NMTAP	66	0	0
NMTAP	66	0	5
NMTAP	66	48	6
NMTAP	66	72	7
NMTAP	66	96	6
NMTAP	66	144	5
NMTAP	66	192	3
NMTAP	66	192	4
NMTAP	66	240	2
NMSTR	66	288	0
NMSCL	66	288	0	96	48	5
NMSTR	66	288	1
NMSCR	66	288	1	96	48	4
NMTTP	67	0	0	A	0	M1
NMTTP	67	0	1	A	0	M1
NMTTP	67	0	1	D	1	M1
NMSTR	67	288	0
BRSI_	67	288	0	96	48	3
NMSTR	67	288	7
BRSI_	67	288	7	96	48	4
BRTAP	68	0	0
BRTAP	68	0	7
NMSTR	68	96	2
NMSCL	68	96	2	96	96	5
NMTAP	68	96	5
NMSTR	68	192	5
NMSCR	68	192	5	96	96	2
NMTAP	68	288	2
NMTAP	69	0	5
NMTAP	69	96	4
NMTAP	69	144	4
NMTAP	69	192	3
NMTAP	69	192	5
NMTAP	69	288	0
NMTAP	69	336	0
NMTAP	70	0	1
NMTAP	70	0	7
NMSTR	70	96	6
NMSCR	70	96	6	96	96	3
NMSTR	70	192	3
NMSCL	70	192	3	96	96	6
NMTAP	70	288	5
NMTAP	71	0	4
NMSTR	71	96	1
NMSCL	71	96	1	96	96	4
NMSTR	71	192	4
NMSCR	71	192	4	96	96	1
NMTAP	71	288	2
NMTAP	72	0	3
NMSTR	72	96	6
NMSCR	72	96	6	96	96	2
NMSTR	72	192	2
NMSCR	72	192	2	96	96	6
NMSTR	72	288	6
NMSCR	72	288	6	96	96	2
NMSTR	73	0	2
NMSCR	73	0	2	96	96	6
NMSTR	73	96	6
NMSCR	73	96	6	96	96	2
NMSTR	73	192	2
NMSCR	73	192	2	96	96	6
NMTAP	73	288	6
NMTAP	74	0	2
NMTAP	74	96	3
NMTAP	74	96	7
NMTAP	74	144	3
NMTAP	74	144	7
NMTAP	74	192	2
NMTAP	74	240	1
NMTAP	74	264	3
NMTAP	74	288	1
NMTAP	74	312	3
NMTAP	74	336	1
NMTAP	75	0	0
NMTAP	75	0	4
NMTAP	75	72	2
NMTAP	75	72	6
NMTAP	75	144	3
NMTAP	75	144	7
NMTAP	75	192	3
NMTAP	75	192	7
NMTAP	75	264	1
NMTAP	75	264	5
NMTAP	75	336	0
NMTAP	75	336	4
BXSTR	76	0	0
NMSCL	76	0	0	96	192	6
NMSCR	76	0	0	96	192	2
BXTAP	76	0	4
CNSV_	76	288	2	0	288	4
CNSV_	76	288	6	0	288	4

T_REC_TAP	409
T_REC_BRK	6
T_REC_XTP	6
T_REC_BXX	6
T_REC_HLD	9
T_REC_XHO	2
T_REC_BHO	1
T_REC_BXH	0
T_REC_STR	85
T_REC_BST	2
T_REC_XST	2
T_REC_XBS	1
T_REC_TTP	11
T_REC_THO	0
T_REC_SLD	92
T_REC_BSL	2
T_REC_ALL	634
T_NUM_TAP	513
T_NUM_BRK	18
T_NUM_HLD	11
T_NUM_SLD	92
T_NUM_ALL	634
T_JUDGE_TAP	528
T_JUDGE_HLD	46
T_JUDGE_SLD	94
T_JUDGE_ALL	668
TTM_EACHPAIRS	124
TTM_SCR_TAP	256500
TTM_SCR_BRK	46800
TTM_SCR_HLD	11000
TTM_SCR_SLD	138000
TTM_SCR_ALL	452300
TTM_SCR_S	437000
TTM_SCR_SS	450500
TTM_RAT_ACV	10039

